osu file format v5

[General]
AudioFilename: Leekspin.mp3
AudioLeadIn: 1023
PreviewTime: -1
Countdown: 0
SampleSet: Normal
StackLeniency: 0.7
Mode: 0
LetterboxInBreaks: 1

[Metadata]
Title:Ievan Polkka
Artist:Loituma
Creator:ottobcc
Version:Hard
Source:
Tags:

[Difficulty]
HPDrainRate:3
CircleSize:5
OverallDifficulty:10
SliderMultiplier:1.4
SliderTickRate:1

[Events]
//Background and Video events
0,0,"Background.png"
//Break Periods
//Storyboard Layer 0 (Background)
4,0,0,"Pedobear.png",150,480 M,0,-2976,-2276,150,480,150,295 P,0,-1776,-976,H M,0,-976,-626,150,295,-200,295
//Storyboard Layer 1 (Failing)
//Storyboard Layer 2 (Passing)
//Storyboard Layer 3 (Foreground)
4,3,0,"Link.png",400,480 M,0,-2976,-2276,400,480,400,295 M,0,-976,-262,400,295,-314,295
4,3,0,"OHSHI.png",640,480 M,0,-1476,-1476,230,345,240,345 F,0,-1476,-1476,0,100 F,0,-976,-976,100,0
4,3,0,"Eat.png",240,480 M,0,26000,26000,240,480,240,295 M,0,27000,27500,240,295,240,480
//Storyboard Sound Samples
//Background Colour Transformations
3,100,163,162,255

[TimingPoints]
4584,554.272517321016,4,1,0,70,1,0

[HitObjects]
255,188,149,1,14
255,188,288,1,14
255,188,426,1,14
255,188,565,1,14
255,188,704,1,14
255,188,842,1,14
255,188,981,1,14
255,188,1119,1,14
255,188,1258,1,14
255,188,1396,1,14
255,188,1535,1,14
255,188,1674,1,14
255,188,1881,1,14
255,188,2020,1,14
255,188,2159,1,14
255,188,2297,1,14
255,188,2436,1,14
255,188,2574,1,14
255,188,2782,1,14
255,188,2921,1,14
255,188,3059,1,14
255,188,3267,1,14
255,188,3406,1,14
255,188,3544,1,14
255,188,3683,1,14
255,188,3821,1,14
255,188,4029,1,14
255,188,4237,1,14
255,188,4376,1,14
255,188,4514,1,14
255,188,4653,1,14
255,188,4791,1,14
255,188,4930,1,14
255,188,5138,1,14
255,188,5276,1,14
255,188,5415,1,14
255,188,5553,1,14
255,188,5761,1,14
255,188,5900,1,14
255,188,6038,1,14
255,188,6246,1,14
255,188,6385,1,14
255,188,6593,1,14
255,188,6731,1,14
255,188,6870,1,14
255,188,7078,1,14
255,188,7216,1,14
255,188,7355,1,14
255,188,7563,1,14
255,188,7701,1,14
255,188,7840,1,14
255,188,7978,1,14
255,188,8186,1,14
255,188,8325,1,14
255,188,8463,1,14
255,188,8671,1,14
255,188,8810,1,14
255,188,9018,1,14
255,188,9156,1,14
255,188,9364,1,14
255,188,9503,1,14
255,188,9711,1,14
255,188,9849,1,14
255,188,10057,1,14
255,188,10196,1,14
255,188,10403,1,14
255,188,10542,1,14
255,188,10680,1,14
255,188,10888,1,14
255,188,11096,1,14
255,188,11235,1,14
255,188,11443,1,14
255,188,11650,1,14
255,188,11789,1,14
255,188,11997,1,14
255,188,12135,1,14
255,188,12343,1,14
255,188,12482,1,14
255,188,12690,1,14
255,188,12828,1,14
255,188,13036,1,14
255,188,13175,1,14
255,188,13383,1,14
255,188,13521,1,14
255,188,13729,1,14
255,188,13868,1,14
255,188,14075,1,14
255,188,14214,1,14
255,188,14422,1,14
255,188,14560,1,14
255,188,14768,1,14
255,188,14976,1,14
255,188,15115,1,14
255,188,15253,1,14
255,188,15461,1,14
255,188,15600,1,14
255,188,15738,1,14
255,188,15946,1,14
255,188,16154,1,14
255,188,16293,1,14
255,188,16500,1,14
255,188,16639,1,14
255,188,16847,1,14
255,188,17055,1,14
255,188,17193,1,14
255,188,17401,1,14
255,188,17609,1,14
255,188,17747,1,14
255,188,17955,1,14
255,188,18094,1,14
255,188,18302,1,14
255,188,18440,1,14
255,188,18579,1,14
255,188,18787,1,14
255,188,18995,1,14
255,188,19133,1,14
255,188,19341,1,14
255,188,19549,1,14
255,188,19687,1,14
255,188,19895,1,14
255,188,20034,1,14
255,188,20242,1,14
255,188,20380,1,14
255,188,20588,1,14
255,188,20727,1,14
255,188,20935,1,14
255,188,21073,1,14
255,188,21212,1,14
255,188,21420,1,14
255,188,21558,1,14
255,188,21697,1,14
255,188,21905,1,14
255,188,22112,1,14
255,188,22320,1,14
255,188,22459,1,14
255,188,22667,1,14
255,188,22874,1,14
255,188,23013,1,14
255,188,23221,1,14
255,188,23429,1,14
255,188,23567,1,14
255,188,23775,1,14
255,188,23914,1,14
255,188,24122,1,14
255,188,24329,1,14
255,188,24468,1,14
255,188,24676,1,14
255,188,24884,1,14
255,188,25092,1,14
255,188,25299,1,14
255,188,25507,1,14
255,188,25646,1,14
255,188,25784,1,14
255,188,25992,1,14
255,188,26062,1,14
255,188,26200,1,14
255,188,26339,1,14
