osu file format v9

[General]
AudioFilename: Liz Triangle - Moonlight Step.mp3
AudioLeadIn: 0
PreviewTime: 80199
Countdown: 0
SampleSet: Soft
StackLeniency: 0.7
Mode: 0
LetterboxInBreaks: 0

[Editor]
DistanceSpacing: 0.8
BeatDivisor: 4
GridSize: 4

[Metadata]
Title:Moonlight Step
Artist:Liz Triangle x Like a Rabbit
Creator:Leorda
Version:Lightness
Source:Touhou
Tags:the embodiment of scarlet devil koumakyou rumia stage 1 boss lily-an kaztora

[Difficulty]
HPDrainRate:3
CircleSize:3
OverallDifficulty:3
ApproachRate:4
SliderMultiplier:1.1
SliderTickRate:2

[Events]
//Background and Video events
0,0,"wallpaper-770363.jpg"
//Break Periods
2,109722,111360
2,162955,173164
//Storyboard Layer 0 (Background)
//Storyboard Layer 1 (Fail)
//Storyboard Layer 2 (Pass)
//Storyboard Layer 3 (Foreground)
//Storyboard Sound Samples
//Background Colour Transformations
3,100,128,64,64

[TimingPoints]
8469.86904486958,451.127819548872,4,2,1,100,1,0
80650,-100,4,1,0,75,0,1
109522,-100,4,2,1,100,0,0
145612,-100,4,1,0,75,0,1
160048,-100,4,2,1,100,0,0
162642,-100,4,2,0,0,0,0
162868,-100,4,2,1,75,0,0
203357,-100,4,1,0,75,0,1
235838,-100,4,2,0,100,0,0

[Colours]
Combo1 : 191,0,0
Combo2 : 191,128,128
Combo3 : 155,79,79

[HitObjects]
88,188,23357,2,0,B|88:64,1,110,8|0
176,68,24259,2,0,B|177:186,1,110,8|0
263,187,25161,2,0,B|263:63,1,110,8|0
340,116,26063,1,8
344,28,26514,6,0,B|412:44|436:104|412:160,2,165,0|0|8
340,116,28319,1,0
340,204,28770,1,8
260,240,29221,2,0,B|282:294|343:320|411:292|426:230,1,220,0|4
440,144,30575,5,8
392,68,31026,1,0
312,28,31477,1,8
224,28,31928,1,0
144,68,32379,1,8
96,144,32830,1,0
268,104,33733,6,0,B|216:200|356:200|264:316,2,220
344,148,35988,2,8,B|328:208|268:236|192:208|176:136,1,220
260,108,37342,6,4,B|300:56|368:48|428:100,2,165
336,152,39146,1,0
324,240,39597,1,8
236,252,40048,1,0
200,172,40499,1,8
256,104,40951,6,4,B|216:52|148:44|88:96,2,165
176,152,42755,1,0
188,240,43206,1,8
276,252,43657,1,0
312,172,44108,1,8
260,108,44560,6,0,B|216:60|160:48|100:80|80:160,1,220,4|0
260,108,46364,2,0,B|304:156|360:168|420:136|440:56,1,220
348,60,47717,1,8
348,60,48169,6,0,B|300:104|288:160|320:220|400:240,2,220
392,136,50424,2,8,B|484:160|492:300|436:328,1,220
452,316,51778,1,4
388,256,52229,5,8
332,188,52680,1,0
252,152,53131,1,8
164,152,53582,1,0
84,188,54033,1,8
36,260,54484,1,0
208,296,55387,6,0,B|248:188,1,110,0|8
336,196,56289,2,0,B|294:92,1,110,0|8
224,40,57191,1,0
140,16,57642,1,8
64,64,58093,1,0
148,92,58545,1,8
80,148,58996,6,4,B|132:196|208:184|232:116,2,165
148,92,60800,1,0
224,136,61251,1,8
304,172,61702,2,0,B|416:232,1,110,0|8
344,292,62605,6,4,B|196:208,4,165
432,308,65763,1,8
476,232,66214,6,0,B|512:120,2,110,4|0|8
432,308,67567,2,0,B|370:277|388:196,1,110
420,136,68469,1,0
464,60,68920,2,0,B|516:100,2,55
376,48,69823,5,4
332,48,70048,1,0
291,45,70274,1,0
204,48,70725,2,0,B|204:132|284:132|284:132|376:132,3,220,8|0|8|4
460,132,73883,5,0
416,208,74334,2,0,B|184:208,1,220,8|0
108,208,75687,1,0
68,188,75913,1,0
52,148,76139,1,8
132,112,76590,1,0
256,192,77041,12,0,79748
216,292,80650,5,4
176,280,80875,1,0
136,268,81101,1,8
56,229,81552,2,0,B|88:168|156:192,1,110,0|8
232,212,82454,5,4
272,224,82680,1,0
312,236,82905,1,8
396,260,83357,2,0,B|417:200|356:168,1,110,0|8
277,132,84259,6,4,B|76:32,2,220
356,168,86514,1,8
396,188,86740,1,0
436,208,86966,1,0
472,288,87417,1,8
384,288,87868,5,4
344,276,88093,1,0
300,288,88319,1,8
212,288,88770,1,0
124,288,89221,1,8
168,212,89672,2,0,B|220:196|260:156|260:156|296:196|372:224,1,220
396,140,91026,2,0,B|332:140|264:52|264:52|192:136|108:136,3,330,8|0|8|4
80,208,95537,5,8
168,212,95988,2,0,B|236:200|264:156|264:156|288:200|372:216,3,220
439,211,99146,1,8
396,288,99597,2,0,B|396:352,2,55,0|0|8
354,210,100499,1,0
312,288,100951,1,8
268,212,101402,2,0,B|268:148,2,55,0|0|8
208,276,102304,6,4,B|0:319|12:7|203:46,2,440
256,192,106590,12,4,109522
256,196,112680,5,4
184,148,113131,2,0,B|260:76|344:160,2,165,0|0|8
256,196,114936,2,0,B|180:268|96:184,2,165,0|0|8
256,196,116740,1,4
256,108,117191,5,8
332,152,117642,1,0
332,240,118093,1,8
256,288,118545,1,0
180,240,118996,1,8
180,152,119447,1,0
324,48,120349,5,0
368,48,120575,1,0
412,48,120800,1,8
368,124,121251,1,0
324,124,121477,1,0
280,124,121702,1,8
236,48,122154,2,0,B|60:48,2,165,0|0|8
208,132,123958,6,4,B|188:196|96:196|80:120,2,165
242,213,125763,2,0,B|208:264|90:274|46:208,2,220,0|0|4
308,152,128018,1,0
256,80,128469,2,0,B|344:40|400:92|404:152|388:204,3,220,0|0|0|4
360,264,131627,5,0
328,348,132078,2,0,B|396:376|436:308,1,110,8|0
360,264,132981,1,0
304,196,133432,1,0
328,112,133883,2,0,B|260:84|220:152,1,110,8|0
228,224,134785,5,4
200,308,135236,1,0
124,356,135687,1,8
52,304,136139,1,0
16,220,136590,1,0
52,140,137041,1,0
124,88,137492,1,8
196,140,137943,1,0
232,220,138394,6,4,B|193:411|505:423|461:215,2,440
256,192,142116,12,12,145161
296,92,145612,5,4
336,104,145838,1,0
376,116,146063,1,8
456,155,146514,2,0,B|424:216|356:192,1,110,0|8
280,172,147417,5,4
240,160,147642,1,0
200,148,147868,1,8
116,124,148319,2,0,B|95:184|156:216,1,110,0|8
235,252,149221,6,4,B|436:352,2,220
156,216,151477,1,8
116,196,151702,1,0
76,176,151928,1,0
36,96,152379,1,8
128,104,152830,5,4
168,116,153056,1,0
208,100,153281,1,8
296,100,153733,1,0
383,100,154184,1,8
344,184,154635,2,0,B|284:200|252:240|252:240|216:200|140:172,1,220
116,256,155988,2,0,B|172:256|252:344|252:344|324:256|404:256,3,330,8|0|8|4
256,192,160161,12,0,162755
260,48,174484,5,8
184,92,174936,1,8
148,172,175387,1,8
184,252,175838,1,8
264,292,176289,1,8
340,252,176740,1,8
384,176,177191,1,8
352,96,177642,1,8
276,52,178093,5,8
352,96,178545,1,8
388,176,178996,1,8
352,256,179447,1,8
272,296,179898,1,8
196,256,180349,1,8
152,180,180800,1,8
184,100,181251,1,8
256,52,181702,6,8,B|388:24,3,110,12|8|8|8
356,116,183507,2,8,B|488:88,3,110
448,180,185311,2,8,B|316:208,3,110
384,280,187116,2,8,B|252:308,3,110
188,308,188920,5,12
188,308,189372,1,8
122,253,189823,1,8
122,253,190274,1,8
182,189,190725,1,12
182,189,191176,1,8
250,245,191627,1,8
250,245,192078,1,8
312,184,192530,5,12
400,184,192981,1,8
400,96,193432,1,8
312,96,193883,1,8
224,96,194334,1,12
136,96,194785,1,8
132,184,195236,1,8
220,184,195687,1,8
172,256,196139,6,8,B|172:380,3,110,12|8|8|8
259,366,197943,2,8,B|259:242,3,110,8|8|8|8
256,192,199748,12,4,203357
256,192,203808,5,8
256,104,204259,2,0,B|324:112|344:180,1,110,0|8
256,192,205161,5,0
176,232,205612,1,8
136,216,205838,1,0
96,192,206063,1,0
176,152,206514,1,8
252,108,206966,6,4,B|328:92|348:64|348:64|376:96|472:112,2,220
252,195,209221,1,8
252,239,209447,1,0
252,282,209672,1,0
176,240,210124,1,8
176,152,210575,6,0,B|215:106|328:91|372:157,2,220,4|0|0
252,200,212830,1,8
288,224,213056,1,0
324,248,213281,1,0
400,292,213733,1,8
324,336,214184,2,0,B|100:336,1,220
256,192,215988,12,4,217793
248,104,218244,5,8
204,116,218469,1,0
164,136,218695,1,0
104,200,219146,1,8
132,232,219372,1,0
168,260,219597,1,0
248,292,220048,5,8
292,280,220274,1,0
332,264,220499,1,0
388,196,220951,1,8
332,127,221402,2,4,B|332:12|172:12|172:12|16:12|16:122,2,440
248,148,225462,5,8
212,172,225687,1,0
176,148,225913,1,0
116,212,226364,2,8,B|212:264|212:264|324:204,2,220
40,256,228620,2,4,B|236:360|236:360|428:256,2,440
256,192,232342,12,4,235838
