osu file format v9

[General]
AudioFilename: Liz Triangle - Moonlight Step.mp3
AudioLeadIn: 0
PreviewTime: 80199
Countdown: 0
SampleSet: Soft
StackLeniency: 0.7
Mode: 0
LetterboxInBreaks: 0

[Editor]
DistanceSpacing: 0.8
BeatDivisor: 4
GridSize: 4

[Metadata]
Title:Moonlight Step
Artist:Liz Triangle x Like a Rabbit
Creator:Leorda
Version:Grayness
Source:Touhou
Tags:the embodiment of scarlet devil koumakyou rumia stage 1 boss lily-an kaztora

[Difficulty]
HPDrainRate:5
CircleSize:4
OverallDifficulty:5
ApproachRate:7
SliderMultiplier:1.2
SliderTickRate:2

[Events]
//Background and Video events
0,0,"wallpaper-770363.jpg"
//Break Periods
2,109722,111780
2,162955,173584
//Storyboard Layer 0 (Background)
//Storyboard Layer 1 (Fail)
//Storyboard Layer 2 (Pass)
//Storyboard Layer 3 (Foreground)
//Storyboard Sound Samples
//Background Colour Transformations
3,100,128,64,64

[TimingPoints]
8469.86904486958,451.127819548872,4,2,1,100,1,0
80650,-100,4,1,0,75,0,1
109522,-100,4,2,1,100,0,0
145612,-100,4,1,0,75,0,1
160048,-100,4,2,1,100,0,0
162642,-100,4,2,0,0,0,0
162868,-100,4,2,1,75,0,0
203357,-100,4,1,0,75,0,1
235838,-100,4,2,0,100,0,0

[Colours]
Combo1 : 191,0,0
Combo2 : 191,128,128
Combo3 : 155,79,79

[HitObjects]
88,68,23357,1,8
28,144,23808,1,0
88,220,24259,1,8
148,144,24710,2,0,B|228:144,2,60,0|0|8
172,236,25612,2,0,B|164:280|132:308|68:300,1,120,0|8
152,372,26514,6,0,B|240:336|256:228,2,180,0|0|8
103,372,28093,2,0,B|300:372,1,180,0|8
356,308,29221,5,0
376,264,29447,1,0
368,216,29672,1,8
328,188,29898,1,0
280,188,30124,1,4
184,188,30575,6,0,B|112:188,2,60,8|0|0
232,272,31477,1,8
280,188,31928,1,0
280,188,32154,1,0
280,188,32379,1,8
324,104,32830,2,0,B|380:136|368:208,1,120,0|8
448,260,33733,6,0,B|416:316|344:304,2,120,0|8|0
448,260,34860,1,0
464,164,35311,1,0
412,84,35763,1,0
412,84,35988,2,0,B|280:84,1,120,8|0
196,84,36890,5,8
196,180,37342,2,0,B|196:248,2,60,4|0|0
244,184,38018,2,0,B|244:252,2,60,4|0|0
291,180,38695,2,0,B|291:248,2,60,4|0|0
328,92,39597,5,8
427,92,40048,1,0
380,176,40499,1,8
380,272,40951,2,0,B|380:340,2,60,4|0|0
333,272,41627,2,0,B|292:324,2,60,4|0|0
288,260,42304,2,0,B|228:272,2,60,4|0|0
260,224,42981,2,0,B|192:200,2,60,4|0|0
260,176,43657,2,0,B|220:116,2,60,4|0|0
164,188,44560,5,4
88,128,45011,1,8
152,56,45462,1,0
248,72,45913,1,8
180,140,46364,2,0,B|156:200|80:224|-8:192|4:104,1,240
100,116,47717,6,0,B|52:304,2,180,8|0|0
148,32,49522,1,8
244,32,49973,1,0
292,116,50424,2,0,B|340:304,2,180,8|0|4
196,116,52229,6,0,B|132:128|112:204,1,120,8|0
212,196,53131,2,0,B|156:256|208:316,1,120,8|0
280,252,54033,2,0,B|268:320|348:344,1,120,8|0
372,248,54936,2,0,B|440:268|472:204,1,120,8|0
388,156,55838,1,8
388,156,56289,1,0
388,60,56740,2,0,B|308:64|296:156|296:156|60:156,1,360,8|0
81,156,58545,5,0
40,244,58996,2,4,B|92:264|112:300|112:300|128:264|184:244,2,180
80,156,60800,1,0
120,68,61251,1,8
215,68,61702,1,0
256,156,62154,1,0
300,240,62605,2,4,B|248:260|228:296|228:296|212:260|156:240,4,180
388,200,65763,5,4
468,144,66214,1,4
436,52,66665,1,0
340,52,67116,1,8
304,140,67567,2,0,B|116:140,2,180,0|0|8
304,140,69372,1,0
376,204,69823,5,4
376,204,70048,1,4
376,204,70274,1,0
452,264,70725,2,0,B|408:320|276:296|284:180,2,240,8|0|8
452,264,72755,1,0
452,264,72981,1,0
452,168,73432,6,0,B|452:32,1,120,4|0
356,48,74334,2,0,B|356:184,1,120,8|8
307,168,75011,1,0
259,168,75236,2,0,B|260:360,2,180,0|0|8
176,116,77041,5,8
176,116,77266,1,8
176,116,77492,1,8
176,116,77717,1,8
127,116,77943,1,8
127,116,78169,1,8
127,116,78394,1,8
127,116,78620,1,8
132,212,79071,6,0,B|96:272,2,60
176,228,79748,2,0,B|236:268|292:224,2,120,0|12|4
232,148,81101,5,8
288,72,81552,2,0,B|228:32|172:76,2,120,0|8|0
340,152,82905,1,8
340,152,83131,1,0
340,152,83357,1,0
284,232,83808,6,0,B|348:272|400:228,1,120,8|0
340,152,84710,2,0,B|276:112|224:156,1,120,8|0
284,232,85612,2,0,B|220:272|168:228,1,120,8|0
228,152,86514,2,0,B|164:112|112:156,1,120,8|0
172,232,87417,6,0,B|172:296,2,60,8|0|4
172,136,88319,1,8
172,136,88545,1,0
172,136,88770,1,0
84,100,89221,2,0,B|116:8|232:12|268:112,2,240,8|0|8
84,196,91477,2,0,B|116:286|232:290|264:198,2,240
60,288,93733,1,8
144,336,94184,1,0
239,336,94635,1,8
320,284,95086,6,0,B|384:256|384:172,1,120,4|8
288,200,95988,2,0,B|220:200,3,60,0|0|8|0
160,132,97116,1,0
160,132,97342,1,8
228,64,97793,2,0,B|296:64,3,60,0|0|8|0
336,64,98695,6,0,B|416:64|396:152|492:152,2,180,0|0|8
240,64,100499,2,0,B|160:64|180:152|84:152,2,180,0|0|8
240,160,102304,6,0,B|212:232|272:272,1,120,4|8
316,184,103206,2,0,B|344:244|420:232,1,120,0|8
388,140,104108,2,0,B|468:152|480:80,1,120,0|8
384,68,105011,2,0,B|364:0|280:0,1,120,0|8
292,96,105913,2,0,B|216:88|184:164,1,120,0|8
256,192,106590,12,4,109522
256,192,112680,5,4
256,192,112905,1,0
256,192,113131,1,4
256,96,113582,2,0,B|324:104|348:168,2,120,8|0|8
256,192,114936,2,0,B|188:184|164:120,2,120,0|8|0
348,220,116289,2,0,B|416:220,2,60,8|0|4
264,268,117191,5,8
168,284,117642,1,0
84,236,118093,1,8
64,140,118545,2,0,B|56:72,2,60,0|0|8
108,156,119221,2,0,B|244:156|244:156,1,120
324,156,120124,5,0
324,156,120349,2,0,B|324:232|236:236,1,120,0|8
154,234,121251,2,0,B|405:234,1,240
428,200,122379,1,0
428,152,122605,1,8
396,116,122830,2,0,B|256:116,2,120
408,68,123958,5,4
264,44,124635,1,4
124,72,125311,1,4
184,148,125763,2,0,B|184:232|356:248|360:132,1,240
272,112,127116,1,8
272,207,127567,6,0,B|272:288,2,60,4|0|0
312,184,128244,2,0,B|344:261,2,60,4|0|0
356,164,128920,2,0,B|416:224,2,60,4|0|0
392,128,129597,2,0,B|468:160,2,60,4|0|0
416,88,130274,2,0,B|496:88,2,60,4|0|0
320,80,131176,5,4
320,80,131402,1,0
320,80,131627,2,0,B|249:57|249:97|189:73,1,120,0|8
112,108,132530,1,0
68,128,132755,2,0,B|16:188|76:244,2,120
112,108,133883,2,0,B|188:76,2,60,8|0|0
208,120,134785,5,4
188,212,135236,1,0
264,272,135687,1,8
344,216,136139,1,0
324,124,136590,1,0
268,48,137041,1,0
268,48,137266,1,0
268,48,137492,2,0,B|268:116,2,60,8|0|0
368,72,138394,6,0,B|504:72,1,120,4|0
488,120,139071,1,0
488,167,139296,2,0,B|361:166,1,120,8|8
271,166,140199,2,0,B|135:166,1,120,0|0
151,214,140875,1,0
151,261,141101,2,0,B|278:260,1,120,8|0
256,192,142003,12,4,145612
136,196,146063,6,0,B|56:196,2,60,8|0|0
176,108,146966,1,8
216,80,147191,1,0
256,108,147417,1,0
292,196,147868,2,0,B|372:196,2,60,8|0|0
220,260,148770,6,0,B|220:336,1,60,8|0
264,340,149221,2,0,B|328:368|388:336,1,120,0|8
440,264,150124,2,0,B|376:236|316:268,2,120,0|8|0
436,168,151477,1,8
388,156,151702,1,0
340,164,151928,1,0
252,200,152379,6,0,B|192:224|120:196,1,120,8|4
100,168,153056,1,0
132,132,153281,2,0,B|192:108|264:136,1,120,8|0
316,200,154184,2,0,B|376:224|448:196,1,120,8|4
468,168,154860,1,0
432,136,155086,2,0,B|372:112|300:140,1,120,8|0
224,172,155988,5,8
144,224,156439,2,4,B|288:224|316:360|316:360|340:224|504:224,2,480
256,192,160161,12,0,162755
256,192,174484,5,8
160,192,174936,1,8
160,96,175387,1,8
256,96,175838,1,8
256,192,176289,1,8
256,288,176740,1,8
352,288,177191,1,8
352,192,177642,1,8
256,192,178093,6,0,B|171:190,2,60,8|0|8
352,192,178996,2,8,B|351:126|283:106,1,120
304,12,179898,2,8,B|425:45|448:192,1,240
404,276,181251,1,8
355,276,181477,1,0
307,276,181702,1,12
210,276,182154,6,0,B|144:276,2,60,8|0|8
216,180,183056,2,0,B|152:140,2,60,8|0|8
284,116,183958,2,0,B|284:48,2,60,8|0|8
376,140,184860,5,8
416,228,185311,1,8
380,316,185763,1,8
292,352,186214,1,8
204,312,186665,1,8
156,228,187116,1,8
208,148,187567,1,8
288,96,188018,1,8
288,191,188469,1,8
212,260,188920,5,12
168,280,189146,1,0
124,300,189372,1,8
76,216,189823,1,8
116,192,190048,1,0
156,168,190274,1,8
236,112,190725,2,8,B|344:40,3,120
424,92,192530,5,8
444,132,192755,1,0
440,180,192981,1,8
380,256,193432,1,8
336,276,193657,1,0
288,284,193883,1,8
192,284,194334,2,8,B|68:284,3,120
116,200,196139,6,8,B|52:88,3,120
152,104,197943,2,8,B|280:104,3,120
256,192,199748,12,4,203357
232,148,203808,5,8
288,72,204259,2,0,B|228:32|172:76,2,120,0|8|0
340,152,205612,1,8
340,152,205838,1,0
340,152,206063,1,0
284,232,206514,6,0,B|348:272|400:228,1,120,8|0
340,152,207417,2,0,B|276:112|224:156,1,120,8|0
284,232,208319,2,0,B|220:272|168:228,1,120,8|0
228,152,209221,2,0,B|164:112|112:156,1,120,8|0
172,232,210124,6,0,B|172:296,2,60,8|0|4
172,136,211026,1,8
172,136,211251,1,0
172,136,211477,1,0
84,100,211928,2,0,B|116:8|232:12|268:112,2,240,8|0|8
84,196,214184,2,0,B|116:286|232:290|264:198,2,240
60,288,216439,1,8
144,336,216890,1,0
239,336,217342,1,8
320,284,217793,5,4
372,204,218244,2,0,B|372:136,2,60,8|0|0
292,152,219146,1,8
256,120,219372,1,0
220,152,219597,1,0
148,208,220048,2,0,B|148:280,2,60,8|0|0
164,304,220951,6,0,B|232:304,1,60,8|0
268,324,221402,2,0,B|332:352|392:320,1,120,0|8
444,248,222304,2,0,B|380:220|320:252,2,120,0|8|0
432,152,223657,1,8
384,144,223883,1,0
336,156,224108,1,0
248,196,224560,6,0,B|188:220|116:192,1,120,8|4
96,164,225236,1,0
128,128,225462,2,0,B|188:104|260:132,1,120,8|0
312,200,226364,2,0,B|372:224|444:196,1,120,8|4
464,168,227041,1,0
432,132,227266,2,0,B|372:108|300:136,1,120,8|0
228,172,228169,5,8
148,224,228620,2,4,B|296:224|316:360|316:360|344:224|512:224,2,480
256,192,232342,12,4,235838
