osu file format v9

[General]
AudioFilename: Liz Triangle - Moonlight Step.mp3
AudioLeadIn: 0
PreviewTime: 80199
Countdown: 0
SampleSet: Soft
StackLeniency: 0.7
Mode: 0
LetterboxInBreaks: 0

[Editor]
DistanceSpacing: 0.8
BeatDivisor: 4
GridSize: 4

[Metadata]
Title:Moonlight Step
Artist:Liz Triangle x Like a Rabbit
Creator:Leorda
Version:Darkness
Source:Touhou
Tags:the embodiment of scarlet devil koumakyou rumia stage 1 boss lily-an kaztora

[Difficulty]
HPDrainRate:8
CircleSize:4
OverallDifficulty:8
ApproachRate:8
SliderMultiplier:2
SliderTickRate:2

[Events]
//Background and Video events
0,0,"wallpaper-770363.jpg"
//Break Periods
2,162955,173734
//Storyboard Layer 0 (Background)
//Storyboard Layer 1 (Fail)
//Storyboard Layer 2 (Pass)
//Storyboard Layer 3 (Foreground)
Sprite,Foreground,Centre,"SB\Speed UP.png",320,240 M,0,215763,215988,865,421,416,423 F,0,215988,,1 M,0,215988,217342,416,423,384,422 M,0,217342,217793,384,422,-235,421
//Storyboard Sound Samples
//Background Colour Transformations
3,100,128,64,64

[TimingPoints]
8469.86904486958,451.127819548872,4,2,1,100,1,0
40048,-200,4,2,1,100,0,0
40499,-100,4,2,1,100,0,0
56740,-200,4,2,1,100,0,0
58093,-100,4,2,1,100,0,0
77041,-100,4,2,1,60,0,0
78958,-100,4,2,1,75,0,0
80650,-100,4,1,0,70,0,1
94184,-200,4,1,0,70,0,1
94635,-100,4,1,0,70,0,1
102191,-200,4,1,0,70,0,1
105124,-100,4,1,0,70,0,1
109522,-100,4,2,1,100,0,0
126439,-200,4,2,1,100,0,0
127342,-100,4,2,1,100,0,0
141890,-100,4,2,1,50,0,0
143920,-100,4,2,1,75,0,0
145612,-100,4,1,0,70,0,1
159146,-200,4,1,0,70,0,1
160048,-100,4,2,1,100,0,0
162699,-100,4,2,1,0,0,0
162811,-100,4,2,1,75,0,0
203357,-100,4,1,0,70,0,1
217736,-100,4,1,0,70,0,1
217793,-66.6666666666667,4,1,0,70,0,1
235838,-100,4,2,0,100,0,0

[Colours]
Combo1 : 191,0,0
Combo2 : 191,128,128
Combo3 : 155,79,79

[HitObjects]
56,48,23357,2,0,B|184:48,1,100,8|0
392,312,23808,2,0,B|264:312,1,100,0|0
104,96,24259,2,0,B|232:96,1,100,8|0
352,264,24710,2,0,B|224:264,1,100,0|0
152,144,25161,2,0,B|280:144,1,100,8|0
312,216,25612,2,0,B|184:216,1,100,0|0
104,336,26289,5,0
24,312,26514,2,0,B|40:264|108:237|160:256|192:328,1,200,0|8
104,336,27191,2,0,B|104:128,1,200
104,136,27868,1,8
24,136,28093,2,0,B|8:0|208:-8|184:143,1,300,0|8
72,248,29221,5,0
256,336,29447,1,0
440,248,29672,1,8
256,176,29898,1,0
256,160,30011,1,0
256,144,30124,1,4
176,280,30575,6,0,B|120:280|80:232,1,100,8|0
160,200,31026,2,0,B|96:176|72:112,1,100
160,120,31477,2,0,B|120:80|144:24,1,100,8|0
216,64,31928,2,0,B|208:0|304:8,1,100
296,88,32379,2,0,B|344:32|416:104,1,100,8|0
352,152,32830,2,0,B|416:144|432:216,1,100
288,280,33507,5,0
207,280,33733,2,0,B|96:280,2,100,0|0|8
208,200,34409,2,0,B|104:200|104:200|56:200|24:256,1,200
128,128,35311,2,0,B|200:128|200:128|250:127|281:158|279:209,1,200
279,287,35988,2,0,B|280:352|352:352|352:352|464:352,1,200,8|0
441,192,36890,5,8
441,31,37342,2,0,B|441:137,2,100,4|0|0
304,64,38018,2,0,B|378:138,2,100,4|0|0
272,192,38695,2,0,B|378:192,2,100,4|0|0
312,264,39372,5,0
272,336,39597,1,8
240,264,39823,1,0
272,192,40048,2,0,B|264:184|264:184|272:176|272:176|264:168|264:168|272:160|272:160|264:152|264:152|272:144|272:144|264:136|264:136|272:128|272:128|264:120|264:120,1,100,0|8
136,24,40951,6,0,B|136:130,2,100,4|0|0
273,57,41627,2,0,B|198:131,2,100,4|0|0
305,185,42304,2,0,B|199:185,2,100,4|0|0
272,304,42981,2,0,B|197:229,2,100,4|0|0
144,336,43657,2,0,B|144:230,2,100,4|0|0
432,192,44560,5,4
432,192,45011,2,0,B|312:192,1,100,8|0
304,120,45462,1,0
224,120,45687,1,0
200,192,45913,2,0,B|80:192,1,100,8|0
96,272,46364,5,0
156,324,46590,1,0
216,272,46815,1,8
216,272,47266,1,0
296,128,47717,5,8
376,128,47943,1,0
432,64,48169,2,0,B|464:99|467:139|457:174|416:203,2,150
376,128,49071,1,0
296,128,49296,2,0,B|200:72|192:208|88:112,1,200
64,64,49973,1,0
24,136,50199,1,0
72,200,50424,2,0,B|122:226|180:237|214:217|265:196,3,200,8|0|8|4
408,120,52229,6,0,B|408:248,1,100,8|0
336,120,52680,2,0,B|336:248,1,100,0|0
264,120,53131,2,0,B|264:248,1,100,8|0
192,120,53582,2,0,B|192:248,1,100,0|0
120,120,54033,2,0,B|120:248,1,100,8|0
48,120,54484,2,0,B|48:248,1,100,0|0
192,296,55161,5,0
272,296,55387,2,0,B|368:256|344:336|472:280,1,200,0|8
408,224,56063,2,0,B|304:192|208:240,1,200
152,192,56740,6,0,B|192:160|248:144|304:128|368:136|424:152|456:168,1,300,8|0
328,40,58545,5,0
328,40,58996,5,4
248,40,59221,1,0
167,40,59447,1,0
8,112,59672,5,4
88,112,59898,1,0
169,112,60124,1,0
328,184,60349,5,4
248,184,60575,1,0
167,184,60800,1,0
86,184,61026,2,0,B|-16:184,2,100,0|8|0
86,263,61702,2,0,B|304:264,1,200,0|8
184,40,62605,5,4
264,40,62830,1,0
345,40,63056,1,0
504,112,63281,5,4
424,112,63507,1,0
343,112,63733,1,0
184,184,63958,5,4
264,184,64184,1,0
345,184,64409,1,0
426,184,64635,2,0,B|528:184,2,100
426,263,65311,2,0,B|208:264,1,200
65,263,66214,6,0,B|24:216|72:160,1,100,4|4
136,144,66665,1,0
208,112,66890,2,0,B|246:67|205:20,2,100,0|8|0
280,152,67567,1,0
352,112,67793,2,0,B|352:24|472:24|472:112,2,200
280,152,68920,1,8
352,192,69146,1,0
280,232,69372,1,0
128,192,69823,6,0,B|240:192,2,100,4|4|0
48,192,70499,2,0,B|56:136|116:113,2,100,0|8|0
88,264,71176,1,0
168,264,71402,1,0
208,192,71627,1,0
176,120,71853,2,0,B|256:32,2,100
132,188,72530,1,8
88,264,72755,5,0
176,120,72981,1,0
40,200,73432,6,0,B|0:248|6:307|46:344|116:338,1,200,4|0
88,264,74108,1,0
136,328,74334,2,0,B|176:280|170:221|130:184|60:190,1,200,8|0
24,128,75011,1,0
104,120,75236,2,4,B|176:128|224:176|232:216|256:280|208:360,2,300
264,120,77041,5,8
272,128,77154,1,8
280,136,77266,1,8
288,144,77379,1,8
296,152,77492,1,8
296,160,77605,1,8
296,168,77717,1,8
296,176,77830,1,8
296,184,77943,1,8
304,192,78056,1,8
312,200,78169,1,8
320,208,78281,1,8
320,216,78394,1,8
320,224,78507,1,8
320,232,78620,1,8
328,240,78733,1,8
336,248,78845,1,8
392,304,79071,6,8,B|440:344|480:304,2,100
440,240,79748,2,8,B|440:16,1,200,8|12
280,40,80650,5,4
269,40,80763,1,0
256,40,80875,1,2
248,44,80988,1,0
240,48,81101,1,8
236,56,81214,1,0
232,64,81327,1,2
228,72,81439,1,0
224,80,81552,2,0,B|200:128|200:128|136:136,1,100,0|2
72,192,82003,5,8
416,192,82229,1,2
232,344,82454,5,4
243,344,82567,1,0
256,344,82680,1,2
264,340,82793,1,0
272,336,82905,1,8
276,328,83018,1,0
280,320,83131,1,2
284,312,83244,1,0
288,304,83357,2,0,B|312:256|312:256|376:248,1,100,0|2
72,192,83808,5,8
416,192,84033,1,2
150,192,84259,2,4,B|112:-4|376:0|336:200,1,400
150,192,85612,1,2
337,194,85838,1,8
112,120,86063,6,0,B|112:56|208:56|208:128,1,150,4|0
207,120,86514,2,0,B|207:56|303:56|303:128,1,150,8|0
304,120,86966,1,0
72,192,87417,5,8
416,192,87642,1,2
464,256,87868,6,0,B|418:277|366:256,1,100,4|2
416,192,88319,1,8
416,151,88432,1,0
416,110,88545,1,2
416,70,88657,1,0
416,29,88770,2,0,B|367:29|367:29|304:80,1,100,0|2
270,117,89221,2,0,B|232:160|232:160|176:160,1,100,8|2
109,160,89672,5,4
72,160,89785,1,0
40,184,89898,1,2
16,216,90011,1,0
16,256,90124,1,8
16,296,90236,1,0
40,328,90349,1,2
72,352,90462,1,0
112,352,90575,2,0,B|224:320|184:384|336:352,1,200,0|8
264,288,91251,6,0,B|320:248|392:264|408:336|384:376,1,200,2|2
389,365,91928,1,8
472,360,92154,2,2,B|472:304|456:224|376:184|304:176|232:216,1,300,2|8
112,184,93281,5,4
176,320,93507,1,2
326,320,93733,1,8
384,180,93958,1,2
252,60,94184,2,0,B|252:172,1,100,0|8
252,160,94860,1,2
224,236,95086,6,0,B|64:236|64:236|8:236|8:316|72:316|72:316|368:316|368:316|440:316|440:236|360:236|360:236|280:236,2,800,4|4|4
256,192,98808,12,0,101853
300,164,102304,6,0,B|436:184|448:480|80:480|92:180|240:160,1,600,4|0
264,236,105236,1,0
264,155,105462,2,0,B|264:51,2,100,8|0|0
264,235,106139,1,0
264,314,106364,1,8
256,192,106590,12,4,109522
152,192,109973,6,0,B|152:112|288:112|288:200,1,200
328,264,110650,1,0
360,192,110875,2,0,B|344:128|336:72|216:24|152:64|96:88|72:208,2,400,0|0|12
400,256,112905,5,0
480,256,113131,2,0,B|472:320|408:336,2,100,4|0|8
480,175,113808,2,0,B|448:128|512:120|472:56,1,100
408,104,114259,1,0
408,104,114484,1,8
336,72,114710,2,0,B|216:64|168:160,1,200
88,152,115387,2,0,B|208:144|256:240,3,200,8|0|8|4
96,280,117191,5,8
110,358,117417,1,0
96,280,117642,2,0,B|32:192|120:152|40:88,1,200,0|8
47,94,118319,1,0
8,168,118545,2,0,B|80:200|120:128|208:144,1,200,0|8
184,224,119221,2,0,B|184:96|336:88,1,200
344,248,120124,5,0
344,327,120349,2,0,B|408:312|423:265,2,100,0|0|8
344,248,121026,1,0
400,192,121251,2,0,B|328:112|488:96|392:8,1,200,0|8
320,32,121928,1,0
240,16,122154,2,0,B|152:96|312:112|240:192,1,200,0|8
240,272,122830,2,0,B|264:344|392:344|408:256,2,200
168,240,123958,6,0,B|94:166,2,100,4|0|0
236,196,124635,2,0,B|236:92,2,100,4|0|0
308,232,125311,2,0,B|381:158,2,100,4|0|0
320,312,125988,1,0
248,352,126214,1,8
180,316,126439,2,0,B|175:332|175:332|155:321|155:321|154:344|154:344|134:333|134:333|134:356|134:356|113:345|113:345|113:368|113:368|92:357|92:357|83:371|83:371,1,200
32,312,127567,5,4
96,264,127793,1,0
164,224,128018,1,0
96,180,128244,2,4,B|138:119|227:133|250:169|262:229|246:270|222:289|187:297,1,300
300,176,129372,2,0,B|320:225|312:284|274:340|224:352,1,200
300,176,130274,2,0,B|287:123|233:89|186:71|131:89,1,200
164,216,131176,5,4
364,216,131402,1,4
292,248,131627,2,0,B|320:292|392:312|444:272|440:188,1,200,0|8
460,64,132530,5,0
380,64,132755,2,0,B|272:32|300:124|180:64,2,200
340,132,133883,2,0,B|296:164|232:156,2,100,8|0|0
436,260,134785,6,4,B|412:320|332:308,1,100
364,232,135236,2,0,B|306:230|247:279|272:387|356:380,1,200,0|8
314,371,135913,1,0
236,376,136139,2,0,B|206:323|215:264|240:222|280:192,2,200
108,280,137492,5,8
36,148,137717,1,0
186,148,137943,1,0
224,304,138394,6,0,B|364:228|360:388|516:284,1,300,4|0
504,372,139296,2,0,B|440:360|412:312|416:252|482:215,1,200,8|0
484,144,139973,1,0
460,68,140199,2,0,B|288:0|328:152|136:36,2,300
336,168,142003,5,8
328,180,142116,1,8
316,188,142229,1,8
304,196,142342,1,8
288,200,142454,1,8
272,200,142567,1,8
256,200,142680,1,8
240,196,142793,1,8
228,188,142905,1,8
216,180,143018,1,8
204,168,143131,1,8
196,156,143244,1,8
192,140,143357,1,8
192,124,143469,1,8
200,112,143582,1,8
212,104,143695,1,8
224,96,143808,1,0
300,72,144033,6,8,B|352:116|412:56,2,100
344,4,144710,2,8,B|347:226,1,200,8|12
296,356,145612,5,4
316,356,145725,1,0
336,356,145838,1,2
356,348,145951,1,0
372,336,146063,1,8
384,320,146176,1,0
392,300,146289,1,2
396,280,146402,1,0
400,260,146514,2,0,B|400:55,1,200,0|8
256,196,147191,5,0
216,356,147417,5,4
196,356,147530,1,0
176,356,147642,1,2
156,348,147755,1,0
140,336,147868,1,8
128,320,147981,1,0
120,300,148093,1,2
116,280,148206,1,0
112,260,148319,2,0,B|112:55,1,200,0|8
256,196,148996,5,0
296,128,149221,2,4,B|352:168|355:254|301:307|206:307|147:251|149:152|244:112,2,400
360,80,151251,2,0,B|404:136|408:188,1,100,2|8
152,80,151702,2,0,B|108:136|104:188,1,100,2|4
188,308,152379,5,8
338,308,152605,1,2
417,308,152830,6,0,B|412:364|348:388,2,100,4|2|8
436,272,153394,1,0
452,236,153507,1,2
444,196,153620,1,0
420,164,153733,2,0,B|324:92|544:96|408:-1,1,200,0|8
356,52,154409,1,0
292,4,154635,2,0,B|169:90|389:86|293:158,1,200,4|8
270,191,155199,1,0
262,231,155311,1,2
278,267,155424,1,0
296,303,155537,2,0,B|301:358|354:378,2,100,0|2|8
376,304,156214,5,0
376,304,156439,2,0,B|440:28|12:28|76:312,1,600,4|4
235,307,158244,5,4
172,256,158469,1,2
200,180,158695,1,8
280,180,158920,1,2
312,260,159146,2,0,B|412:304,1,100,0|8
256,192,160048,12,0,162755
36,44,174484,5,8
36,344,174936,1,8
335,344,175387,1,8
335,44,175838,1,8
180,344,176289,5,8
336,44,176740,1,8
36,44,177191,1,8
36,124,177417,1,0
100,172,177642,1,8
180,172,177868,1,0
240,120,178093,6,0,B|268:168|240:232,2,100,8|0|8
180,172,178770,1,0
304,72,178996,2,8,B|356:160|312:268,1,200
256,320,179672,5,0
180,348,179898,1,8
108,316,180124,1,0
36,348,180349,1,8
36,348,180462,1,0
36,348,180575,1,0
36,272,180800,1,8
108,236,181026,1,0
40,192,181251,1,8
36,272,181477,1,0
108,236,181702,1,4
184,328,181928,6,0,B|300:328,1,100,0|8
284,328,182379,2,0,B|392:312,1,100,0|8
382,313,182830,2,0,B|484:252,1,100,0|8
468,261,183281,2,0,B|508:160,1,100,0|8
504,168,183733,2,0,B|464:76,1,100,0|8
464,76,184184,2,0,B|356:64,1,100,0|8
365,65,184635,2,0,B|252:64,1,100,0|8
192,52,185086,5,0
120,84,185311,2,0,B|68:112|56:188,1,100,8|0
144,160,185763,2,0,B|108:216|128:272,1,100,8|0
200,228,186214,2,0,B|180:296|220:336,1,100,8|0
272,276,186665,2,0,B|288:344|348:344,1,100,8|0
356,264,187116,2,0,B|404:316|460:272,1,100,8|0
408,208,187567,2,0,B|488:220|500:160,1,100,8|0
428,132,188018,2,0,B|480:108|476:48,1,100,8|0
396,68,188469,2,0,B|436:12|376:-20,1,100,8|0
320,36,188920,6,0,B|320:144,1,100,12|0
244,36,189372,2,0,B|244:144,1,100,8|0
168,36,189823,2,0,B|168:144,1,100,8|0
92,36,190274,2,0,B|92:144,1,100,8|0
92,304,190725,6,0,B|92:196,1,100,8|0
168,304,191176,2,0,B|168:196,1,100,8|0
244,304,191627,2,0,B|244:196,1,100,8|0
320,304,192078,2,0,B|320:196,1,100,8|0
399,204,192530,5,8
399,204,192755,1,0
399,124,192981,1,8
399,124,193206,1,0
318,124,193432,1,8
318,124,193657,1,0
318,203,193883,1,8
318,203,194108,1,0
448,264,194334,5,8
448,264,194560,1,0
448,72,194785,1,8
448,72,195011,1,0
256,72,195236,1,8
256,72,195462,1,0
256,264,195687,1,8
256,264,195913,1,0
336,264,196139,6,0,B|400:-12|-28:-12|36:272,2,600,4|8|8
336,264,199296,1,8
256,192,199748,12,8,202905
232,344,203357,5,4
243,344,203469,1,0
256,344,203582,1,2
264,336,203695,1,0
272,328,203808,1,8
280,320,203920,1,0
288,312,204033,1,2
296,304,204146,1,0
304,296,204259,2,0,B|328:248|328:248|392:240,1,100,0|2
440,192,204710,5,8
96,192,204936,1,2
280,40,205161,5,4
269,40,205274,1,0
256,40,205387,1,2
248,48,205499,1,0
240,56,205612,1,8
232,64,205725,1,0
224,72,205838,1,2
216,80,205951,1,0
208,88,206063,2,0,B|184:136|184:136|120:144,1,100,0|2
440,192,206514,5,8
96,192,206740,1,2
361,191,206966,2,4,B|400:392|136:384|176:184,1,400
362,192,208319,1,2
176,192,208545,1,8
400,264,208770,6,0,B|400:328|304:328|304:256,1,150,4|0
305,264,209221,2,0,B|305:328|209:328|209:256,1,150,8|0
208,264,209672,1,0
440,192,210124,5,8
96,192,210349,1,2
48,128,210575,2,0,B|94:107|146:128,1,100,4|2
96,192,211026,1,8
96,233,211139,1,0
96,274,211251,1,2
96,314,211364,1,0
96,355,211477,2,0,B|145:355|145:355|208:304,1,100,0|2
242,267,211928,2,0,B|280:224|280:224|336:224,1,100,8|2
403,224,212379,5,4
440,224,212492,1,0
472,200,212605,1,2
496,168,212717,1,0
496,128,212830,1,8
496,88,212943,1,0
472,56,213056,1,2
440,32,213169,1,0
400,32,213281,2,0,B|288:64|328:0|176:32,1,200,0|8
248,96,213958,6,0,B|192:136|120:120|104:48|128:8,1,200,2|2
123,19,214635,1,8
40,24,214860,2,2,B|40:80|56:160|136:200|208:208|280:168,1,300,2|8
400,200,215988,5,4
352,56,216214,1,2
200,56,216439,1,8
152,200,216665,1,2
400,200,216890,5,4
352,56,217116,1,2
200,56,217342,1,8
152,200,217567,1,2
88,300,217793,6,0,B|155:346|228:296,1,149.999995529652,4|2
152,200,218244,1,8
152,200,218357,1,0
152,200,218469,1,2
220,100,218695,2,0,B|153:54|80:104,1,149.999995529652,0|2
16,204,219146,1,8
88,300,219372,1,2
207,300,219597,6,0,B|364:300,1,149.999995529652,4|2
448,224,220048,1,8
448,164,220161,1,0
448,104,220274,1,2
356,28,220499,2,0,B|199:28,1,149.999995529652,0|2
108,100,220951,1,8
108,160,221063,1,0
108,220,221176,1,2
256,192,221402,12,0,223883
252,192,224785,5,0
131,192,225011,2,0,B|132:280|228:312,1,149.999995529652,4|2
381,192,225462,2,0,B|380:104|284:72,1,149.999995529652,8|2
256,317,225913,2,0,B|344:316|376:220,1,149.999995529652,0|2
256,67,226364,2,0,B|168:68|136:164,1,149.999995529652,8|2
257,193,226815,5,0
256,316,227041,1,2
257,193,227266,1,8
257,132,227379,1,0
257,71,227492,1,2
360,132,227717,2,0,B|440:132|440:244,1,149.999995529652,0|2
152,132,228169,2,0,B|72:132|72:244,1,149.999995529652,8|2
361,323,228620,6,0,B|360:212|148:208|148:321,4,299.999991059304,4|8|0|8|0
256,120,231327,1,0
256,192,232229,12,4,235838
