osu file format v14

[General]
AudioFilename: The Starry true.mp3
AudioLeadIn: 0
PreviewTime: 55921
Countdown: 0
SampleSet: Soft
StackLeniency: 0.7
Mode: 3
LetterboxInBreaks: 0
SpecialStyle: 0
WidescreenStoryboard: 0

[Editor]
Bookmarks: 25042
DistanceSpacing: 1.2
BeatDivisor: 3
GridSize: 8
TimelineZoom: 1.1

[Metadata]
Title:The Starry true
TitleUnicode:The Starry true
Artist:Liz Triangle
ArtistUnicode:Liz Triangle
Creator:Feerum
Version:EXHAUST Lv.12
Source:SOUND VOLTEX III GRAVITY WARS
Tags:KONAMI BEMANI sdvx 聖徳伝説 ~ True Administrator stage 6 Boss theme 東方神霊廟 ~ Ten Desires 東方Project ZUN lily-an kaztora azuki reunion Comiket 81 C81
BeatmapID:726079
BeatmapSetID:327114

[Difficulty]
HPDrainRate:8
CircleSize:4
OverallDifficulty:9
ApproachRate:5
SliderMultiplier:1.4
SliderTickRate:1

[Events]
//Background and Video events
0,0,"the starry true BG.jpg",0,0
//Break Periods
//Storyboard Layer 0 (Background)
//Storyboard Layer 1 (Fail)
//Storyboard Layer 2 (Pass)
//Storyboard Layer 3 (Foreground)
//Storyboard Sound Samples

[TimingPoints]
1525,392.156862745098,4,2,1,40,1,0
42309,454.545454545455,4,2,1,40,1,0
42309,-86.2068965517241,4,2,1,40,0,0
44127,444.444444444444,4,2,1,40,1,0
44127,-88.4955752212389,4,2,1,40,0,0
45904,454.545454545455,4,2,1,40,1,0
45904,-86.2068965517241,4,2,1,40,0,0
53176,392.156862745098,4,2,1,40,1,0
56313,-100,4,2,1,40,0,1
68470,-100,4,2,1,40,0,0
68862,-100,4,2,1,40,0,1
84548,-100,4,2,1,40,0,0
87685,-100,4,2,1,30,0,0
88077,-100,4,2,1,20,0,0
88470,-100,4,2,1,10,0,0

[HitObjects]
448,192,1525,5,0,0:0:0:40:D7S.wav
192,192,1721,1,0,0:0:0:40:G6S.wav
320,192,1917,1,0,0:0:0:40:A6S.wav
64,192,2113,1,0,0:0:0:40:D6S.wav
448,192,2309,5,0,0:0:0:50:D7S.wav
192,192,2505,1,0,0:0:0:50:G6S.wav
320,192,2701,1,0,0:0:0:50:A6S.wav
64,192,2897,1,0,0:0:0:50:D6S.wav
448,192,3093,5,0,0:0:0:50:D7S.wav
320,192,3289,1,0,0:0:0:50:G6S.wav
64,192,3485,1,0,0:0:0:50:A6S.wav
192,192,3681,1,0,0:0:0:50:D6S.wav
448,192,3877,5,0,0:0:0:50:D7S.wav
320,192,4074,1,0,0:0:0:50:G6S.wav
64,192,4270,1,0,0:0:0:50:A6S.wav
192,192,4466,1,0,0:0:0:50:D6S.wav
448,192,4662,5,0,0:0:0:50:D7S.wav
320,192,4858,1,0,0:0:0:50:G6S.wav
192,192,5054,1,0,0:0:0:50:A6S.wav
448,192,5250,1,0,0:0:0:50:D6S.wav
64,192,5446,5,0,0:0:0:50:D7S.wav
320,192,5642,1,0,0:0:0:50:G6S.wav
192,192,5838,1,0,0:0:0:50:A6S.wav
448,192,6034,1,0,0:0:0:50:D6S.wav
320,192,6230,5,0,0:0:0:50:D7S.wav
64,192,6426,1,0,0:0:0:50:G6S.wav
320,192,6623,1,0,0:0:0:50:A6S.wav
192,192,6819,1,0,0:0:0:50:D6S.wav
448,192,7015,5,0,0:0:0:50:D7S.wav
64,192,7211,1,0,0:0:0:50:G6S.wav
320,192,7407,1,0,0:0:0:50:A6S.wav
192,192,7603,1,0,0:0:0:50:D6S.wav
448,192,7799,5,0,0:0:0:50:D7S.wav
320,192,7995,1,0,0:0:0:50:G6S.wav
64,192,8191,1,0,0:0:0:50:A6S.wav
192,192,8387,1,0,0:0:0:50:D6S.wav
448,192,8583,5,0,0:0:0:50:D7S.wav
320,192,8779,1,0,0:0:0:50:G6S.wav
64,192,8975,1,0,0:0:0:50:A6S.wav
192,192,9172,1,0,0:0:0:50:D6S.wav
448,192,9368,5,0,0:0:0:50:D7S.wav
64,192,9564,1,0,0:0:0:50:G6S.wav
320,192,9760,1,0,0:0:0:50:A6S.wav
192,192,9956,1,0,0:0:0:50:D6S.wav
448,192,10152,5,0,0:0:0:50:D7S.wav
64,192,10348,1,0,0:0:0:50:G6S.wav
320,192,10544,1,0,0:0:0:50:A6S.wav
448,192,10740,1,0,0:0:0:50:D6S.wav
64,192,10936,5,0,0:0:0:50:D7S.wav
320,192,11132,1,0,0:0:0:50:G6S.wav
192,192,11328,1,0,0:0:0:50:A6S.wav
448,192,11525,1,0,0:0:0:50:D6S.wav
64,192,11721,5,0,0:0:0:50:D7S.wav
320,192,11917,1,0,0:0:0:50:G6S.wav
192,192,12113,1,0,0:0:0:50:A6S.wav
448,192,12309,1,0,0:0:0:50:D6S.wav
64,192,12505,128,0,13289:2:0:0:0:
320,192,12505,1,0,2:0:0:0:
192,192,12701,1,0,2:0:0:0:
448,192,12897,1,0,2:0:0:0:
320,192,13093,1,0,2:0:0:0:
192,192,13289,1,0,2:0:0:0:
448,192,13485,1,0,3:0:0:0:
64,192,13485,1,0,3:0:0:0:
320,192,13681,128,0,14074:3:0:0:0:
192,192,13681,1,0,3:0:0:0:
192,192,14074,1,4,1:0:0:0:
448,192,14074,128,0,14466:3:0:0:0:
64,192,14270,1,0,1:0:0:0:
192,192,14466,128,0,14662:3:0:0:0:
320,192,14466,1,0,3:0:0:0:
320,192,14662,128,0,14760:1:0:0:0:
448,192,14858,1,0,3:0:0:0:
64,192,14858,1,0,3:0:0:0:
64,192,15054,128,0,15250:1:0:0:0:
320,192,15054,1,0,1:0:0:0:
192,192,15250,1,0,3:0:0:0:
448,192,15250,1,0,3:0:0:0:
192,192,15446,128,0,15642:1:0:0:0:
64,192,15446,1,0,1:0:0:0:
448,192,15642,1,0,3:0:0:0:
320,192,15642,1,0,3:0:0:0:
320,192,15838,128,0,16034:1:0:0:0:
192,192,15838,1,0,1:0:0:0:
64,192,16034,1,0,3:0:0:0:
448,192,16034,1,0,3:0:0:0:
448,192,16230,128,0,16819:1:0:0:0:
192,192,16230,1,0,1:0:0:0:
320,192,16426,1,0,3:0:0:0:
64,192,16623,1,0,1:0:0:0:
192,192,16819,1,0,3:0:0:0:
320,192,16819,1,8,3:0:0:0:
64,192,17015,1,0,1:0:0:0:
448,192,17211,1,0,3:0:0:0:
192,192,17211,1,0,3:0:0:0:
320,192,17407,1,0,1:0:0:0:
64,192,17603,1,0,3:0:0:0:
192,192,17603,1,0,3:0:0:0:
448,192,17799,1,0,1:0:0:0:
64,192,17995,1,0,3:0:0:0:
320,192,17995,1,0,3:0:0:0:
192,192,18191,1,0,2:0:0:0:
320,192,18289,1,0,2:0:0:0:
448,192,18387,1,0,2:0:0:0:
64,192,18518,1,0,2:0:0:0:
192,192,18649,1,0,2:0:0:0:
448,192,18779,1,0,3:0:0:0:
64,192,18779,1,0,3:0:0:0:
448,192,18975,1,0,1:0:0:0:
192,192,18975,1,0,1:0:0:0:
320,192,19172,1,0,3:0:0:0:
192,192,19172,1,0,3:0:0:0:
320,192,19368,1,0,1:0:0:0:
64,192,19368,1,0,1:0:0:0:
448,192,19564,1,0,3:0:0:0:
192,192,19564,128,0,19760:3:0:0:0:
320,192,19760,1,0,1:0:0:0:
64,192,19956,1,8,3:0:0:0:
192,192,19956,1,0,3:0:0:0:
448,192,20054,1,0,2:0:0:0:
320,192,20152,1,0,2:0:0:0:
192,192,20250,1,0,2:0:0:0:
64,192,20348,1,0,3:0:0:0:
320,192,20348,1,4,1:0:0:0:
448,192,20348,128,0,20642:3:0:0:0:
192,192,20544,1,0,1:0:0:0:
320,192,20740,128,0,20936:3:0:0:0:
64,192,20740,1,0,3:0:0:0:
192,192,20936,128,0,21034:1:0:0:0:
448,192,21132,1,0,3:0:0:0:
64,192,21132,1,0,3:0:0:0:
320,192,21328,128,0,21525:1:0:0:0:
192,192,21328,1,0,1:0:0:0:
448,192,21525,1,0,3:0:0:0:
64,192,21525,1,0,3:0:0:0:
192,192,21721,128,0,21917:1:0:0:0:
320,192,21721,1,0,1:0:0:0:
64,192,21917,1,0,3:0:0:0:
448,192,21917,1,0,3:0:0:0:
448,192,22113,128,0,22309:1:0:0:0:
320,192,22113,1,0,1:0:0:0:
192,192,22309,1,0,3:0:0:0:
64,192,22309,1,0,3:0:0:0:
64,192,22505,128,0,23093:1:0:0:0:
320,192,22505,1,0,1:0:0:0:
192,192,22701,1,0,3:0:0:0:
448,192,22897,1,0,1:0:0:0:
192,192,23093,1,0,3:0:0:0:
320,192,23093,1,8,3:0:0:0:
448,192,23289,1,0,1:0:0:0:
320,192,23485,1,0,3:0:0:0:
64,192,23485,1,0,3:0:0:0:
192,192,23681,1,0,1:0:0:0:
448,192,23877,1,0,3:0:0:0:
64,192,23877,1,0,3:0:0:0:
64,192,24074,128,0,25054:1:0:0:0:
320,192,24074,1,0,1:0:0:0:
448,192,24270,1,0,3:0:0:0:
192,192,24270,1,0,3:0:0:0:
320,192,24466,1,0,1:0:0:0:
192,192,24662,1,0,3:0:0:0:
320,192,24662,1,0,3:0:0:0:
448,192,24858,1,0,1:0:0:0:
192,192,25054,1,0,0:0:0:40:G4S_s.wav
448,192,25250,1,0,0:0:0:40:B4S_s.wav
64,192,25446,1,0,0:0:0:40:A4S_s.wav
192,192,25544,1,0,0:0:0:40:G4S_s.wav
320,192,25642,1,0,0:0:0:40:F#4S_Gb4S_s.wav
192,192,25740,1,0,0:0:0:40:G4S_s.wav
192,192,25838,1,0,0:0:0:40:G4S_s.wav
448,192,26034,1,0,0:0:0:40:D5S_s.wav
320,192,26230,1,0,0:0:0:40:C5S_s.wav
192,192,26328,1,0,0:0:0:40:B4S_s.wav
64,192,26426,1,0,0:0:0:40:A4S_s.wav
192,192,26525,1,0,0:0:0:40:B4S_s.wav
448,192,26623,1,0,3:0:0:0:
320,192,26623,1,0,3:0:0:0:
64,192,26623,1,4,1:0:0:0:
192,192,26819,1,0,1:0:0:0:
448,192,27015,1,0,3:0:0:0:
320,192,27211,1,0,1:0:0:0:
192,192,27407,1,0,3:0:0:0:
64,192,27407,1,0,3:0:0:0:
320,192,27603,1,0,1:0:0:0:
448,192,27799,1,0,3:0:0:0:
192,192,27799,1,8,3:0:0:0:
64,192,27995,1,0,1:0:0:0:
320,192,28191,1,0,3:0:0:0:
448,192,28191,1,0,3:0:0:0:
192,192,28387,1,0,1:0:0:0:
64,192,28583,1,0,3:0:0:0:
320,192,28779,1,0,1:0:0:0:
448,192,28975,1,0,3:0:0:0:
192,192,28975,1,0,3:0:0:0:
320,192,29172,1,0,1:0:0:0:
448,192,29368,1,8,3:0:0:0:
64,192,29368,1,0,3:0:0:0:
192,192,29564,1,0,1:0:0:0:
448,192,29760,1,0,3:0:0:0:
320,192,29760,1,0,3:0:0:0:
64,192,29956,1,0,1:0:0:0:
192,192,30152,1,0,3:0:0:0:
448,192,30348,1,0,1:0:0:0:
320,192,30544,1,0,3:0:0:0:
64,192,30544,1,0,3:0:0:0:
192,192,30740,1,0,1:0:0:0:
64,192,30936,1,8,3:0:0:0:
448,192,30936,1,0,3:0:0:0:
192,192,31132,1,0,1:0:0:0:
448,192,31328,1,0,3:0:0:0:
320,192,31328,1,0,3:0:0:0:
448,192,31525,1,0,1:0:0:0:
64,192,31525,1,0,1:0:0:0:
192,192,31721,1,0,3:0:0:0:
448,192,31721,1,0,3:0:0:0:
320,192,31917,1,0,1:0:0:0:
64,192,31917,1,0,1:0:0:0:
448,192,32113,1,0,3:0:0:0:
192,192,32113,1,0,3:0:0:0:
192,192,32309,1,0,1:0:0:0:
64,192,32309,1,0,1:0:0:0:
448,192,32505,1,0,3:0:0:0:
64,192,32505,1,8,3:0:0:0:
192,192,32701,1,0,1:0:0:0:
320,192,32701,1,0,1:0:0:0:
448,192,32897,1,4,1:0:0:0:
64,192,32897,1,0,3:0:0:0:
192,192,32897,1,0,1:0:0:0:
320,192,33093,1,0,1:0:0:0:
64,192,33289,1,0,3:0:0:0:
192,192,33485,1,0,1:0:0:0:
448,192,33681,1,0,3:0:0:0:
320,192,33681,1,0,3:0:0:0:
192,192,33877,1,0,1:0:0:0:
448,192,34074,1,0,3:0:0:0:
64,192,34074,1,8,3:0:0:0:
320,192,34270,1,0,1:0:0:0:
192,192,34466,1,0,3:0:0:0:
64,192,34466,1,0,3:0:0:0:
448,192,34662,1,0,1:0:0:0:
64,192,34858,1,0,3:0:0:0:
192,192,35054,1,0,1:0:0:0:
448,192,35250,1,0,3:0:0:0:
320,192,35250,1,0,3:0:0:0:
64,192,35446,1,0,1:0:0:0:
192,192,35642,1,8,3:0:0:0:
448,192,35642,1,0,3:0:0:0:
320,192,35838,1,8,3:0:0:0:
192,192,35936,1,8,3:0:0:0:
64,192,36034,1,8,3:0:0:0:
320,192,36034,1,4,1:0:0:0:
448,192,36034,1,0,1:0:0:0:
192,192,36426,1,0,3:0:0:0:
448,192,36426,1,8,3:0:0:0:
320,192,36623,1,0,3:0:0:0:
192,192,36721,1,0,3:0:0:0:
64,192,36819,1,0,3:0:0:0:
448,192,36917,1,0,3:0:0:0:
320,192,37015,1,0,3:0:0:0:
192,192,37113,1,0,3:0:0:0:
64,192,37211,1,0,3:0:0:0:
320,192,37211,1,8,3:0:0:0:
448,192,37309,1,0,3:0:0:0:
192,192,37407,1,0,3:0:0:0:
64,192,37603,1,0,3:0:0:0:
448,192,37603,1,4,1:0:0:0:
320,192,37603,1,0,1:0:0:0:
192,192,37799,1,0,1:0:0:0:
64,192,37995,1,8,3:0:0:0:
320,192,37995,1,0,3:0:0:0:
192,192,38191,1,8,3:0:0:0:
320,192,38289,1,8,3:0:0:0:
448,192,38387,1,8,3:0:0:0:
64,192,38387,1,0,3:0:0:0:
192,192,38583,1,0,3:0:0:0:
320,192,38583,1,8,3:0:0:0:
448,192,38779,1,8,3:0:0:0:
64,192,38779,1,0,3:0:0:0:
320,192,38975,1,8,3:0:0:0:
192,192,38975,1,0,3:0:0:0:
64,192,39172,1,0,1:0:0:0:
192,192,39172,1,4,1:0:0:0:
448,192,39172,1,8,3:0:0:0:
320,192,39760,1,0,3:0:0:0:
448,192,39956,1,0,3:0:0:0:
192,192,39956,1,8,3:0:0:0:
64,192,40152,1,0,3:0:0:0:
192,192,40348,1,0,3:0:0:0:
448,192,40544,1,4,1:0:0:0:
320,192,40544,1,0,3:0:0:0:
64,192,40544,1,8,3:0:0:0:
192,192,40740,1,0,3:0:0:0:
448,192,40936,1,0,3:0:0:0:
320,192,40936,1,8,3:0:0:0:
64,192,41132,1,0,3:0:0:0:
320,192,41328,1,0,3:0:0:0:
192,192,41525,1,0,3:0:0:0:
448,192,41721,1,0,3:0:0:0:
320,192,41917,1,0,3:0:0:0:
64,192,41917,1,8,3:0:0:0:
192,192,42113,1,8,3:0:0:0:
320,192,42211,1,8,3:0:0:0:
448,192,42309,1,0,1:0:0:0:
192,192,42309,1,0,3:0:0:0:
64,192,42309,1,4,1:0:0:0:
448,192,43218,1,0,3:0:0:0:
64,192,43218,1,8,3:0:0:0:
320,192,43218,1,0,3:0:0:0:
192,192,44127,1,8,3:0:0:0:
320,192,44127,1,0,3:0:0:0:
448,192,44127,1,0,3:0:0:0:
64,192,45015,1,0,3:0:0:0:
448,192,45015,1,8,3:0:0:0:
192,192,45015,1,0,3:0:0:0:
64,192,45312,1,0,3:0:0:0:
320,192,45312,1,0,3:0:0:0:
192,192,45608,1,0,3:0:0:0:
448,192,45608,1,8,3:0:0:0:
448,192,45904,1,4,1:0:0:0:
64,192,45904,1,0,3:0:0:0:
192,192,45904,1,0,3:0:0:0:
320,192,46207,1,0,3:0:0:0:
64,192,46207,1,0,3:0:0:0:
192,192,46510,1,0,1:0:0:0:
64,192,46813,1,0,3:0:0:0:
320,192,46813,1,0,3:0:0:0:
192,192,47116,1,0,3:0:0:0:
448,192,47116,1,0,3:0:0:0:
320,192,47419,1,0,1:0:0:0:
320,192,47722,1,0,1:0:0:0:
448,192,47722,1,0,1:0:0:0:
64,192,47722,1,4,1:0:0:0:
192,192,48025,1,0,3:0:0:0:
448,192,48025,1,0,3:0:0:0:
320,192,48328,1,0,1:0:0:0:
64,192,48631,1,0,3:0:0:0:
192,192,48631,1,0,3:0:0:0:
448,192,48934,1,0,3:0:0:0:
320,192,48934,1,0,3:0:0:0:
192,192,49237,1,0,1:0:0:0:
64,192,49540,1,0,1:0:0:0:
192,192,49540,1,0,1:0:0:0:
448,192,49540,1,4,1:0:0:0:
320,192,49843,1,0,3:0:0:0:
64,192,49843,1,0,3:0:0:0:
448,192,50146,1,0,1:0:0:0:
192,192,50449,1,0,3:0:0:0:
320,192,50449,1,0,1:0:0:0:
448,192,50752,1,0,1:0:0:0:
64,192,50752,1,0,3:0:0:0:
192,192,51055,1,0,1:0:0:0:
448,192,51358,1,0,3:0:0:0:
320,192,51358,1,0,3:0:0:0:
64,192,51358,1,4,1:0:0:0:
192,192,51661,1,0,1:0:0:0:
448,192,51661,1,0,3:0:0:0:
320,192,51964,1,0,1:0:0:0:
64,192,52267,1,0,3:0:0:0:
192,192,52267,1,0,1:0:0:0:
448,192,52570,1,0,1:0:0:0:
192,192,52570,1,0,3:0:0:0:
320,192,52873,1,0,1:0:0:0:
448,192,53176,1,0,2:0:0:0:
64,192,53176,1,0,3:0:0:0:
192,192,53372,1,0,2:0:0:0:
320,192,53568,1,0,2:0:0:0:
448,192,53568,1,0,3:0:0:0:
192,192,53666,1,0,2:0:0:0:
64,192,53764,1,0,2:0:0:0:
192,192,53862,1,0,2:0:0:0:
64,192,53960,1,0,2:0:0:0:
320,192,53960,1,4,1:0:0:0:
448,192,54058,1,0,2:0:0:0:
320,192,54156,1,0,2:0:0:0:
64,192,54254,1,0,2:0:0:0:
448,192,54352,1,4,1:0:0:0:
192,192,54352,1,0,2:0:0:0:
320,192,54450,1,0,2:0:0:0:
192,192,54548,1,0,2:0:0:0:
64,192,54646,1,0,2:0:0:0:
448,192,54744,1,4,1:0:0:0:
320,192,54744,1,8,3:0:0:0:
192,192,54940,1,0,3:0:0:0:
64,192,54940,1,8,3:0:0:0:
448,192,55136,1,0,3:0:0:0:
64,192,55136,1,8,3:0:0:0:
320,192,55332,1,0,3:0:0:0:
192,192,55332,1,8,3:0:0:0:
320,192,55528,1,0,3:0:0:0:
64,192,55528,1,8,3:0:0:0:
448,192,55725,1,0,3:0:0:0:
192,192,55725,1,8,3:0:0:0:
320,192,56313,1,0,1:0:0:0:
448,192,56313,1,0,3:0:0:0:
64,192,56313,1,4,1:0:0:0:
192,192,56509,1,0,1:0:0:0:
448,192,56705,1,8,3:0:0:0:
320,192,56705,1,0,3:0:0:0:
192,192,56901,1,0,3:0:0:0:
64,192,56901,1,0,3:0:0:0:
320,192,57097,1,0,1:0:0:0:
448,192,57293,1,0,3:0:0:0:
64,192,57489,1,0,3:0:0:0:
320,192,57489,1,8,3:0:0:0:
448,192,57685,1,0,3:0:0:0:
192,192,57685,1,0,3:0:0:0:
320,192,57881,1,0,1:0:0:0:
192,192,58077,1,0,3:0:0:0:
64,192,58077,1,0,3:0:0:0:
448,192,58274,1,8,3:0:0:0:
192,192,58274,1,0,3:0:0:0:
320,192,58470,1,0,3:0:0:0:
64,192,58470,1,0,3:0:0:0:
448,192,58666,1,0,1:0:0:0:
192,192,58862,1,8,3:0:0:0:
448,192,58862,1,0,3:0:0:0:
64,192,59058,1,0,1:0:0:0:
320,192,59254,1,0,3:0:0:0:
192,192,59254,128,0,59646:3:0:0:0:
448,192,59450,1,0,1:0:0:0:
320,192,59646,1,0,3:0:0:0:
64,192,59646,1,0,3:0:0:0:
448,192,59842,1,8,3:0:0:0:
192,192,59842,1,0,3:0:0:0:
64,192,60038,1,0,3:0:0:0:
320,192,60038,128,0,60430:3:0:0:0:
192,192,60234,1,0,1:0:0:0:
448,192,60430,1,8,3:0:0:0:
64,192,60430,1,0,3:0:0:0:
320,192,60626,1,0,3:0:0:0:
192,192,60626,1,0,3:0:0:0:
448,192,60823,1,0,3:0:0:0:
192,192,60823,128,0,61215:3:0:0:0:
64,192,61019,1,0,1:0:0:0:
448,192,61215,1,0,3:0:0:0:
320,192,61215,1,0,3:0:0:0:
320,192,61411,1,8,3:0:0:0:
64,192,61411,1,0,3:0:0:0:
448,192,61607,1,0,3:0:0:0:
192,192,61607,1,0,3:0:0:0:
320,192,61803,1,0,3:0:0:0:
64,192,61999,1,0,3:0:0:0:
192,192,61999,1,0,3:0:0:0:
448,192,62195,1,8,3:0:0:0:
192,192,62195,1,0,3:0:0:0:
320,192,62391,1,0,3:0:0:0:
192,192,62489,1,8,3:0:0:0:
320,192,62587,1,0,3:0:0:0:
448,192,62587,1,0,1:0:0:0:
64,192,62587,1,4,1:0:0:0:
192,192,62783,1,0,3:0:0:0:
320,192,62881,1,0,3:0:0:0:
448,192,62979,1,8,3:0:0:0:
64,192,62979,1,0,3:0:0:0:
320,192,63176,1,0,3:0:0:0:
192,192,63176,1,0,3:0:0:0:
448,192,63372,1,0,1:0:0:0:
64,192,63568,1,0,3:0:0:0:
192,192,63764,1,0,3:0:0:0:
448,192,63764,1,8,3:0:0:0:
64,192,63960,1,0,3:0:0:0:
320,192,63960,1,0,3:0:0:0:
192,192,64156,1,0,1:0:0:0:
448,192,64352,1,0,3:0:0:0:
320,192,64352,1,0,3:0:0:0:
192,192,64548,1,8,3:0:0:0:
64,192,64548,1,0,3:0:0:0:
320,192,64744,1,0,1:0:0:0:
448,192,65136,1,0,3:0:0:0:
64,192,65136,1,0,3:0:0:0:
192,192,65332,1,0,3:0:0:0:
320,192,65332,1,8,3:0:0:0:
64,192,65528,128,0,65921:3:0:0:0:
192,192,65528,1,0,3:0:0:0:
320,192,65725,1,0,1:0:0:0:
448,192,65921,1,0,3:0:0:0:
192,192,65921,1,0,3:0:0:0:
320,192,66117,1,8,3:0:0:0:
64,192,66117,1,0,3:0:0:0:
320,192,66313,128,0,66705:3:0:0:0:
448,192,66313,1,0,3:0:0:0:
64,192,66509,1,0,3:0:0:0:
192,192,66607,1,0,3:0:0:0:
448,192,66705,1,8,3:0:0:0:
64,192,66705,1,0,3:0:0:0:
320,192,66901,1,0,1:0:0:0:
192,192,67097,128,0,67489:3:0:0:0:
64,192,67097,1,0,3:0:0:0:
448,192,67097,1,4,1:0:0:0:
320,192,67293,1,0,1:0:0:0:
448,192,67489,1,0,3:0:0:0:
320,192,67489,1,0,3:0:0:0:
448,192,67685,1,8,3:0:0:0:
64,192,67685,1,0,3:0:0:0:
192,192,67881,1,0,3:0:0:0:
64,192,67881,1,0,3:0:0:0:
320,192,67979,1,8,3:0:0:0:
448,192,68077,1,0,3:0:0:0:
192,192,68077,1,0,3:0:0:0:
64,192,68176,1,8,3:0:0:0:
320,192,68274,1,0,3:0:0:0:
448,192,68274,1,0,3:0:0:0:
64,192,68470,1,0,3:0:0:0:
192,192,68470,1,8,3:0:0:0:
448,192,68568,1,8,3:0:0:0:
320,192,68568,1,0,3:0:0:0:
192,192,68666,1,0,3:0:0:0:
320,192,68764,1,8,3:0:0:0:
448,192,68862,1,4,1:0:0:0:
64,192,68862,1,0,3:0:0:0:
192,192,68862,1,0,1:0:0:0:
320,192,69058,1,0,1:0:0:0:
192,192,69254,1,0,3:0:0:0:
448,192,69254,1,8,3:0:0:0:
320,192,69450,1,0,3:0:0:0:
64,192,69450,1,0,3:0:0:0:
192,192,69646,1,0,1:0:0:0:
448,192,69842,1,0,3:0:0:0:
320,192,70038,1,0,3:0:0:0:
192,192,70038,1,0,3:0:0:0:
448,192,70234,1,8,3:0:0:0:
64,192,70234,1,0,3:0:0:0:
192,192,70430,1,0,1:0:0:0:
64,192,70626,1,0,3:0:0:0:
320,192,70626,1,0,3:0:0:0:
448,192,70823,1,8,3:0:0:0:
192,192,70823,1,0,3:0:0:0:
192,192,71019,1,0,3:0:0:0:
64,192,71019,1,0,3:0:0:0:
448,192,71411,1,0,3:0:0:0:
192,192,71411,1,0,3:0:0:0:
320,192,71607,1,0,3:0:0:0:
64,192,71607,1,8,3:0:0:0:
448,192,71803,1,0,3:0:0:0:
320,192,71803,128,0,72195:3:0:0:0:
192,192,71999,1,0,1:0:0:0:
448,192,72195,1,0,3:0:0:0:
64,192,72195,1,0,3:0:0:0:
192,192,72391,1,0,3:0:0:0:
320,192,72391,1,8,3:0:0:0:
64,192,72587,1,0,3:0:0:0:
192,192,72587,128,0,72979:3:0:0:0:
448,192,72783,1,0,1:0:0:0:
320,192,72979,1,0,3:0:0:0:
64,192,72979,1,0,3:0:0:0:
448,192,73176,1,8,3:0:0:0:
192,192,73176,1,0,3:0:0:0:
320,192,73372,128,0,73764:3:0:0:0:
64,192,73372,1,0,3:0:0:0:
192,192,73568,1,0,1:0:0:0:
448,192,73764,1,0,3:0:0:0:
64,192,73764,1,0,3:0:0:0:
192,192,73862,1,8,3:0:0:0:
320,192,73960,1,0,3:0:0:0:
64,192,73960,1,0,3:0:0:0:
448,192,74156,1,8,3:0:0:0:
192,192,74156,1,0,3:0:0:0:
64,192,74352,1,0,1:0:0:0:
192,192,74450,1,0,1:0:0:0:
448,192,74548,1,0,3:0:0:0:
320,192,74548,1,0,3:0:0:0:
64,192,74744,1,0,3:0:0:0:
192,192,74744,1,8,3:0:0:0:
320,192,74940,1,8,3:0:0:0:
192,192,75038,1,8,3:0:0:0:
64,192,75136,1,8,3:0:0:0:
320,192,75136,1,0,3:0:0:0:
448,192,75136,1,4,1:0:0:0:
192,192,75332,1,0,3:0:0:0:
320,192,75430,1,0,3:0:0:0:
64,192,75528,1,0,3:0:0:0:
448,192,75528,1,8,3:0:0:0:
192,192,75725,1,0,3:0:0:0:
320,192,75725,1,0,3:0:0:0:
64,192,75921,1,0,1:0:0:0:
448,192,76117,1,0,3:0:0:0:
64,192,76313,1,0,3:0:0:0:
320,192,76313,1,8,3:0:0:0:
192,192,76509,1,0,3:0:0:0:
448,192,76509,1,0,3:0:0:0:
320,192,76705,1,0,1:0:0:0:
64,192,76901,1,0,3:0:0:0:
192,192,76901,1,0,3:0:0:0:
448,192,77097,1,8,3:0:0:0:
192,192,77097,1,0,3:0:0:0:
320,192,77293,1,8,3:0:0:0:
64,192,77293,1,0,3:0:0:0:
448,192,77489,1,0,3:0:0:0:
320,192,77489,1,0,3:0:0:0:
448,192,77685,1,4,1:0:0:0:
64,192,77685,1,0,3:0:0:0:
192,192,77685,1,8,3:0:0:0:
320,192,77881,1,0,1:0:0:0:
448,192,78077,1,0,3:0:0:0:
192,192,78077,128,0,78470:3:0:0:0:
64,192,78274,1,0,1:0:0:0:
448,192,78470,1,0,3:0:0:0:
320,192,78470,1,0,3:0:0:0:
64,192,78666,1,0,3:0:0:0:
192,192,78666,1,8,3:0:0:0:
320,192,78764,1,8,3:0:0:0:
448,192,78862,1,0,3:0:0:0:
192,192,78960,1,0,3:0:0:0:
64,192,79058,1,0,3:0:0:0:
320,192,79058,1,0,3:0:0:0:
448,192,79254,1,0,3:0:0:0:
192,192,79254,1,0,3:0:0:0:
320,192,79352,1,0,3:0:0:0:
64,192,79450,1,0,3:0:0:0:
192,192,79450,1,8,3:0:0:0:
448,192,79646,1,0,3:0:0:0:
320,192,79646,128,0,80038:3:0:0:0:
192,192,79842,1,0,1:0:0:0:
64,192,80038,1,0,3:0:0:0:
448,192,80038,1,0,3:0:0:0:
192,192,80234,1,8,3:0:0:0:
448,192,80332,1,8,3:0:0:0:
64,192,80430,1,0,3:0:0:0:
320,192,80430,1,0,3:0:0:0:
192,192,80626,1,0,3:0:0:0:
320,192,80725,1,8,3:0:0:0:
448,192,80823,1,0,3:0:0:0:
192,192,80823,1,0,3:0:0:0:
64,192,81019,1,8,3:0:0:0:
192,192,81117,1,8,3:0:0:0:
448,192,81215,1,8,3:0:0:0:
320,192,81313,1,8,3:0:0:0:
64,192,81411,1,0,1:0:0:0:
192,192,81411,1,0,3:0:0:0:
448,192,81411,1,4,1:0:0:0:
320,192,81607,1,0,1:0:0:0:
192,192,81705,1,0,3:0:0:0:
448,192,81803,1,8,3:0:0:0:
64,192,81803,1,0,3:0:0:0:
320,192,81901,1,0,1:0:0:0:
192,192,81999,1,0,3:0:0:0:
64,192,81999,1,0,3:0:0:0:
320,192,82195,1,0,1:0:0:0:
448,192,82391,1,0,3:0:0:0:
192,192,82391,1,0,1:0:0:0:
64,192,82587,1,0,1:0:0:0:
320,192,82587,1,0,3:0:0:0:
448,192,82783,1,4,1:0:0:0:
192,192,82783,1,0,3:0:0:0:
64,192,82783,1,8,3:0:0:0:
320,192,82979,1,0,1:0:0:0:
192,192,83176,1,0,3:0:0:0:
448,192,83176,1,0,3:0:0:0:
320,192,83372,1,8,3:0:0:0:
64,192,83372,1,0,3:0:0:0:
192,192,83568,1,0,1:0:0:0:
448,192,83764,1,0,1:0:0:0:
320,192,83960,1,0,3:0:0:0:
192,192,84156,1,0,3:0:0:0:
64,192,84156,1,8,3:0:0:0:
192,192,84352,1,0,3:0:0:0:
448,192,84352,1,0,3:0:0:0:
64,192,84548,1,0,1:0:0:0:
320,192,84548,1,4,1:0:0:0:
448,192,84548,1,0,3:0:0:0:
192,192,84744,1,0,3:0:0:0:
320,192,84744,1,0,3:0:0:0:
64,192,84940,1,0,3:0:0:0:
448,192,84940,1,8,3:0:0:0:
192,192,85136,1,0,1:0:0:0:
320,192,85332,1,0,1:0:0:0:
448,192,85528,1,0,3:0:0:0:
192,192,85528,1,0,3:0:0:0:
320,192,85725,1,8,3:0:0:0:
64,192,85725,1,0,3:0:0:0:
192,192,85921,1,0,1:0:0:0:
448,192,86117,1,0,3:0:0:0:
320,192,86117,1,0,1:0:0:0:
64,192,86117,1,4,1:0:0:0:
192,192,86313,1,0,1:0:0:0:
320,192,86509,1,0,1:0:0:0:
448,192,86705,1,0,1:0:0:0:
448,192,87097,1,0,3:0:0:0:
192,192,87097,1,0,3:0:0:0:
320,192,87489,1,0,3:0:0:0:
64,192,87489,1,0,3:0:0:0:
448,192,87881,1,0,3:0:0:0:
320,192,87881,1,0,3:0:0:0:
64,192,88274,1,0,1:0:0:0:
192,192,88274,1,0,3:0:0:0:
448,192,88666,1,0,1:0:0:0:
320,192,88862,1,0,1:0:0:0:
