osu file format v9

[General]
AudioFilename: Nightcore - when love becomes a lie.mp3
AudioLeadIn: 0
PreviewTime: 57844
Countdown: 0
SampleSet: Soft
StackLeniency: 0.7
Mode: 0
LetterboxInBreaks: 1
EpilepsyWarning: 1

[Editor]
Bookmarks: 115509
DistanceSpacing: 0.8
BeatDivisor: 4
GridSize: 8

[Metadata]
Title:When Love Becomes a Lie (Nightcore Mix)
Artist:Liz Kay
Creator:[Te][Amo]
Version:Weak Love
Source:
Tags:

[Difficulty]
HPDrainRate:3
CircleSize:3
OverallDifficulty:3
ApproachRate:5
SliderMultiplier:1
SliderTickRate:1

[Events]
//Background and Video events
0,0,"Bg.jpg"
//Break Periods
2,69069,71804
2,80266,81451
//Storyboard Layer 0 (Background)
//Storyboard Layer 1 (Fail)
//Storyboard Layer 2 (Pass)
//Storyboard Layer 3 (Foreground)
//Storyboard Sound Samples
//Background Colour Transformations
3,100,163,162,255

[TimingPoints]
24770,344.530577088717,4,2,1,70,1,0
38895,-100,4,1,1,70,0,0
39068,-100,4,2,1,70,0,0
54744,-100,4,1,1,70,0,0
54830,-100,4,2,1,70,0,0
57844,-100,4,2,1,70,0,1
60256,-100,4,1,1,70,0,1
60342,-100,4,2,1,70,0,1
66113,-100,4,2,1,70,0,0
73004,-100,4,2,0,70,0,0
80239,-100,4,2,1,70,0,0
89197,-100,4,1,1,70,0,0
89369,-100,4,2,1,70,0,0
93676,-100,4,1,0,30,0,0
103322,-100,4,2,1,60,0,0
107801,-100,4,1,1,70,0,0
107974,-100,4,2,1,70,0,0
115726,-100,4,2,1,70,0,1
118137,-100,4,1,1,70,0,1
118223,-100,4,2,1,70,0,1
120894,-100,4,1,1,70,0,1
120980,-100,4,2,1,70,0,1
123650,-100,4,1,1,70,0,1
123736,-100,4,2,1,70,0,1
129162,-100,4,1,1,70,0,1
129248,-100,4,2,1,70,0,1
135019,-100,4,2,1,70,0,0
137776,-100,4,2,1,70,0,1
143288,-100,4,2,1,45,0,1
146044,-100,4,2,1,25,0,1
148801,-100,4,2,1,60,0,0

[Colours]
Combo1 : 255,255,128
Combo2 : 255,128,128
Combo3 : 128,128,255
SliderBorder : 255,255,255

[HitObjects]
256,96,24770,5,4
256,176,25114,1,2
256,256,25459,1,0
336,256,25803,2,0,B|336:144,2,100,2|0|2
416,256,26837,1,0
256,248,27526,5,0
256,168,27870,1,2
256,88,28215,1,0
176,88,28559,2,0,B|176:200,2,100,2|0|2
104,48,29593,1,0
176,16,29937,1,0
248,48,30282,5,4
264,128,30627,2,0,B|264:176|208:208,1,100,8|0
176,128,31316,1,8
120,280,32005,2,0,B|144:328|192:344,1,100,8|0
256,296,32694,5,8
319,344,33038,2,0,B|368:328|392:280,1,100,0|8
408,200,33727,2,0,B|352:192|320:240,2,100,0|8|0
408,120,34761,1,8
328,120,35105,1,0
360,48,35450,6,0,B|312:31|251:50|233:112|259:165,1,200,8|8
112,232,36828,1,8
40,192,37173,1,0
112,152,37517,1,8
248,64,38206,1,8
248,144,38551,6,0,B|192:216|312:200|248:280,1,150,0|2
136,264,39584,1,8
136,264,39757,2,0,B|136:160,2,100
256,264,40962,1,8
256,184,41307,5,0
256,104,41651,1,8
336,104,41996,2,0,B|336:216,1,100,0|8
408,240,42685,2,0,B|408:136,1,100,0|8
168,104,44063,6,2,B|168:216,1,100,2|10
96,240,44752,2,2,B|96:128,2,100,2|8|2
416,192,46819,6,0,B|368:176|312:192,1,100,6|0
256,144,47509,2,0,B|224:192|256:240,1,100,2|0
320,288,48198,2,0,B|280:320|224:312,1,100,2|0
152,288,48887,2,0,B|80:264|48:184|48:184|64:136,1,200,2|6
128,88,49920,5,0
256,184,50609,1,2
320,136,50954,1,0
384,88,51298,1,2
448,137,51643,2,0,B|464:184|464:184|440:256|360:288,1,200,2|6
296,240,52676,5,8
256,168,53021,1,2
216,240,53366,1,8
256,88,54055,1,8
176,88,54399,2,0,B|104:104|80:160|80:160|112:200|96:232,1,200,2|6
144,296,55433,5,8
216,328,55777,1,2
296,328,56122,1,8
368,296,56466,1,2
414,229,56811,2,0,B|400:200|432:160|432:160|408:104|336:88,1,200,8|8
256,104,57844,5,6
256,184,58189,1,8
104,144,58878,5,8
40,192,59223,1,2
104,240,59567,1,8
176,272,59912,2,0,B|208:336|312:336|344:272,1,200,2|6
416,248,60945,6,0,B|392:200|336:200,1,100,8|2
280,144,61634,2,0,B|240:184|264:240,1,100,8|2
336,200,62323,2,0,B|368:160|344:104,3,100,8|0|8|4
272,64,63701,5,8
192,40,64046,1,2
112,64,64391,1,8
112,224,65080,5,8
192,248,65424,1,2
272,224,65769,1,8
256,192,66113,12,2,68869
160,184,73004,6,0,B|216:136|280:256|344:184,2,200,2|0|2
424,264,75588,2,0,B|376:232|328:264,1,100,2|0
280,328,76277,2,0,B|328:360|384:328,2,100,0|0|2
80,136,78344,6,0,B|136:136,1,50,0|2
160,208,78861,2,0,B|264:208,1,100
260,288,79550,1,0
300,288,79722,2,0,B|404:288,1,100,2|2
256,104,82651,6,0,B|152:104,1,100,6|8
76,107,83340,2,0,B|76:163|132:187,1,100,2|8
208,184,84029,1,2
288,184,84373,1,8
248,256,84718,1,2
168,256,85062,2,0,B|64:256,2,100,8|2|8
248,256,86096,5,2
328,256,86440,1,8
360,184,86785,1,2
400,256,87130,1,8
360,328,87474,1,2
328,256,87819,2,0,B|264:208|272:112|376:96,1,200,8|8
365,180,88852,2,8,B|165:180,1,200,0|0
256,192,89886,12,2,92297
256,128,93676,6,0,B|208:104|152:128,1,100,4|0
208,192,94365,1,0
208,272,94709,1,0
256,336,95054,2,0,B|208:368|152:328,2,100
328,296,96087,1,0
328,216,96432,5,4
408,216,96776,1,0
368,144,97121,1,0
288,144,97465,2,0,B|80:144,1,200
88,224,98499,1,0
128,296,98844,1,0
208,296,99188,5,4
248,224,99533,1,0
168,208,99877,2,0,B|189:120|297:125|321:189,2,200
256,192,101600,12,2,103322
256,176,104356,6,0,B|256:304,1,100,0|4
176,248,105045,1,8
120,192,105390,1,0
176,136,105734,1,8
256,120,106079,5,0
336,136,106423,1,8
392,192,106768,1,0
336,248,107112,1,8
252,251,107457,6,0,B|196:179|316:195|252:115,1,150,0|2
136,120,108490,1,8
136,120,108663,2,0,B|136:224,2,100
256,120,109869,1,8
256,200,110213,5,0
256,280,110558,1,8
336,280,110902,2,0,B|336:168,1,100,0|8
408,144,111591,2,0,B|408:248,1,100,0|8
168,280,112969,6,2,B|168:168,1,100
96,144,113658,2,0,B|96:256,2,100
416,192,115726,6,0,B|368:208|312:192,1,100,6|8
256,240,116416,2,0,B|232:192|256:144,1,100,2|8
320,96,117105,2,0,B|280:64|224:72,1,100,2|8
152,96,117794,2,0,B|80:120|48:200|48:200|64:248,1,200,2|6
128,296,118827,5,8
256,200,119516,1,10
320,248,119861,1,2
384,296,120205,1,10
448,246,120550,2,0,B|464:200|464:200|440:128|360:96,1,200,2|6
296,144,121583,5,8
256,216,121928,1,2
216,144,122273,1,8
256,296,122962,1,8
176,296,123306,2,0,B|104:280|80:224|80:224|112:184|96:152,1,200,2|6
144,88,124340,5,8
216,56,124684,1,2
296,56,125029,1,8
368,88,125373,1,2
414,154,125718,2,0,B|400:184|432:224|432:224|408:280|336:296,1,200,8|8
256,280,126751,5,6
256,200,127096,1,8
104,240,127785,5,8
40,192,128130,1,2
104,144,128474,1,8
176,109,128819,2,0,B|208:45|312:45|344:109,1,200,2|6
416,136,129852,6,0,B|392:184|336:184,1,100,8|2
280,240,130541,2,0,B|240:200|264:144,1,100,8|2
336,184,131230,2,0,B|368:224|344:280,3,100,8|0|8|4
272,312,132608,5,8
192,336,132953,1,2
112,312,133298,1,8
112,152,133987,5,8
192,128,134331,1,2
272,152,134676,1,8
256,192,135019,12,2,137086
256,96,137776,5,4
256,176,138120,1,2
96,176,138809,1,2
48,240,139154,2,0,B|96:264|144:240,1,100,0|2
296,288,140187,5,2
376,288,140532,1,0
456,288,140876,1,2
416,216,141221,2,0,B|416:160|416:160|384:128,1,100,0|2
408,56,141910,2,0,B|352:56|352:56|320:88,1,100,0|2
256,136,142599,1,0
184,280,143288,5,2
112,248,143633,1,2
176,200,143977,1,2
256,192,144322,2,0,B|248:144|192:120,1,100,2|2
208,40,145011,2,0,B|152:40|120:88,2,100,2|2|2
256,192,146044,12,2,148801
