osu file format v9

[General]
AudioFilename: Nightcore - when love becomes a lie.mp3
AudioLeadIn: 0
PreviewTime: 57844
Countdown: 0
SampleSet: Soft
StackLeniency: 0.7
Mode: 0
LetterboxInBreaks: 1
EpilepsyWarning: 1

[Editor]
DistanceSpacing: 1
BeatDivisor: 2
GridSize: 8

[Metadata]
Title:When Love Becomes a Lie (Nightcore Mix)
Artist:Liz Kay
Creator:[Te][Amo]
Version:No Love
Source:
Tags:

[Difficulty]
HPDrainRate:2
CircleSize:3
OverallDifficulty:1
ApproachRate:2
SliderMultiplier:0.8
SliderTickRate:1

[Events]
//Background and Video events
0,0,"Bg.jpg"
//Break Periods
2,69069,71444
2,80094,81091
//Storyboard Layer 0 (Background)
//Storyboard Layer 1 (Fail)
//Storyboard Layer 2 (Pass)
//Storyboard Layer 3 (Foreground)
//Storyboard Sound Samples
//Background Colour Transformations
3,100,163,162,255

[TimingPoints]
24770,344.530577088717,4,2,1,60,1,0
33383,-100,4,1,1,60,0,0
33555,-100,4,2,1,60,0,0
34761,-100,4,1,1,60,0,0
34933,-100,4,2,1,60,0,0
56811,-100,4,1,1,60,0,0
56983,-100,4,2,1,60,0,0
57500,-100,4,1,1,60,0,0
57672,-100,4,2,1,60,0,0
57844,-100,4,2,1,60,0,1
60256,-100,4,1,1,60,0,1
60428,-100,4,2,1,60,0,1
66113,-100,4,2,1,60,0,0
73004,-100,4,2,0,60,0,0
78172,-100,4,2,0,10,0,0
82651,-100,4,2,1,60,0,0
93676,-100,4,1,0,30,0,0
98844,-100,4,2,1,60,0,0
115726,-100,4,2,1,60,0,1
117448,-100,4,1,1,60,0,1
117620,-100,4,2,1,60,0,1
118137,-100,4,1,1,60,0,1
118310,-100,4,2,1,60,0,1
121583,-100,4,1,1,60,0,1
121755,-100,4,2,1,60,0,1
125028,-100,4,1,1,60,0,1
125200,-100,4,2,1,60,0,1
135019,-100,4,2,1,60,0,0
137776,-100,4,2,1,60,0,1
138120,-100,4,1,1,60,0,1
138292,-100,4,2,1,60,0,1
140876,-100,4,1,1,60,0,1
141049,-100,4,2,1,60,0,1
148801,-100,4,2,1,60,0,0

[Colours]
Combo1 : 255,255,128
Combo2 : 255,128,128
Combo3 : 128,128,255
SliderBorder : 255,255,255

[HitObjects]
174,327,24770,2,0,B|126:303|126:207|198:183,1,160,6|0
256,192,25803,1,0
336,192,26148,2,0,B|384:168|384:72|312:48,1,160,2|2
176,98,27526,5,2
96,96,27870,2,0,B|96:168|168:184|168:184|112:296,1,240,2|0
309,204,30282,5,6
228,204,30627,1,8
228,124,30971,2,0,B|180:124|156:172,1,80,0|8
109,313,32005,1,8
227,206,32694,5,8
227,285,33038,2,0,B|315:285|339:149|419:149,2,240,0|8|0
144,144,35794,5,0
216,104,36139,1,8
360,176,36828,1,8
224,264,37517,1,8
80,336,38206,6,0,B|24:288|160:256|80:192,1,160,8|8
104,120,39240,1,0
184,136,39584,2,8,B|200:176|248:184,2,80,8|0|8
344,144,40962,6,0,B|400:144|432:184,1,80,8|0
360,224,41651,1,8
256,344,42341,1,8
144,224,43030,1,8
221,202,43374,1,0
256,192,43719,12,6,45441
168,264,46819,6,4,B|216:248|216:200,1,80,6|0
296,208,47509,2,0,B|296:248|344:264,1,80,2|0
376,192,48198,1,2
448,152,48542,1,0
376,112,48887,1,2
216,112,49576,5,6
144,72,49920,2,0,B|112:112|144:168,1,80,2|0
96,216,50609,2,0,B|136:240|176:216,2,80,2|0|2
56,144,51643,1,2
216,144,52332,1,4
280,192,52676,5,8
200,336,53366,1,8
360,336,54055,1,8
224,256,54744,1,8
160,208,55088,5,4
80,208,55433,1,8
240,208,56122,2,8,B|208:168|216:120|288:96|328:144|336:192|344:240|400:272|456:240|464:168|416:112,1,400,8|4
352,72,58189,5,8
272,56,58533,1,0
192,64,58878,1,8
40,104,59567,1,8
120,104,59912,6,0,B|72:168|104:264,1,160,2|4
176,224,60945,2,0,B|160:184|184:144,1,80,8|0
248,192,61634,1,8
408,192,62323,1,8
328,336,63012,1,8
248,336,63357,6,4,B|160:336,1,80,4|8
128,184,64391,1,8
128,104,64735,1,0
200,144,65080,2,0,B|296:144,2,80,8|0|8
256,192,66113,12,2,68869
280,32,73004,6,0,B|224:104|256:192|344:248|432:168,1,320,2|2
160,248,75588,2,0,B|160:200|136:168,2,80,2|0|0
88,280,76621,2,0,B|96:320|152:328,1,80,0|2
256,192,78172,12,0,79894
256,192,82651,5,4
256,112,82995,1,8
408,160,83684,1,8
328,152,84029,5,0
376,88,84373,1,8
262,201,85062,2,0,B|294:233|334:233,2,80,8|4|8
112,264,86440,6,0,B|72:240|88:192,1,80,8|0
120,120,87130,2,0,B|144:80|192:96,1,80,8|0
264,112,87819,2,0,B|320:120|312:176,1,80,8|4
360,232,88508,5,8
256,352,89197,1,8
144,232,89886,1,8
256,192,90575,12,2,92297
96,184,93676,5,4
224,96,94365,1,0
64,96,95054,1,0
192,184,95743,1,0
272,320,96432,5,4
432,288,97121,1,0
432,128,97810,1,0
288,56,98499,1,0
256,192,99188,12,2,103322
256,192,104701,6,0,B|256:136|216:120,1,80,4|8
176,192,105390,2,0,B|120:192|96:232,1,80,0|8
168,272,106079,1,0
208,344,106423,1,8
352,280,107112,5,8
304,344,107457,1,0
272,272,107801,1,8
320,208,108146,2,0,B|336:160|312:120,1,80,0|8
248,88,108835,2,0,B|248:-8,2,80,0|8|0
128,192,110213,6,0,B|112:152|128:112,2,80,0|8|0
200,152,111247,1,8
256,304,111936,1,8
312,152,112625,1,8
256,192,112969,12,6,115726
256,112,116415,5,0
256,192,116759,1,8
336,192,117104,2,0,B|328:240|288:264|288:264|336:320,2,160,0|0|4
416,192,118826,5,8
296,88,119515,2,0,B|256:104|216:88,1,80,8|0
152,136,120204,2,0,B|128:104|144:56,2,80,8|0|8
96,192,121238,6,4,B|80:272|136:344|136:344|208:312,1,240,4|8
296,176,122961,1,8
256,104,123305,1,0
216,176,123650,1,8
304,312,124339,2,0,B|376:344|376:344|432:280|416:192,1,240,8|0
256,216,126061,5,2
256,136,126406,1,2
256,56,126751,2,0,B|208:56|184:96,1,80,6|8
64,192,127784,5,8
64,272,128129,1,0
136,232,128473,2,8,B|208:232|168:288|136:336|208:336,2,160
256,128,130540,5,8
296,200,130885,1,0
336,128,131229,2,0,B|368:152|376:200,1,80,8|0
448,224,131919,2,8,B|432:264|388:271|388:271|368:304|320:312,1,160
216,192,133297,5,8
176,120,133641,1,0
136,192,133986,2,8,B|120:232|120:232|128:312|128:312|112:344,1,160
256,192,135019,12,2,137086
256,128,137776,6,0,B|176:128|114:192,1,160,4|0
112,272,138809,1,8
256,208,139498,1,8
400,272,140187,1,8
397,191,140532,2,0,B|336:128|256:128,1,160,4|0
256,48,141565,5,8
104,88,142254,1,8
56,152,142599,2,0,B|96:176|136:160,1,80,0|8
200,200,143288,2,0,B|216:160|200:120,2,80,4|8|0
344,264,144666,5,0
392,192,145011,2,0,B|392:112,2,80,8|0|8
256,192,146044,12,2,148801
