osu file format v9

[General]
AudioFilename: Nightcore - when love becomes a lie.mp3
AudioLeadIn: 0
PreviewTime: 57844
Countdown: 0
SampleSet: Soft
StackLeniency: 0.6
Mode: 0
LetterboxInBreaks: 1
EpilepsyWarning: 1

[Editor]
Bookmarks: 24689,29381,46610,72727,82564,93474,104342,115467,119978,126679,131662
DistanceSpacing: 0.8
BeatDivisor: 4
GridSize: 8

[Metadata]
Title:When Love Becomes a Lie (Nightcore Mix)
Artist:Liz Kay
Creator:[Te][Amo]
Version:Intense Love
Source:
Tags:

[Difficulty]
HPDrainRate:8
CircleSize:4
OverallDifficulty:7
ApproachRate:8
SliderMultiplier:2
SliderTickRate:2

[Events]
//Background and Video events
0,0,"Bg.jpg"
//Break Periods
2,69069,72254
//Storyboard Layer 0 (Background)
//Storyboard Layer 1 (Fail)
//Storyboard Layer 2 (Pass)
//Storyboard Layer 3 (Foreground)
//Storyboard Sound Samples
//Background Colour Transformations
3,100,0,0,0

[TimingPoints]
24770,344.530577088717,4,2,1,75,1,0
31316,-100,4,1,1,75,0,0
31402,-100,4,2,1,75,0,0
45401,-100,4,2,1,90,0,0
45487,-100,4,2,1,70,0,0
46607,-100,4,2,1,70,0,0
48628,-100,4,2,1,70,0,0
49490,-100,4,2,1,70,0,0
51384,-100,4,2,1,70,0,0
52418,-100,4,2,1,60,0,0
54141,-100,4,2,1,70,0,0
55002,-100,4,2,1,60,0,0
56897,-100,4,2,1,70,0,0
57758,-100,4,2,1,60,0,0
57844,-100,4,2,1,60,0,1
59653,-100,4,2,1,70,0,1
60515,-100,4,2,1,60,0,1
62409,-100,4,2,1,70,0,1
63271,-100,4,2,1,70,0,1
65166,-100,4,2,1,60,0,1
66113,-100,4,2,1,60,0,0
73004,-200,4,2,0,60,0,0
78172,-133.333333333333,4,2,0,60,0,0
80239,-100,4,2,1,60,0,0
93503,-133.333333333333,4,1,0,40,0,0
103322,-100,4,2,1,60,0,0
109179,-100,4,1,1,60,0,0
109266,-100,4,2,1,60,0,0
110644,-100,4,2,0,60,0,0
112022,-100,4,2,0,30,0,0
112539,-100,4,2,1,60,0,0
115726,-100,4,2,1,70,0,1
135019,-100,4,2,1,70,0,0
137776,-100,4,2,1,70,0,1
148801,-200,4,2,1,60,0,0

[Colours]
Combo1 : 255,255,128
Combo2 : 255,128,128
Combo3 : 128,128,255
SliderBorder : 255,255,255

[HitObjects]
96,192,24770,5,6
416,192,25114,1,2
256,192,25459,1,2
216,264,25631,1,0
296,264,25803,1,2
176,192,25975,1,0
336,192,26148,5,2
296,264,26320,1,0
216,264,26492,1,2
176,192,26664,1,0
216,120,26837,1,2
296,120,27009,1,0
176,120,27181,1,2
328,120,27353,1,0
136,120,27526,6,0,B|32:120|152:256|24:256,1,200,2|0
32,328,28043,1,0
256,304,28387,1,0
480,328,28732,1,0
480,256,28904,2,0,B|360:256|504:120|336:120,1,200,2|0
256,304,29593,2,0,B|256:200,1,100,2|0
256,80,29937,2,0,B|256:184,1,100,2|0
256,304,30282,5,2
176,304,30454,1,0
128,240,30627,1,8
128,160,30799,1,0
184,104,30971,1,0
256,80,31143,6,0,B|360:80|256:208|400:208,1,200
384,128,31660,2,0,B|456:152|456:216|456:216|456:272|424:288,1,200,0|8
352,296,32177,1,0
296,352,32349,1,0
216,352,32521,1,0
160,296,32694,1,8
168,216,32866,2,0,B|192:208|192:208|216:224|216:224|240:208|240:208|264:224|264:224|288:208|288:208|312:224|312:224|336:208,1,200
312,128,33383,5,8
208,128,33555,1,0
352,128,33727,1,0
168,128,33900,1,0
440,128,34244,5,0
80,128,34589,1,0
256,128,34933,2,0,B|176:200|368:232|232:320,1,200
257,300,35450,1,0
257,300,35794,1,4
136,192,36139,5,8
176,120,36311,1,0
256,136,36484,1,0
336,120,36656,1,0
376,192,36828,2,0,B|376:240|416:280,2,100,8|0|0
336,120,37345,5,0
296,48,37517,1,8
216,48,37689,1,0
176,120,37862,1,0
136,192,38034,2,0,B|136:240|96:280,2,100,0|8|0
200,240,38551,5,0
256,296,38723,2,0,B|232:344|232:344|184:344,2,100,0|8|0
256,296,39240,2,0,B|272:344|272:344|320:344,1,100
328,264,39584,2,0,B|360:168|360:168|320:128|320:80,2,200,8|0|8
256,120,40618,5,2
256,192,40962,1,2
256,192,41307,5,2
176,192,41479,1,0
96,192,41651,1,8
136,264,41824,1,0
216,264,41996,1,0
296,264,42168,2,0,B|400:264,1,100,0|8
416,344,42513,1,0
336,344,42685,1,0
80,344,43030,6,0,B|48:240,1,100,8|0
104,168,43374,2,0,B|136:264,2,100,0|0|8
104,168,43891,1,0
176,136,44063,6,0,B|160:88,6,50,0|0|0|0|8|0|0
216,136,44666,1,0
256,136,44752,1,0
296,136,44838,1,0
336,136,44925,2,0,B|360:192,6,50,0|0|8|0|0|0|2
200,240,46647,6,0,B|184:192|200:136,1,100,0|4
312,240,47164,2,0,B|328:192|312:136,1,100
80,336,47681,1,0
256,288,48025,1,0
432,336,48370,1,0
408,168,48714,5,2
352,112,48887,1,2
296,168,49059,1,2
232,216,49231,1,2
176,272,49403,1,2
120,216,49576,1,4
232,328,49920,5,0
288,272,50092,1,0
480,192,50437,1,0
256,80,50782,1,0
40,192,51126,1,0
208,192,51471,5,2
304,192,51643,1,2
256,264,51815,1,2
256,128,51987,1,2
176,264,52160,1,2
336,264,52332,1,4
416,128,52676,5,0
416,128,52849,1,0
256,56,53193,1,0
120,320,53538,1,0
392,320,53882,1,0
208,320,54227,5,2
160,224,54399,1,2
208,128,54571,1,2
304,128,54744,1,2
352,224,54916,1,2
304,320,55088,1,4
256,224,55433,5,0
256,192,55605,12,0,56639
112,80,56983,5,2
40,144,57155,1,2
40,240,57328,1,2
112,304,57500,1,2
120,192,57672,1,2
200,192,57844,6,0,B|208:144|264:144|272:192|280:240|336:240|352:184,1,200,4|0
352,112,58361,1,0
456,328,58706,1,0
256,280,59050,1,0
56,328,59395,1,0
104,168,59739,5,2
160,112,59912,1,2
216,168,60084,1,2
280,216,60256,1,2
336,272,60428,1,2
392,216,60601,1,4
280,328,60945,5,0
224,272,61117,1,0
32,192,61462,1,0
256,80,61807,1,0
472,192,62151,1,0
304,192,62496,5,2
208,192,62668,1,2
256,264,62840,1,2
256,128,63012,1,2
336,264,63185,1,2
176,264,63357,1,4
96,128,63701,5,0
96,128,63874,1,0
256,56,64218,1,0
392,320,64563,1,0
120,320,64907,1,0
304,320,65252,5,2
352,224,65424,1,2
304,128,65596,1,2
208,128,65769,1,2
160,224,65941,1,2
208,320,66113,1,4
256,192,66285,12,2,68869
256,128,73004,6,0,B|208:104|160:128,1,100,2|0
208,192,73521,1,2
208,192,73865,2,0,B|168:240|256:224|208:280,1,100,0|0
256,128,75588,6,0,B|208:96|160:128,1,100,2|0
256,256,76277,2,0,B|304:288|352:256,2,100,0|0|2
368,112,78344,5,0
360,200,78516,2,0,B|296:200|264:152|280:96,1,149.999995529652,2|0
368,112,79033,2,0,B|192:256,1,224.999993294478,2|0
200,336,79722,2,0,B|136:336|104:288|120:232,1,149.999995529652,2|2
256,192,80583,12,0,81962
256,104,82651,5,0
176,104,82823,1,0
96,104,82995,1,8
136,176,83167,1,0
216,176,83340,1,0
176,248,83512,1,0
96,104,83684,1,8
256,104,83856,1,0
336,104,84029,6,0,B|440:104|328:256|440:256,1,200,0|8
376,320,84546,2,0,B|168:320,1,200
120,264,85062,1,8
56,216,85235,1,2
120,264,85407,1,0
200,264,85579,1,0
264,216,85751,1,8
136,88,86096,6,0,B|72:128|112:208|200:208|208:136,1,200,0|8
256,96,86613,1,0
376,88,86785,2,0,B|440:128|400:208|312:208|304:136,1,200,0|8
256,224,87302,1,0
96,296,87646,1,0
416,296,87991,1,0
368,232,88163,5,0
312,176,88335,1,0
368,112,88508,1,8
424,176,88680,1,0
312,176,88852,2,0,B|192:176,1,100
128,176,89197,1,8
256,192,89541,12,2,92297
256,192,92814,5,2
256,192,93331,1,2
104,128,93676,2,0,B|64:144|48:192|48:192|88:248,1,149.999995529652,4|0
192,352,94365,2,0,B|240:328|256:360|256:360|272:328|328:352,1,149.999995529652,0|0
408,248,95054,2,0,B|456:192|456:192|456:144|416:128,1,149.999995529652,0|0
320,72,95743,2,0,B|272:96|256:64|256:64|240:96|184:72,1,149.999995529652,0|0
72,96,96432,5,4
128,200,96776,1,0
128,200,96948,1,0
224,128,97293,2,0,B|264:104|304:136|304:136|344:80,2,149.999995529652,0|0|0
224,128,98155,1,0
152,288,98499,1,0
256,200,98844,1,0
360,288,99188,6,0,B|408:232|360:144,1,149.999995529652,4|0
336,104,99705,1,0
152,288,100049,2,0,B|104:232|152:144,2,149.999995529652
184,328,100911,1,0
328,328,101255,1,0
256,232,101600,1,0
256,192,101772,12,2,103322
256,192,103839,5,2
256,192,104356,1,2
96,192,104701,5,4
176,192,104873,1,0
136,256,105045,1,8
56,256,105217,1,0
136,128,105390,2,0,B|256:128,2,100,0|0|8
352,240,106079,5,0
392,312,106251,1,0
312,312,106423,1,8
232,312,106596,1,0
272,240,106768,1,0
192,240,106940,1,0
152,312,107112,1,8
192,240,107285,1,0
232,176,107457,5,0
232,176,107629,1,0
152,176,107801,1,8
72,176,107974,2,0,B|56:200|56:200|72:224|72:224|56:248|56:248|72:272|72:272|56:296|56:296|72:320|72:320|64:344|64:344|72:360,1,200
64,344,108490,1,8
144,344,108663,6,0,B|248:328|296:208,2,200
144,264,109524,1,4
256,80,109869,1,4
368,264,110213,1,4
144,264,110558,5,8
256,248,110730,1,0
424,168,111074,1,0
96,160,111419,1,2
256,40,111763,1,2
160,336,112108,1,2
360,336,112453,1,2
256,192,112797,12,2,114347
184,192,115553,5,0
184,192,115726,2,0,B|184:128|136:96,1,100,4|0
256,192,116070,2,0,B|256:80,1,100
328,192,116415,2,0,B|328:128|376:96,2,100
296,264,116931,1,0
216,264,117104,1,0
328,264,117276,1,0
184,264,117448,1,0
136,208,117620,6,2,B|88:248|128:320,1,100
394,298,117965,2,0,B|424:248|376:208,3,100,2|2|2|6
256,232,118826,5,0
256,232,118999,1,0
112,240,119343,1,0
112,240,119688,1,0
112,240,120032,1,0
160,88,120377,1,2
192,160,120549,1,2
232,232,120721,1,2
176,288,120894,1,2
232,232,121066,1,2
296,184,121238,5,4
288,104,121410,2,0,B|352:104|376:168,1,100
288,272,121755,2,0,B|352:272|376:208,1,100
296,184,122099,6,0,B|96:184,2,200
368,184,122961,1,0
408,256,123133,1,2
368,328,123305,1,2
288,328,123478,1,2
328,256,123650,1,2
448,328,123822,1,2
288,328,123994,1,4
128,328,124339,6,0,B|128:216,1,100
80,64,124856,2,0,B|104:160|104:160|168:152|192:200,1,200
321,197,125545,2,0,B|344:152|408:160|408:160|432:64,1,200
304,72,126061,5,2
208,72,126234,1,2
256,155,126406,1,2
257,251,126578,1,2
258,347,126751,1,6
336,344,126923,5,0
416,344,127095,1,0
376,272,127267,1,0
456,272,127440,1,0
416,200,127612,1,0
256,88,127956,1,0
96,200,128301,5,0
136,264,128473,1,0
56,264,128645,1,2
16,336,128818,1,2
96,336,128990,1,2
176,336,129162,1,2
96,200,129335,1,2
16,336,129507,1,4
136,264,129851,5,0
136,264,130024,1,0
96,112,130368,1,0
256,312,130713,1,0
416,112,131057,1,0
320,240,131402,5,2
256,192,131574,1,2
184,152,131746,1,2
176,232,131919,1,2
192,72,132091,1,2
333,151,132263,1,4
256,288,132608,5,0
256,288,132780,1,0
96,288,133124,1,0
256,192,133469,1,0
416,288,133813,1,0
472,136,134158,5,2
416,192,134330,1,2
352,240,134502,1,2
344,160,134675,1,2
336,80,134847,1,2
404,112,135019,1,4
256,192,135105,12,2,137086
256,192,137603,5,2
256,112,137776,1,6
256,272,138120,1,8
328,232,138292,1,0
184,152,138637,1,0
328,152,138981,1,0
184,232,139326,1,0
328,232,139670,5,0
328,152,139843,1,0
400,184,140015,1,0
400,264,140187,1,8
328,304,140360,1,0
256,272,140532,1,4
120,192,140876,5,8
120,192,141049,1,0
280,192,141393,1,0
280,112,141565,1,8
208,152,141738,1,0
120,288,142082,1,0
208,232,142427,5,0
352,152,142599,1,0
208,72,142771,1,0
280,192,142943,1,8
208,152,143116,1,0
280,112,143288,1,4
128,152,143633,5,10
48,152,143805,1,0
208,152,144149,1,0
352,80,144494,2,0,B|344:104|344:104|360:128|360:128|344:152|344:152|360:176|360:176|344:200|344:200|360:224|360:224|344:248,1,200
192,296,145183,5,0
168,224,145355,1,0
112,280,145527,1,0
96,200,145700,1,8
152,144,145872,1,0
256,192,146044,12,2,148801
