osu file format v5

[General]
AudioFilename: Tori no Uta.mp3
AudioLeadIn: 3000
PreviewTime: 99894
Countdown: 0
SampleSet: Soft
StackLeniency: 0.7
Mode: 0
LetterboxInBreaks: 1

[Metadata]
Title:Tori no Uta -Ethereal House Mix-
Artist:Lix
Creator:James
Version:Hard
Source:
Tags:

[Difficulty]
HPDrainRate:5
CircleSize:5
OverallDifficulty:7
SliderMultiplier:1.6
SliderTickRate:2

[Events]
//Background and Video events
0,0,"image.jpg"
//Break Periods
//Storyboard Layer 0 (Background)
//Storyboard Layer 1 (Failing)
//Storyboard Layer 2 (Passing)
//Storyboard Layer 3 (Foreground)
//Storyboard Sound Samples
//Background Colour Transformations
3,100,163,162,255

[TimingPoints]
15460,428.571428571429,4,2,1,100,1

[Colours]
Combo1 : 116,207,252
Combo2 : 249,186,68
Combo3 : 83,97,111
Combo4 : 240,5,5

[HitObjects]
40,272,14388,2,0,B|114:308|216:280,1,160
248,224,15031,1,0
200,160,15245,1,0
264,112,15459,2,0,B|344:69|440:104,1,160,2|0
488,128,16102,1,0
488,128,16209,2,0,B|512:215|503:278|450:325|382:337|256:312,1,360
56,192,17602,5,0
80,112,17817,1,0
144,64,18031,1,2
224,48,18245,1,0
304,48,18459,1,2
376,72,18674,1,0
416,136,18888,2,0,B|465:225|384:304,1,160,2|2
336,320,19531,1,0
336,320,19638,2,0,B|267:369|187:333|147:252|158:175|256:104,1,360,0|0
448,328,21245,6,0,B|367:296|272:336,1,160,0|0
208,320,21888,1,0
128,328,22102,1,0
48,312,22317,2,0,B|64:224,1,80,4|2
136,216,22745,2,0,B|216:200,1,80,0|2
296,192,23174,2,0,B|288:312,1,80,0|2
368,288,23602,2,0,B|448:304,1,80,0|2
448,224,24031,2,0,B|448:120,1,80,0|2
368,120,24460,2,0,B|288:104,1,80,0|2
208,96,24888,2,0,B|192:208,1,80,0|2
184,256,25317,2,0,B|272:256,1,80,0|2
344,256,25745,2,0,B|472:256,2,120
64,48,27245,5,0
64,48,27460,1,4
192,48,27888,1,4
320,48,28317,1,4
448,48,28745,1,4
456,336,29174,6,0,B|280:336,1,160,2|2
216,336,29817,1,0
216,336,29924,2,2,B|171:268|245:202|176:120,1,200
376,64,30888,1,2
456,256,31317,5,2
392,304,31531,1,0
328,256,31745,1,2
264,304,31960,1,0
200,256,32174,1,2
144,312,32388,1,0
72,272,32602,2,0,B|-16:216,1,80,2|0
16,152,33031,2,0,B|48:64,1,80,2|0
45,76,33352,2,0,B|108:128|177:56|248:96,1,200,2|2
176,240,34317,1,0
320,304,34745,5,2
320,304,34960,2,0,B|399:229|320:160,1,160
248,136,35602,1,0
168,152,35817,1,2
128,224,36031,2,0,B|100:331|216:360,1,160,4|2
272,352,36674,1,0
272,352,36781,2,0,B|389:322|328:160,1,200,2|2
280,40,37745,1,0
128,96,38174,5,2
184,152,38388,1,0
168,232,38602,2,0,B|152:328,1,80,2|0
80,352,39031,1,2
16,296,39245,1,0
72,240,39460,5,2
72,240,39567,1,2
128,296,39781,1,2
128,296,39888,1,0
176,232,40102,1,2
176,232,40210,1,0
232,288,40424,1,2
232,288,40531,1,0
288,344,40745,1,4
352,296,40960,5,2
352,296,41067,1,0
296,232,41281,1,2
296,232,41388,1,0
360,184,41602,1,2
360,184,41710,1,0
432,144,41924,1,2
432,144,42031,1,0
384,80,42245,1,2
384,80,42352,1,0
448,32,42567,1,2
448,32,42674,1,0
256,192,42888,12,4,46317
136,80,46745,5,8
136,304,47174,1,0
376,304,47602,1,8
376,80,48031,1,0
256,352,48460,5,8
64,192,48888,1,0
256,32,49317,1,8
448,192,49745,2,0,B|304:192,2,120
368,328,50817,1,0
368,328,51031,2,0,B|176:328,1,160,8|0
120,192,51888,1,8
48,48,52317,2,0,B|136:48|232:48,1,160,0|8
272,192,53174,1,4
320,344,53602,5,8
384,296,53817,1,0
336,232,54031,2,0,B|384:192|384:136|344:64,1,160,0|8
192,96,54888,2,0,B|139:140|176:216,2,120,0|0|0
352,64,55960,2,0,B|376:144,1,80,0|8
344,216,56388,1,0
320,288,56602,1,0
208,232,56924,1,0
96,288,57245,2,0,B|64:208,1,80,0|0
216,152,57888,1,8
360,80,58317,5,2
360,80,58424,1,0
416,136,58638,1,2
416,136,58745,1,0
408,216,58960,1,2
408,216,59067,1,0
336,256,59281,1,2
336,256,59388,1,0
272,200,59602,1,2
288,120,59817,1,0
288,120,59924,1,0
288,120,60031,1,4
64,48,60460,5,8
64,48,60674,1,0
64,48,60888,2,0,B|26:108|25:160|40:216,1,160,0|8
184,200,61745,1,0
304,200,62067,1,0
424,200,62388,2,0,B|471:288|392:384,1,160,0|0
256,352,63245,5,0
256,352,63460,1,0
136,352,63781,1,0
16,352,64102,2,0,B|-16:264|40:200,1,160
96,144,64745,2,0,B|152:228|80:320,2,160,8|0|8
240,80,66031,1,0
272,304,66460,1,8
424,192,66888,1,4
328,48,67317,5,8
256,88,67531,1,0
320,136,67745,2,0,B|388:183|392:288,1,160,0|8
240,216,68602,2,0,B|184:186|192:80,1,120,0|0
72,104,69245,1,0
72,264,69674,2,0,B|72:352,1,80,0|8
152,344,70102,1,0
232,344,70317,2,0,B|408:344,1,160,0|8
472,192,71174,5,0
256,192,71602,5,8
40,192,72031,5,0
256,192,72138,12,4,73745
160,96,74174,6,0,B|280:96,1,80,10|0
240,96,74495,2,0,B|303:157|203:234|280:304,1,200,0|10
400,360,75460,1,0
488,224,75888,1,8
384,104,76317,2,0,B|330:88|271:132|216:96,1,160,0|8
64,72,77174,2,0,C|47:236|224:280,2,320
256,312,79531,1,0
256,232,79745,1,0
256,152,79960,1,0
472,40,80602,5,4
392,48,80817,1,0
352,120,81031,1,10
368,200,81245,1,0
368,200,81352,2,0,B|309:296|184:280,1,200,2|10
40,256,82317,1,0
184,184,82745,1,8
88,56,83174,1,0
240,16,83602,5,10
272,88,83817,1,0
224,152,84031,2,0,B|200:240|248:312,1,160,2|10
304,360,84674,1,0
360,304,84888,1,0
400,232,85102,2,0,B|426:149|368:64,1,160,2|2
320,16,85745,1,4
192,352,86174,1,4
72,136,86602,1,4
440,256,87031,1,4
336,128,87460,6,0,B|269:83|160:120,1,160,4|8
104,136,88102,1,0
104,136,88210,2,8,B|72:204|134:256|88:352,1,200,0|8
256,328,89174,1,0
416,328,89602,2,0,B|448:260|424:160,2,160,8|0|8
256,328,90888,2,0,C|200:248|288:160|224:64,2,320
392,248,93031,1,8
280,128,93460,1,0
280,128,93674,1,2
56,336,94317,6,0,B|160:336,1,80,4|0
216,328,94745,2,0,B|280:272,1,80,10|0
276,274,95067,2,0,B|400:229|468:338,1,200,2|10
456,160,96031,1,0
296,160,96460,2,0,B|120:160,1,160,8|0
32,280,97317,5,10
80,336,97531,1,0
160,312,97745,1,2
304,248,98174,1,10
384,232,98388,1,0
432,296,98602,1,2
360,328,98817,2,0,B|312:258|352:152,1,160,0|0
376,104,99460,5,4
312,56,99674,1,0
232,72,99888,1,2
160,104,100102,1,0
160,104,100210,1,0
88,136,100424,1,0
88,136,100531,1,0
16,168,100745,2,0,B|-23:252|24:336,1,160,2|4
96,336,101388,6,0,B|192:344,1,80,2|8
160,264,101817,2,0,B|120:160,1,80,2|0
192,136,102245,2,0,B|272:72,1,80,2|8
304,144,102674,2,0,B|352:224,2,80,2|0|2
256,80,103317,1,8
192,128,103531,1,2
248,184,103745,1,0
184,232,103960,1,2
240,288,104174,2,0,B|328:280,1,80,8|2
400,264,104602,2,0,B|428:168|352:80,1,160,0|8
320,56,105245,1,0
320,56,105352,2,0,B|264:96|252:157|328:240,1,200,0|8
416,352,106317,1,0
256,328,106745,5,8
176,344,106960,2,0,B|80:312,1,80,0|0
24,296,107388,1,0
72,232,107602,2,0,B|168:216,1,80,0|0
232,200,108031,2,0,B|313:179|424:208,1,160,6|10
464,216,108674,1,0
464,216,108781,2,0,B|479:334|328:320,1,200,2|10
176,304,109745,1,0
56,192,110174,6,0,B|80:104,1,80,10|0
152,88,110602,2,0,B|240:88,1,80,2|0
256,168,111031,2,0,B|280:248,1,80,10|0
352,272,111460,2,0,B|392:224|376:168|376:112|304:56|208:88|168:136,1,320,2|2
48,184,112745,5,10
72,256,112960,1,0
144,232,113174,2,4,B|227:205|312:232,3,160,4|12|4|12
472,304,114888,6,0,B|423:377|320:336,1,160,4|8
256,312,115531,1,0
256,312,115638,2,0,B|292:240|218:194|272:104,1,200,0|8
136,24,116602,1,0
40,152,117031,5,10
112,192,117245,1,0
176,144,117460,2,0,B|248:184,1,80,2|0
312,224,117888,2,0,B|288:304,1,80,10|0
208,304,118317,2,0,B|120:312,1,80,2|0
48,320,118745,2,0,B|40:232,1,80,10|0
40,240,119067,2,0,B|104:184|168:200|240:232,1,200,0|10
376,288,120031,1,0
472,160,120460,5,10
400,120,120674,2,0,B|335:69|232:96,1,160,0|0
168,104,121317,1,8
192,176,121531,2,0,B|224:256,1,80,0|6
248,328,121960,1,0
168,328,122174,2,0,B|72:320,1,80,10|0
88,320,122495,2,0,B|39:248|76:174|136:128,1,200,0|10
256,56,123460,1,0
392,136,123888,5,10
432,208,124102,1,0
400,280,124317,1,2
320,304,124531,1,0
256,256,124745,1,10
264,176,124960,1,0
336,216,125174,2,0,B|371:105|301:23|206:3|69:57|60:162|79:278|194:309|288:256,2,640,2|0|2
256,192,128710,12,6,132031
