osu file format v12

[General]
AudioFilename: Spooky Scary Skeletons (Remix) - Extended Mix.mp3
AudioLeadIn: 0
PreviewTime: -1
Countdown: 0
SampleSet: Normal
StackLeniency: 0.7
Mode: 0
LetterboxInBreaks: 1
WidescreenStoryboard: 1

[Editor]
DistanceSpacing: 0.8
BeatDivisor: 2
GridSize: 16
TimelineZoom: 1

[Metadata]
Title:Spooky Scary Skeletons
TitleUnicode:Spooky Scary Skeletons
Artist:Living Tombstone
ArtistUnicode:Living Tombstone
Creator:floofyshmoofer
Version:Normal
Source:
Tags:spooky scary skeletons skeleton tombstone
BeatmapID:411059
BeatmapSetID:169753

[Difficulty]
HPDrainRate:1
CircleSize:3
OverallDifficulty:2
ApproachRate:3
SliderMultiplier:1.49999990463257
SliderTickRate:1

[Events]
//Background and Video events
0,0,"Background.jpg",0,0
//Break Periods
2,7291,13620
2,37291,43620
2,75259,80651
2,142291,148151
2,179791,185651
//Storyboard Layer 0 (Background)
//Storyboard Layer 1 (Fail)
//Storyboard Layer 2 (Pass)
//Storyboard Layer 3 (Foreground)
//Storyboard Sound Samples
//Background Colour Transformations
3,100,91,91,91

[TimingPoints]
60,468.75,4,1,0,50,1,0
80685,468.75,3,1,0,50,1,0
82091,468.75,4,1,0,50,1,0

[Colours]
Combo1 : 53,53,53
Combo2 : 126,142,72
Combo3 : 180,180,180
Combo4 : 55,28,0

[HitObjects]
119,133,60,5,8,0:0:0:0:
119,133,294,1,8,0:0:0:0:
203,249,528,1,8,0:0:0:0:
203,249,763,1,8,0:0:0:0:
353,211,997,2,0,P|366:146|354:118,1,74.9999952316285,8|8,0:0|0:0,0:0:0:0:
467,154,1466,2,0,P|455:228|469:266,1,74.9999952316285,8|8,0:0|0:0,0:0:0:0:
417,294,1935,5,8,0:0:0:0:
325,261,2169,1,8,0:0:0:0:
364,167,2403,1,8,0:0:0:0:
451,198,2638,1,8,0:0:0:0:
455,93,2872,2,0,P|399:76|356:78,1,74.9999952316285,8|8,0:0|0:0,0:0:0:0:
303,93,3341,2,0,P|253:131|245:166,1,74.9999952316285,8|8,0:0|0:0,0:0:0:0:
202,226,3810,5,8,0:0:0:0:
202,226,4044,1,8,0:0:0:0:
105,143,4278,1,8,0:0:0:0:
105,143,4513,1,8,0:0:0:0:
215,100,4747,2,0,L|293:56,1,74.9999952316285,8|8,0:0|0:0,0:0:0:0:
339,144,5216,2,0,L|329:232,1,74.9999952316285,8|8,0:0|0:0,0:0:0:0:
256,192,5685,12,4,7091,0:0:0:0:
129,120,15060,6,0,P|183:88|234:106,1,74.9999952316285,4|0,0:0|0:0,0:0:0:0:
220,188,15528,2,0,P|267:235|262:281,1,74.9999952316285,8|0,0:0|0:0,0:0:0:0:
371,171,15997,2,0,P|389:105|375:76,1,74.9999952316285,4|0,0:0|0:0,0:0:0:0:
366,66,16349,2,0,P|333:41|245:72,1,112.499992847443,4|8,0:0|0:0,0:0:0:0:
174,121,16935,5,4,0:0:0:0:
145,173,17169,1,0,0:0:0:0:
144,232,17403,1,8,0:0:0:0:
173,284,17638,1,0,0:0:0:0:
223,315,17872,1,4,0:0:0:0:
358,225,18575,5,0,0:0:0:0:
350,125,18810,1,4,0:0:0:0:
350,125,19044,1,0,0:0:0:0:
446,71,19278,2,0,L|483:110,1,37.4999976158142,8|0,0:0|0:0,0:0:0:0:
457,175,19747,2,0,P|465:237|455:267,1,74.9999952316285,4|0,0:0|0:0,0:0:0:0:
441,287,20099,2,0,P|403:325|317:333,1,112.499992847443,4|8,0:0|0:0,0:0:0:0:
275,261,20685,6,0,L|349:229,1,74.9999952316285,4|0,0:0|0:0,0:0:0:0:
343,162,21153,2,0,L|260:131,1,74.9999952316285,8|0,0:0|0:0,0:0:0:0:
135,173,21622,2,0,P|84:147|37:160,2,74.9999952316285,4|8|12,0:0|0:0|0:0,0:0:0:0:
195,65,22560,6,0,P|230:38|271:49,1,74.9999952316285,4|0,0:0|0:0,0:0:0:0:
258,41,23028,2,0,P|303:83|293:110,1,74.9999952316285,8|0,0:0|0:0,0:0:0:0:
302,89,23497,2,0,P|295:146|309:179,1,74.9999952316285,4|0,0:0|0:0,0:0:0:0:
300,162,23849,2,0,P|326:226|305:284,1,112.499992847443,4|8,0:0|0:0,0:0:0:0:
202,264,24435,5,4,0:0:0:0:
198,204,24669,1,0,0:0:0:0:
193,144,24903,1,8,0:0:0:0:
189,83,25138,2,0,L|186:25,1,37.4999976158142
416,130,26310,6,0,P|449:183|450:207,1,74.9999952316285,4|0,0:0|0:0,0:0:0:0:
350,225,26778,2,0,P|320:181|333:133,1,74.9999952316285,8|0,0:0|0:0,0:0:0:0:
353,74,27247,2,0,P|301:58|263:72,1,74.9999952316285,4|0,0:0|0:0,0:0:0:0:
251,85,27599,2,0,P|206:114|131:109,1,112.499992847443,4|8,0:0|0:0,0:0:0:0:
52,156,28185,5,4,0:0:0:0:
90,201,28419,1,0,0:0:0:0:
146,219,28653,1,8,0:0:0:0:
205,208,28888,1,0,0:0:0:0:
252,171,29122,2,0,P|323:115|392:126,1,149.999990463257,0|8,0:0|0:0,0:0:0:0:
359,304,30060,5,4,0:0:0:0:
359,304,30294,1,0,0:0:0:0:
264,270,30528,1,8,0:0:0:0:
264,270,30763,1,0,0:0:0:0:
175,228,30997,2,0,P|145:191|140:150,1,74.9999952316285,4|0,0:0|0:0,0:0:0:0:
147,120,31349,2,0,P|180:87|248:91,1,112.499992847443,4|8,0:0|0:0,0:0:0:0:
334,109,31935,6,0,L|369:38,1,74.9999952316285,4|0,0:0|0:0,0:0:0:0:
418,101,32403,2,0,L|436:58,1,37.4999976158142,8|0,0:0|0:0,0:0:0:0:
444,227,32872,1,4,0:0:0:0:
293,273,33575,5,0,0:0:0:0:
293,273,33810,2,0,L|242:201,1,74.9999952316285,4|0,0:0|0:0,0:0:0:0:
311,170,34278,2,0,L|259:97,1,74.9999952316285,8|0,0:0|0:0,0:0:0:0:
201,141,34747,2,0,L|134:185,1,74.9999952316285,4|0,0:0|0:0,0:0:0:0:
106,206,35099,2,0,L|170:307,1,112.499992847443,4|8,0:0|0:0,0:0:0:0:
229,320,35685,5,4,0:0:0:0:
229,320,35919,1,8,0:0:0:0:
320,293,36153,1,4,0:0:0:0:
320,293,36388,1,8,0:0:0:0:
406,257,36622,1,4,0:0:0:0:
372,133,37091,1,12,0:0:0:0:
139,74,45060,5,4,0:0:0:0:
185,184,45528,1,8,0:0:0:0:
284,251,45997,1,4,0:0:0:0:
403,262,46466,2,0,P|451:217|446:158,1,99.9999936421713,8|0,0:0|0:0,0:0:0:0:
451,145,46935,5,4,0:0:0:0:
395,38,47403,1,8,0:0:0:0:
324,135,47872,1,4,0:0:0:0:
284,21,48341,2,0,L|183:20,1,74.9999952316285,8|0,0:0|0:0,0:0:0:0:
140,101,48810,5,4,0:0:0:0:
82,205,49278,1,8,0:0:0:0:
156,298,49747,1,4,0:0:0:0:
275,282,50216,2,0,P|362:241|387:255,1,99.9999936421713,8|0,0:0|0:0,0:0:0:0:
395,249,50685,5,4,0:0:0:0:
457,146,51153,1,8,0:0:0:0:
345,101,51622,2,0,L|296:48,2,49.9999968210856,4|4|4,0:0|0:0|0:0,0:0:0:0:
350,156,52091,2,0,L|269:203,1,74.9999952316285,8|0,0:0|0:0,0:0:0:0:
245,281,52560,6,0,P|191:258|165:212,1,74.9999952316285,4|0,0:0|0:0,0:0:0:0:
125,197,53028,2,0,P|175:179|198:143,1,74.9999952316285,8|0,0:0|0:0,0:0:0:0:
266,198,53497,2,0,P|281:146|322:126,1,74.9999952316285,4|0,0:0|0:0,0:0:0:0:
378,189,53966,2,0,P|428:162|452:106,1,99.9999936421713,8|0,0:0|0:0,0:0:0:0:
441,77,54435,6,0,B|395:80|395:80|366:118,1,74.9999952316285,4|0,0:0|0:0,0:0:0:0:
311,158,54903,2,0,B|296:111|296:111|246:115,1,74.9999952316285,8|0,0:0|0:0,0:0:0:0:
203,168,55372,2,0,B|204:225|204:225|245:270,1,74.9999952316285,4|0,0:0|0:0,0:0:0:0:
299,269,55841,2,0,L|390:260,2,74.9999952316285,8|0|4,0:0|0:0|0:0,0:0:0:0:
238,273,56544,5,0,0:0:0:0:
181,251,56778,2,0,P|150:209|151:160,1,74.9999952316285,8|0,0:0|0:0,0:0:0:0:
226,172,57247,2,0,P|277:179|325:138,1,74.9999952316285,4|0,0:0|0:0,0:0:0:0:
369,118,57716,2,0,P|401:193|439:224,1,99.9999936421713,8|0,0:0|0:0,0:0:0:0:
441,233,58185,5,8,0:0:0:0:
441,233,58419,1,0,0:0:0:0:
351,284,58653,1,8,0:0:0:0:
351,284,58888,1,0,0:0:0:0:
244,268,59122,2,0,P|277:206|268:174,1,74.9999952316285,8|0,0:0|0:0,0:0:0:0:
281,132,59591,2,0,P|175:142|144:190,1,149.999990463257,2|4,0:0|0:0,0:0:0:0:
131,250,60294,6,0,P|69:236|55:204,1,74.9999952316285,0|8,0:0|0:0,0:0:0:0:
121,153,60763,2,0,B|129:107|129:107|176:84,1,74.9999952316285,0|4,0:0|0:0,0:0:0:0:
229,135,61231,2,0,P|273:103|298:77,1,74.9999952316285,0|8,0:0|0:0,0:0:0:0:
344,150,61700,2,0,P|390:193|398:234,1,74.9999952316285,0|4,0:0|0:0,0:0:0:0:
312,288,62169,6,0,P|275:268|266:228,1,74.9999952316285,0|8,0:0|0:0,0:0:0:0:
178,270,62638,2,0,P|136:255|91:269,1,74.9999952316285,0|4,0:0|0:0,0:0:0:0:
153,170,63106,2,0,P|156:126|197:105,1,74.9999952316285,0|8,0:0|0:0,0:0:0:0:
253,82,63575,1,0,0:0:0:0:
343,77,63810,6,0,P|396:125|405:226,1,149.999990463257,4|8,0:0|0:0,0:0:0:0:
345,269,64513,1,0,0:0:0:0:
301,181,64747,2,0,P|250:151|138:178,1,149.999990463257,4|8,0:0|0:0,0:0:0:0:
96,229,65450,1,0,0:0:0:0:
179,286,65685,6,0,L|221:194,1,74.9999952316285,4|0,0:0|0:0,0:0:0:0:
134,209,66153,2,0,L|110:131,1,74.9999952316285,8|0,0:0|0:0,0:0:0:0:
194,150,66622,2,0,L|217:98,2,49.9999968210857,4|4|4,0:0|0:0|0:0,0:0:0:0:
130,98,67091,2,0,L|101:12,1,74.9999952316285,8|0,0:0|0:0,0:0:0:0:
196,27,67560,6,0,P|256:34|281:86,1,74.9999952316285,4|0,0:0|0:0,0:0:0:0:
297,133,68028,2,0,P|351:93|381:104,1,74.9999952316285,8|0,0:0|0:0,0:0:0:0:
406,173,68497,2,0,L|492:214,2,74.9999952316285,4|0|8,0:0|0:0|0:0,0:0:0:0:
327,197,69200,2,0,P|331:248|291:281,1,74.9999952316285,0|4,0:0|0:0,0:0:0:0:
225,278,69669,2,0,P|169:279|141:304,2,74.9999952316285,0|8|0,0:0|0:0|0:0,0:0:0:0:
301,305,70372,1,4,0:0:0:0:
387,292,70606,1,0,0:0:0:0:
440,233,70841,2,0,P|437:164|413:130,1,74.9999952316285,8|0,0:0|0:0,0:0:0:0:
432,80,71310,6,0,L|336:80,1,74.9999952316285,4|0,0:0|0:0,0:0:0:0:
368,160,71778,2,0,L|288:160,1,74.9999952316285,8|0,0:0|0:0,0:0:0:0:
304,240,72247,2,0,L|208:240,1,74.9999952316285,4|0,0:0|0:0,0:0:0:0:
240,320,72716,2,0,L|160:320,1,74.9999952316285,8|0,0:0|0:0,0:0:0:0:
103,260,73185,5,8,0:0:0:0:
103,260,73419,1,0,0:0:0:0:
180,186,73653,1,8,0:0:0:0:
180,186,73888,1,0,0:0:0:0:
281,214,74122,2,0,P|345:189|347:151,1,74.9999952316285,8|0,0:0|0:0,0:0:0:0:
365,84,74591,2,0,P|267:66|190:85,1,149.999990463257,2|4,0:0|0:0,0:0:0:0:
371,108,82091,6,0,L|430:61,2,49.9999968210857,4|0|0,0:0|0:0|0:0,0:0:0:0:
313,158,82559,2,0,P|258:224|179:234,1,149.999990463257,8|4,0:0|0:0,0:0:0:0:
97,183,83497,1,8,0:0:0:0:
196,78,83966,2,0,L|184:20,2,49.9999968210857,4|0|0,0:0|0:0|0:0,0:0:0:0:
223,153,84434,2,0,P|261:218|317:271,1,149.999990463257,8|4,0:0|0:0,0:0:0:0:
431,244,85372,2,0,L|463:152,1,74.9999952316285,8|0,0:0|0:0,0:0:0:0:
415,102,85841,6,0,L|451:45,2,49.9999968210857,4|0|0,0:0|0:0|0:0,0:0:0:0:
353,148,86309,2,0,B|284:143|284:143|249:224,1,149.999990463257,8|4,0:0|0:0,0:0:0:0:
332,291,87247,1,8,0:0:0:0:
224,336,87716,2,0,L|160:336,2,49.9999968210857,4|0|0,0:0|0:0|0:0,0:0:0:0:
224,256,88184,2,0,L|288:256,2,49.9999968210857,4|0|0,0:0|0:0|0:0,0:0:0:0:
224,176,88653,2,0,L|160:176,2,49.9999968210857,4|4|4,0:0|0:0|0:0,0:0:0:0:
224,96,89122,2,0,L|224:16,1,74.9999952316285,8|0,0:0|0:0,0:0:0:0:
320,48,89591,6,0,L|384:16,2,49.9999968210857,4|0|0,0:0|0:0|0:0,0:0:0:0:
288,121,90059,2,0,P|312:198|369:238,1,149.999990463257,8|4,0:0|0:0,0:0:0:0:
453,186,90997,1,8,0:0:0:0:
422,307,91466,2,0,L|474:325,2,49.9999968210857,4|0|0,0:0|0:0|0:0,0:0:0:0:
346,286,91934,2,0,P|303:231|225:247,1,149.999990463257,8|4,0:0|0:0,0:0:0:0:
86,207,92872,2,0,L|169:146,1,74.9999952316285,8|0,0:0|0:0,0:0:0:0:
214,108,93341,6,0,L|228:53,2,49.9999968210857,4|0|0,0:0|0:0|0:0,0:0:0:0:
208,190,93809,2,0,P|231:240|195:345,1,149.999990463257,8|4,0:0|0:0,0:0:0:0:
90,320,94747,1,8,0:0:0:0:
66,185,95216,2,0,P|105:133|111:98,1,74.9999952316285,8|0,0:0|0:0,0:0:0:0:
197,78,95684,2,0,P|249:63|281:91,1,74.9999952316285,8|0,0:0|0:0,0:0:0:0:
239,152,96153,2,0,P|251:205|298:247,1,74.9999952316285,8|0,0:0|0:0,0:0:0:0:
356,237,96622,2,0,P|386:150|349:71,1,149.999990463257,2|4,0:0|0:0,0:0:0:0:
302,44,97559,6,0,P|187:48|184:50,1,99.9999936421713,8|8,0:0|0:0,0:0:0:0:
161,73,98028,2,0,P|131:128|135:219,1,149.999990463257,4|8,0:0|0:0,0:0:0:0:
232,198,98966,1,4,0:0:0:0:
310,275,99434,2,0,P|354:205|405:193,1,99.9999936421713,8|8,0:0|0:0,0:0:0:0:
414,190,99903,2,0,B|466:176|466:176|471:102|511:69,1,149.999990463257,4|8,0:0|0:0,0:0:0:0:
494,85,100606,1,0,0:0:0:0:
398,70,100841,5,4,0:0:0:0:
295,66,101309,2,0,P|225:75|200:134,1,99.9999936421713,8|8,0:0|0:0,0:0:0:0:
184,140,101778,2,0,P|160:205|52:248,1,149.999990463257,4|8,0:0|0:0,0:0:0:0:
224,266,102716,2,0,L|265:298,2,49.9999968210857,4|0|0,0:0|0:0|0:0,0:0:0:0:
268,199,103184,2,0,L|316:233,2,49.9999968210857,4|0|0,0:0|0:0|0:0,0:0:0:0:
315,133,103653,2,0,L|372:172,2,49.9999968210857,4|4|4,0:0|0:0|0:0,0:0:0:0:
358,60,104122,2,0,P|296:38|262:51,1,74.9999952316285,8|0,0:0|0:0,0:0:0:0:
176,77,104591,6,0,L|116:104,2,49.9999968210857,4|0|0,0:0|0:0|0:0,0:0:0:0:
245,48,105059,2,0,P|264:128|241:177,1,99.9999936421713,8|8,0:0|0:0,0:0:0:0:
241,186,105528,2,0,P|181:173|107:253,1,149.999990463257,4|8,0:0|0:0,0:0:0:0:
241,309,106466,2,0,L|275:362,2,49.9999968210857,4|0|0,0:0|0:0|0:0,0:0:0:0:
212,240,106934,2,0,P|297:241|325:228,1,99.9999936421713,8|8,0:0|0:0,0:0:0:0:
357,210,107403,2,0,P|393:166|397:72,1,149.999990463257,4|8,0:0|0:0,0:0:0:0:
398,75,108106,1,0,0:0:0:0:
300,90,108341,6,0,L|238:106,2,49.9999968210857,4|0|0,0:0|0:0|0:0,0:0:0:0:
365,51,108809,2,0,P|444:65|453:111,1,99.9999936421713,8|8,0:0|0:0,0:0:0:0:
453,133,109278,2,0,P|435:198|441:283,1,149.999990463257,4|8,0:0|0:0,0:0:0:0:
317,284,110216,6,0,L|221:262,1,74.9999952316285,8|0,0:0|0:0,0:0:0:0:
243,267,110684,2,0,L|221:174,1,74.9999952316285,8|0,0:0|0:0,0:0:0:0:
226,194,111153,2,0,L|276:129,1,74.9999952316285,8|0,0:0|0:0,0:0:0:0:
271,134,111622,2,0,P|271:55|202:46,1,149.999990463257,2|8,0:0|0:0,0:0:0:0:
139,73,112325,5,8,0:0:0:0:
101,168,112559,1,8,0:0:0:0:
101,168,112794,1,8,0:0:0:0:
110,258,113028,2,0,P|170:308|174:334,1,74.9999952316285,8|8,0:0|0:0,0:0:0:0:
204,224,113497,2,0,P|226:179|271:166,1,74.9999952316285,8|8,0:0|0:0,0:0:0:0:
324,200,113966,2,0,L|351:236,3,24.9999984105428,8|0|0|8,0:0|0:0|0:0|0:0,0:0:0:0:
321,104,114434,2,0,L|347:81,3,24.9999984105428,8|0|0|8,0:0|0:0|0:0|0:0,0:0:0:0:
212,101,114903,6,0,P|169:57|131:70,1,74.9999952316285,8|8,0:0|0:0,0:0:0:0:
86,82,115372,2,0,P|55:136|80:184,1,74.9999952316285,8|8,0:0|0:0,0:0:0:0:
96,221,115841,1,8,0:0:0:0:
142,259,116075,1,0,0:0:0:0:
200,269,116309,1,8,0:0:0:0:
257,251,116544,1,8,0:0:0:0:
297,207,116778,6,0,P|324:171|386:176,1,74.9999952316285,8|8,0:0|0:0,0:0:0:0:
433,170,117247,2,0,P|437:109|399:80,1,74.9999952316285,8|8,0:0|0:0,0:0:0:0:
256,192,117716,12,4,119122,0:0:0:0:
131,161,119591,6,0,L|193:108,1,74.9999952316285,4|0,0:0|0:0,0:0:0:0:
256,175,120059,2,0,P|319:206|341:196,1,74.9999952316285,8|0,0:0|0:0,0:0:0:0:
352,115,120528,1,4,0:0:0:0:
429,169,120762,2,0,L|409:225,1,37.4999976158143
333,268,121231,1,0,0:0:0:0:
233,276,121466,6,0,P|194:249|180:211,1,74.9999952316285,4|0,0:0|0:0,0:0:0:0:
165,148,121934,1,8,0:0:0:0:
221,70,122169,2,0,L|264:93,1,37.4999976158143
346,90,123341,6,0,P|365:138|390:163,1,74.9999952316285,4|0,0:0|0:0,0:0:0:0:
368,246,123809,2,0,P|304:228|289:197,1,74.9999952316285,8|0,0:0|0:0,0:0:0:0:
258,140,124278,2,0,L|236:107,1,37.4999976158143,4|0,0:0|0:0,0:0:0:0:
142,104,124630,2,0,P|108:185|134:225,1,112.499992847443,4|8,0:0|0:0,0:0:0:0:
176,270,125216,6,0,L|220:288,1,37.4999976158143,4|0,0:0|0:0,0:0:0:0:
317,269,125684,2,0,P|371:234|386:207,1,74.9999952316285,8|0,0:0|0:0,0:0:0:0:
396,198,126036,2,0,P|406:147|384:85,1,112.499992847443,4|8,0:0|0:0,0:0:0:0:
387,90,126622,1,8,0:0:0:0:
294,48,127091,6,0,P|246:45|203:58,1,74.9999952316285,4|0,0:0|0:0,0:0:0:0:
221,128,127559,2,0,P|259:137|305:124,1,74.9999952316285,8|0,0:0|0:0,0:0:0:0:
354,93,128028,2,0,P|381:151|379:182,1,74.9999952316285,4|0,0:0|0:0,0:0:0:0:
380,210,128380,2,0,P|363:260|293:293,1,112.499992847443,4|8,0:0|0:0,0:0:0:0:
213,263,128966,2,0,L|238:212,1,37.4999976158143,4|0,0:0|0:0,0:0:0:0:
288,150,129434,2,0,P|261:118|216:103,1,74.9999952316285,8|0,0:0|0:0,0:0:0:0:
150,103,129903,1,4,0:0:0:0:
74,230,130606,5,0,0:0:0:0:
74,230,130841,2,0,L|161:285,1,74.9999952316285,4|0,0:0|0:0,0:0:0:0:
183,204,131309,2,0,L|281:214,1,74.9999952316285,8|0,0:0|0:0,0:0:0:0:
265,136,131778,2,0,L|349:108,1,74.9999952316285,4|0,0:0|0:0,0:0:0:0:
319,38,132247,2,0,L|387:-9,1,74.9999952316285,8|0,0:0|0:0,0:0:0:0:
458,39,132716,5,4,0:0:0:0:
449,95,132950,1,8,0:0:0:0:
442,154,133184,1,4,0:0:0:0:
435,213,133419,1,8,0:0:0:0:
426,272,133653,1,12,0:0:0:0:
277,274,134591,6,0,P|231:248|202:246,1,74.9999952316285,4|0,0:0|0:0,0:0:0:0:
276,178,135059,2,0,P|302:136|309:104,1,74.9999952316285,8|0,0:0|0:0,0:0:0:0:
384,163,135528,2,0,P|430:136|474:157,1,74.9999952316285,4|0,0:0|0:0,0:0:0:0:
413,64,135997,2,0,P|346:43|319:60,1,74.9999952316285,8|0,0:0|0:0,0:0:0:0:
266,81,136466,5,4,0:0:0:0:
217,103,136700,1,0,0:0:0:0:
172,126,136934,2,0,P|157:170|185:203,1,74.9999952316285,8|0,0:0|0:0,0:0:0:0:
201,227,137403,1,4,0:0:0:0:
384,271,138341,5,4,0:0:0:0:
384,271,138575,1,0,0:0:0:0:
384,271,138809,2,0,P|402:214|395:177,1,74.9999952316285,8|0,0:0|0:0,0:0:0:0:
325,163,139278,2,0,P|360:114|394:107,1,74.9999952316285,4|0,0:0|0:0,0:0:0:0:
409,100,139630,2,0,P|464:93|482:35,1,112.499992847443,4|8,0:0|0:0,0:0:0:0:
454,8,140216,5,4,0:0:0:0:
341,50,140684,5,4,0:0:0:0:
227,89,141153,5,4,0:0:0:0:
112,126,141622,5,4,0:0:0:0:
211,243,142091,5,4,0:0:0:0:
220,112,149591,6,0,P|273:91|301:117,1,74.9999952316285,4|0,0:0|0:0,0:0:0:0:
370,139,150059,2,0,L|421:169,2,37.4999976158143,8|0|0,0:0|0:0|0:0,0:0:0:0:
336,68,150528,2,0,L|363:28,2,37.4999976158143,4|0|0,0:0|0:0|0:0,0:0:0:0:
284,145,150997,2,0,P|254:190|252:232,1,74.9999952316285,8|0,0:0|0:0,0:0:0:0:
308,271,151466,6,0,P|257:295|217:288,1,74.9999952316285,4|0,0:0|0:0,0:0:0:0:
170,224,151934,2,0,P|161:152|189:118,1,112.499992847443,8|0,0:0|0:0,0:0:0:0:
210,101,152403,2,0,P|180:69|91:83,1,112.499992847443,4|0,0:0|0:0,0:0:0:0:
90,98,152872,2,0,P|63:145|66:173,1,74.9999952316285,8|0,0:0|0:0,0:0:0:0:
79,242,153341,6,0,P|96:291|144:318,1,74.9999952316285,4|0,0:0|0:0,0:0:0:0:
215,301,153809,2,0,L|252:293,2,37.4999976158143,8|0|0,0:0|0:0|0:0,0:0:0:0:
281,222,154278,2,0,L|326:206,2,37.4999976158143,4|0|0,0:0|0:0|0:0,0:0:0:0:
318,132,154747,2,0,P|391:138|406:162,1,74.9999952316285,8|0,0:0|0:0,0:0:0:0:
402,217,155216,6,0,P|399:261|431:293,1,74.9999952316285,4|0,0:0|0:0,0:0:0:0:
336,317,155684,2,0,L|285:310,2,37.4999976158143,8|0|0,0:0|0:0|0:0,0:0:0:0:
281,238,156153,2,0,P|276:178|301:167,2,49.9999968210857,4|4|4,0:0|0:0|0:0,0:0:0:0:
353,258,156622,2,0,L|433:324,2,74.9999952316285,8|0|4,0:0|0:0|0:0,0:0:0:0:
343,171,157325,5,0,0:0:0:0:
356,83,157559,2,0,L|391:49,2,37.4999976158143,8|0|0,0:0|0:0|0:0,0:0:0:0:
275,114,158028,2,0,L|232:88,2,37.4999976158143,4|0|0,0:0|0:0|0:0,0:0:0:0:
343,171,158497,2,0,L|288:236,1,74.9999952316285,8|0,0:0|0:0,0:0:0:0:
245,291,158966,6,0,P|223:245|231:212,1,74.9999952316285,4|0,0:0|0:0,0:0:0:0:
205,141,159434,2,0,P|158:100|85:108,1,112.499992847443,8|0,0:0|0:0,0:0:0:0:
74,117,159903,2,0,P|42:179|64:228,1,112.499992847443,4|0,0:0|0:0,0:0:0:0:
74,255,160372,2,0,L|101:301,3,37.4999976158143,8|0|0|0,0:0|0:0|0:0|0:0,0:0:0:0:
140,326,160841,6,0,P|206:317|229:303,1,74.9999952316285,4|0,0:0|0:0,0:0:0:0:
249,243,161309,2,0,L|262:202,2,37.4999976158143,8|0|0,0:0|0:0|0:0,0:0:0:0:
349,216,161778,2,0,L|386:183,2,37.4999976158143,4|0|0,0:0|0:0|0:0,0:0:0:0:
455,210,162247,2,0,P|465:147|447:114,1,74.9999952316285,8|0,0:0|0:0,0:0:0:0:
445,44,162716,6,0,L|374:85,1,74.9999952316285,8|0,0:0|0:0,0:0:0:0:
372,150,163184,2,0,L|304:83,1,74.9999952316285,8|0,0:0|0:0,0:0:0:0:
342,32,163653,2,0,L|242:77,1,74.9999952316285,8|0,0:0|0:0,0:0:0:0:
233,84,164005,2,0,P|196:122|197:185,1,112.499992847443,4|8,0:0|0:0,0:0:0:0:
249,258,164591,6,0,L|320:234,1,74.9999952316285,4|0,0:0|0:0,0:0:0:0:
414,210,165059,2,0,L|452:215,2,37.4999976158143,8|0|0,0:0|0:0|0:0,0:0:0:0:
326,135,165528,2,0,L|354:91,2,37.4999976158143,4|0|0,0:0|0:0|0:0,0:0:0:0:
238,172,165997,2,0,P|167:170|141:149,1,74.9999952316285,8|0,0:0|0:0,0:0:0:0:
117,103,166466,6,0,P|72:140|55:173,1,74.9999952316285,4|0,0:0|0:0,0:0:0:0:
66,240,166934,2,0,L|191:252,1,112.499992847443,8|0,0:0|0:0,0:0:0:0:
215,255,167403,2,0,L|358:268,1,112.499992847443,4|0,0:0|0:0,0:0:0:0:
362,268,167872,2,0,L|370:177,1,74.9999952316285,8|0,0:0|0:0,0:0:0:0:
374,106,168341,6,0,P|308:98|289:110,1,74.9999952316285,4|0,0:0|0:0,0:0:0:0:
236,150,168809,2,0,L|204:182,2,37.4999976158143,8|0|0,0:0|0:0|0:0,0:0:0:0:
312,209,169278,2,0,L|290:254,2,37.4999976158143,4|0|0,0:0|0:0|0:0,0:0:0:0:
358,126,169747,2,0,P|346:55|324:48,1,74.9999952316285,8|0,0:0|0:0,0:0:0:0:
254,47,170216,6,0,L|170:76,1,74.9999952316285,4|0,0:0|0:0,0:0:0:0:
144,142,170684,2,0,L|114:186,2,37.4999976158143,8|0|0,0:0|0:0|0:0,0:0:0:0:
239,152,171153,2,0,P|246:182|220:204,2,49.9999968210857,4|4|4,0:0|0:0|0:0,0:0:0:0:
196,80,171622,2,0,L|141:21,2,74.9999952316285,8|0|4,0:0|0:0|0:0,0:0:0:0:
254,145,172325,5,0,0:0:0:0:
320,208,172559,2,0,L|352:240,2,37.4999976158143,8|0|0,0:0|0:0|0:0,0:0:0:0:
254,145,173028,2,0,L|216:106,2,37.4999976158143,4|0|0,0:0|0:0|0:0,0:0:0:0:
344,123,173497,2,0,P|391:85|421:89,1,74.9999952316285,8|0,0:0|0:0,0:0:0:0:
442,163,173966,6,0,P|446:228|432:254,1,74.9999952316285,4|0,0:0|0:0,0:0:0:0:
371,286,174434,2,0,P|345:239|274:263,1,112.499992847443,8|0,0:0|0:0,0:0:0:0:
262,258,174903,2,0,P|221:193|174:216,1,112.499992847443,4|0,0:0|0:0,0:0:0:0:
159,172,175372,2,0,L|153:124,3,37.4999976158143,8|0|0|0,0:0|0:0|0:0|0:0,0:0:0:0:
147,84,175841,6,0,P|193:76|226:91,1,74.9999952316285,4|0,0:0|0:0,0:0:0:0:
296,110,176309,2,0,L|329:129,2,37.4999976158143,8|0|0,0:0|0:0|0:0,0:0:0:0:
302,205,176778,2,0,L|331:237,2,37.4999976158143,4|0|0,0:0|0:0|0:0,0:0:0:0:
392,163,177247,2,0,P|414:99|432:82,1,74.9999952316285,8|0,0:0|0:0,0:0:0:0:
476,36,177716,6,0,L|477:124,1,74.9999952316285,8|0,0:0|0:0,0:0:0:0:
476,192,178184,2,0,P|458:250|438:271,1,74.9999952316285,8|0,0:0|0:0,0:0:0:0:
381,308,178653,2,0,P|362:214|359:212,1,74.9999952316285,8|0,0:0|0:0,0:0:0:0:
362,201,179005,2,0,P|283:140|264:108,1,112.499992847443,4|8,0:0|0:0,0:0:0:0:
242,61,179591,1,4,0:0:0:0:
233,103,187091,6,0,P|162:139|150:208,1,149.999990463257,4|8,0:0|0:0,0:0:0:0:
254,269,188028,2,0,L|231:326,2,49.9999968210857,4|0|0,0:0|0:0|0:0,0:0:0:0:
345,259,188497,2,0,L|374:313,2,49.9999968210857,8|0|0,0:0|0:0|0:0,0:0:0:0:
418,199,188966,2,0,P|443:149|406:58,1,149.999990463257,4|8,0:0|0:0,0:0:0:0:
324,50,189903,2,0,L|266:63,2,49.9999968210857,4|0|0,0:0|0:0|0:0,0:0:0:0:
406,56,190372,2,0,P|389:113|363:134,1,74.9999952316285,8|0,0:0|0:0,0:0:0:0:
303,153,190841,6,0,P|254:125|140:148,1,149.999990463257,4|8,0:0|0:0,0:0:0:0:
149,300,191778,2,0,L|89:279,2,49.9999968210857,4|0|0,0:0|0:0|0:0,0:0:0:0:
128,208,192247,2,0,L|76:181,2,49.9999968210857,8|0|0,0:0|0:0|0:0,0:0:0:0:
222,211,192716,2,0,P|308:240|376:205,1,149.999990463257,4|8,0:0|0:0,0:0:0:0:
360,85,193653,2,0,L|343:58,5,24.9999984105428,4|0|0|0|0|0,0:0|0:0|0:0|0:0|0:0|0:0,0:0:0:0:
377,121,194122,2,0,L|416:199,1,74.9999952316285,8|0,0:0|0:0,0:0:0:0:
433,261,194591,6,0,P|374:283|288:258,1,149.999990463257,4|8,0:0|0:0,0:0:0:0:
267,158,195528,2,0,L|250:100,2,49.9999968210857,4|0|0,0:0|0:0|0:0,0:0:0:0:
295,235,195997,2,0,L|314:287,2,49.9999968210857,8|0|0,0:0|0:0|0:0,0:0:0:0:
267,158,196466,2,0,P|205:193|181:275,1,149.999990463257,4|8,0:0|0:0,0:0:0:0:
97,244,197403,2,0,L|56:288,2,49.9999968210857,4|0|0,0:0|0:0|0:0,0:0:0:0:
157,183,197872,2,0,P|198:138|204:104,1,74.9999952316285,8|0,0:0|0:0,0:0:0:0:
221,41,198341,6,0,P|306:38|362:106,1,149.999990463257,4|8,0:0|0:0,0:0:0:0:
397,200,199278,2,0,L|425:134,2,49.9999968210857,4|0|0,0:0|0:0|0:0,0:0:0:0:
332,256,199747,2,0,L|318:197,2,49.9999968210857,8|0|0,0:0|0:0|0:0,0:0:0:0:
341,338,200216,6,0,P|281:348|240:331,1,74.9999952316285,4|0,0:0|0:0,0:0:0:0:
258,259,200684,2,0,P|221:204|185:200,1,74.9999952316285,8|0,0:0|0:0,0:0:0:0:
295,160,201153,2,0,P|360:143|402:102,1,74.9999952316285,4|0,0:0|0:0,0:0:0:0:
406,52,201622,2,0,P|311:37|236:63,1,149.999990463257,8|4,0:0|0:0,0:0:0:0:
207,81,202247,6,0,L|155:119,1,49.9999968210857
119,144,202559,2,0,L|69:178,2,49.9999968210857,8|0|0,0:0|0:0|0:0,0:0:0:0:
201,160,203028,2,0,L|236:206,2,49.9999968210857,4|0|0,0:0|0:0|0:0,0:0:0:0:
207,82,203497,2,0,L|254:45,2,49.9999968210857,8|0|0,0:0|0:0|0:0,0:0:0:0:
129,66,203966,2,0,P|102:132|100:198,1,99.9999936421713,4|0,0:0|0:0,0:0:0:0:
98,227,204434,2,0,L|58:268,2,49.9999968210857,8|0|0,0:0|0:0|0:0,0:0:0:0:
173,272,204903,2,0,L|160:329,2,49.9999968210857,4|0|0,0:0|0:0|0:0,0:0:0:0:
261,280,205372,2,0,L|281:193,1,74.9999952316285,8|0,0:0|0:0,0:0:0:0:
297,128,205841,6,0,P|334:75|386:69,1,99.9999936421713,4|0,0:0|0:0,0:0:0:0:
438,68,206309,2,0,P|474:67|496:46,2,49.9999968210857,8|0|0,0:0|0:0|0:0,0:0:0:0:
438,67,206778,2,0,P|428:104|446:121,2,49.9999968210857,4|0|0,0:0|0:0|0:0,0:0:0:0:
439,67,207247,2,0,P|399:49|382:59,2,49.9999968210857,8|0|0,0:0|0:0|0:0,0:0:0:0:
439,67,207716,2,0,P|456:145|446:188,1,99.9999936421713,4|0,0:0|0:0,0:0:0:0:
433,222,208184,2,0,L|414:276,2,49.9999968210857,8|0|0,0:0|0:0|0:0,0:0:0:0:
373,168,208653,2,0,L|411:138,5,24.9999984105428,4|0|0|0|0|0,0:0|0:0|0:0|0:0|0:0|0:0,0:0:0:0:
338,194,209122,2,0,P|295:210|246:208,1,74.9999952316285,8|0,0:0|0:0,0:0:0:0:
189,208,209591,6,0,P|138:189|105:140,1,99.9999936421713,4|0,0:0|0:0,0:0:0:0:
105,74,210059,2,0,L|51:25,2,49.9999968210857,8|0|0,0:0|0:0|0:0,0:0:0:0:
188,77,210528,2,0,L|243:124,2,49.9999968210857,4|0|0,0:0|0:0|0:0,0:0:0:0:
145,143,210997,2,0,L|105:195,2,49.9999968210857,8|0|0,0:0|0:0|0:0,0:0:0:0:
224,104,211466,2,0,P|313:104|336:134,1,99.9999936421713,4|0,0:0|0:0,0:0:0:0:
349,146,211934,2,0,L|390:189,2,49.9999968210857,8|0|0,0:0|0:0|0:0,0:0:0:0:
311,224,212403,2,0,L|320:292,2,49.9999968210857,4|0|0,0:0|0:0|0:0,0:0:0:0:
226,249,212872,2,0,P|166:242|148:211,1,74.9999952316285,8|0,0:0|0:0,0:0:0:0:
112,152,213341,6,0,P|99:83|123:34,1,99.9999936421713,4|0,0:0|0:0,0:0:0:0:
192,74,213809,2,0,L|254:88,2,49.9999968210857,8|0|0,0:0|0:0|0:0,0:0:0:0:
198,161,214278,2,0,L|270:180,2,49.9999968210857,4|0|0,0:0|0:0|0:0,0:0:0:0:
204,248,214747,2,0,L|270:263,2,49.9999968210857,8|0|0,0:0|0:0|0:0,0:0:0:0:
117,238,215216,6,0,L|114:144,1,74.9999952316285,8|0,0:0|0:0,0:0:0:0:
166,99,215684,2,0,L|261:96,1,74.9999952316285,8|0,0:0|0:0,0:0:0:0:
308,143,216153,2,0,L|316:250,1,74.9999952316285,8|0,0:0|0:0,0:0:0:0:
264,278,216622,2,0,P|174:277|114:206,1,149.999990463257,2|8,0:0|0:0,0:0:0:0:
130,240,217325,5,8,0:0:0:0:
155,149,217559,1,8,0:0:0:0:
155,149,217794,1,8,0:0:0:0:
228,70,218028,2,0,P|279:87|302:118,1,74.9999952316285,8|8,0:0|0:0,0:0:0:0:
234,158,218497,2,0,P|226:228|201:244,1,74.9999952316285,8|8,0:0|0:0,0:0:0:0:
306,245,218966,5,8,0:0:0:0:
358,215,219200,1,8,0:0:0:0:
405,178,219434,1,8,0:0:0:0:
444,132,219669,1,8,0:0:0:0:
461,74,219903,2,0,P|409:44|376:51,1,74.9999952316285,8|8,0:0|0:0,0:0:0:0:
324,94,220372,2,0,P|273:123|237:115,1,74.9999952316285,8|8,0:0|0:0,0:0:0:0:
171,116,220841,6,0,L|159:75,3,24.9999984105428,8|0|0|8,0:0|0:0|0:0|0:0,0:0:0:0:
99,162,221309,2,0,L|58:141,3,24.9999984105428,8|0|0|8,0:0|0:0|0:0|0:0,0:0:0:0:
175,208,221778,2,0,L|210:285,1,74.9999952316285,8|8,0:0|0:0,0:0:0:0:
286,245,222247,2,0,L|247:164,1,74.9999952316285,8|8,0:0|0:0,0:0:0:0:
317,127,222716,5,8,0:0:0:0:
317,127,222950,1,8,0:0:0:0:
380,206,223184,1,8,0:0:0:0:
380,206,223419,1,8,0:0:0:0:
438,285,223653,2,0,P|384:314|349:310,1,74.9999952316285,8|4,0:0|0:0,0:0:0:0:
287,271,224122,1,12,0:0:0:0:
