osu file format v12

[General]
AudioFilename: Spooky Scary Skeletons (Remix) - Extended Mix.mp3
AudioLeadIn: 0
PreviewTime: -1
Countdown: 0
SampleSet: Normal
StackLeniency: 0.7
Mode: 0
LetterboxInBreaks: 1
WidescreenStoryboard: 0

[Editor]
DistanceSpacing: 0.8
BeatDivisor: 3
GridSize: 32
TimelineZoom: 1

[Metadata]
Title:Spooky Scary Skeletons
TitleUnicode:Spooky Scary Skeletons
Artist:Living Tombstone
ArtistUnicode:Living Tombstone
Creator:floofyshmoofer
Version:Insane
Source:
Tags:spooky scary skeletons skeleton tombstone
BeatmapID:411057
BeatmapSetID:169753

[Difficulty]
HPDrainRate:7
CircleSize:4
OverallDifficulty:6
ApproachRate:9
SliderMultiplier:2.19999990463257
SliderTickRate:1

[Events]
//Background and Video events
0,0,"Background.jpg",0,0
//Break Periods
2,7760,14460
2,37291,44460
2,75259,81491
2,142291,148991
2,179791,186491
//Storyboard Layer 0 (Background)
//Storyboard Layer 1 (Fail)
//Storyboard Layer 2 (Pass)
//Storyboard Layer 3 (Foreground)
//Storyboard Sound Samples
//Background Colour Transformations
3,100,91,91,91

[TimingPoints]
60,468.75,4,1,0,50,1,0
80685,468.75,3,1,0,50,1,0
82091,468.75,4,1,0,50,1,0

[Colours]
Combo1 : 53,53,53
Combo2 : 126,142,72
Combo3 : 180,180,180
Combo4 : 55,28,0

[HitObjects]
288,96,60,6,0,L|352:96,3,36.6666650772095,8|0|0|8,0:0|0:0|0:0|0:0,0:0:0:0:
384,224,450,1,0,0:0:0:0:
352,224,528,2,0,L|288:224,3,36.6666650772095,8|0|0|8,0:0|0:0|0:0|0:0,0:0:0:0:
128,128,919,1,0,0:0:0:0:
96,160,997,2,0,L|32:160,2,36.6666650772095,8|0|0,0:0|0:0|0:0,0:0:0:0:
160,160,1231,2,0,L|224:160,2,36.6666650772095,8|0|0,0:0|0:0|0:0,0:0:0:0:
128,192,1466,5,8,0:0:0:0:
96,224,1544,1,0,0:0:0:0:
64,256,1622,1,0,0:0:0:0:
32,288,1700,1,8,0:0:0:0:
224,288,1935,6,0,L|256:256,2,36.6666650772095,8|0|0,0:0|0:0|0:0,0:0:0:0:
256,224,2169,2,0,L|224:192,2,36.6666650772095,8|0|0,0:0|0:0|0:0,0:0:0:0:
320,263,2403,2,0,L|368:290,1,36.6666650772095,2|0,0:0|0:0,0:0:0:0:
342,218,2560,2,8,L|387:229,1,36.6666650772095,2|0,0:0|0:0,0:0:0:0:
341,165,2716,2,8,L|383:164,1,36.6666650772095,2|0,0:0|0:0,0:0:0:0:
320,96,2872,5,4,0:0:0:0:
32,160,3106,1,4,0:0:0:0:
480,288,3341,1,4,0:0:0:0:
192,352,3575,1,4,0:0:0:0:
192,224,3810,5,8,0:0:0:0:
192,224,3888,1,0,0:0:0:0:
192,224,3966,1,0,0:0:0:0:
192,224,4044,1,8,0:0:0:0:
416,128,4278,1,8,0:0:0:0:
416,128,4356,1,0,0:0:0:0:
416,128,4435,1,0,0:0:0:0:
416,128,4513,1,8,0:0:0:0:
384,288,4747,6,0,L|416:320,2,36.6666650772095,8|0|0,0:0|0:0|0:0,0:0:0:0:
320,288,4981,2,0,L|288:320,2,36.6666650772095,8|0|0,0:0|0:0|0:0,0:0:0:0:
320,224,5216,2,0,L|288:192,2,36.6666650772095,8|0|0,0:0|0:0|0:0,0:0:0:0:
384,224,5450,2,0,L|416:192,2,36.6666650772095,8|0|0,0:0|0:0|0:0,0:0:0:0:
384,288,5685,5,8,0:0:0:0:
119,94,5919,1,4,0:0:0:0:
389,131,6153,1,8,0:0:0:0:
83,241,6388,1,4,0:0:0:0:
262,41,6622,1,12,0:0:0:0:
223,346,6856,1,12,0:0:0:0:
256,192,7091,12,12,7560,0:0:0:0:
96,64,15060,5,4,0:0:0:0:
96,160,15294,1,8,0:0:0:0:
96,256,15528,1,4,0:0:0:0:
96,352,15763,1,8,0:0:0:0:
192,352,15997,6,0,L|256:288,1,54.9999976158142,4|4,0:0|0:0,0:0:0:0:
230,313,16231,2,0,L|288:256,1,54.9999976158142,8|4,0:0|0:0,0:0:0:0:
416,288,16583,1,4,0:0:0:0:
416,288,16700,1,8,0:0:0:0:
416,160,16935,5,4,0:0:0:0:
320,96,17169,1,8,0:0:0:0:
192,96,17403,2,0,L|64:96,2,109.999995231628,4|8|4,0:0|0:0|0:0,0:0:0:0:
284,163,18106,5,8,0:0:0:0:
276,205,18224,1,0,0:0:0:0:
249,240,18341,1,4,0:0:0:0:
213,257,18458,1,0,0:0:0:0:
167,256,18575,1,8,0:0:0:0:
72,207,18810,5,4,0:0:0:0:
124,106,19044,1,8,0:0:0:0:
239,75,19278,2,0,L|298:74,1,54.9999976158142,4|0,0:0|0:0,0:0:0:0:
444,128,19747,1,4,0:0:0:0:
331,195,19981,1,8,0:0:0:0:
331,195,20099,1,4,0:0:0:0:
425,268,20450,5,4,0:0:0:0:
425,268,20567,1,4,0:0:0:0:
425,268,20685,1,4,0:0:0:0:
284,268,20919,1,8,0:0:0:0:
426,180,21153,1,4,0:0:0:0:
279,180,21388,1,8,0:0:0:0:
427,93,21622,5,4,0:0:0:0:
188,216,21856,1,12,0:0:0:0:
486,345,22091,1,12,0:0:0:0:
115,127,22560,6,0,P|120:49|240:30,1,109.999995231628,4|8,0:0|0:0,0:0:0:0:
200,99,23028,2,0,P|323:99|335:49,1,109.999995231628,4|8,0:0|0:0,0:0:0:0:
371,86,23497,2,0,P|429:184|421:203,1,109.999995231628,4|8,0:0|0:0,0:0:0:0:
411,246,23810,2,0,P|311:179|293:183,1,109.999995231628,4|4,0:0|0:0,0:0:0:0:
253,180,24200,2,0,L|191:218,1,54.9999976158142,8|0,0:0|0:0,0:0:0:0:
142,254,24435,6,0,P|195:308|255:295,2,109.999995231628,4|8|4,0:0|0:0|0:0,0:0:0:0:
134,177,25138,2,0,L|135:117,1,54.9999976158142,8|4,0:0|0:0,0:0:0:0:
326,68,25606,1,8,0:0:0:0:
421,125,25841,1,4,0:0:0:0:
464,221,26075,1,8,0:0:0:0:
466,263,26192,1,4,0:0:0:0:
464,304,26310,1,4,0:0:0:0:
351,310,26544,5,8,0:0:0:0:
269,234,26778,1,4,0:0:0:0:
355,159,27013,1,8,0:0:0:0:
253,81,27247,2,0,P|156:124|151:164,1,109.999995231628,4|8,0:0|0:0,0:0:0:0:
160,116,27599,2,0,P|94:127|100:223,1,164.999992847443
88,213,28067,5,4,0:0:0:0:
88,213,28185,1,4,0:0:0:0:
316,309,28419,1,8,0:0:0:0:
475,158,28653,1,4,0:0:0:0:
251,73,28888,1,8,0:0:0:0:
256,192,29122,12,0,29591,0:0:0:0:
96,96,29825,5,0,0:0:0:0:
256,32,30060,1,4,0:0:0:0:
256,32,30294,1,8,0:0:0:0:
320,160,30528,1,4,0:0:0:0:
320,160,30763,1,8,0:0:0:0:
192,224,30997,2,0,L|288:320,1,109.999995231628,4|8,0:0|0:0,0:0:0:0:
269,301,31349,1,4,0:0:0:0:
333,246,31700,1,0,0:0:0:0:
384,192,31935,6,0,L|320:128,1,54.9999976158142,4|4,0:0|0:0,0:0:0:0:
256,64,32169,2,0,L|192:128,1,54.9999976158142,8|4,0:0|0:0,0:0:0:0:
128,192,32403,2,0,L|192:256,1,54.9999976158142,4|4,0:0|0:0,0:0:0:0:
256,320,32638,2,0,L|320:256,1,54.9999976158142,8|4,0:0|0:0,0:0:0:0:
443,183,32872,6,0,P|333:151|310:206,1,109.999995231628,4|8,0:0|0:0,0:0:0:0:
312,225,33341,2,0,P|251:132|284:98,1,109.999995231628,4|8,0:0|0:0,0:0:0:0:
239,68,33810,1,4,0:0:0:0:
194,72,33927,1,0,0:0:0:0:
151,91,34044,1,8,0:0:0:0:
120,123,34161,1,0,0:0:0:0:
96,167,34278,1,4,0:0:0:0:
90,217,34395,1,0,0:0:0:0:
94,262,34513,1,8,0:0:0:0:
120,305,34630,1,0,0:0:0:0:
170,327,34747,6,0,L|185:264,1,54.9999976158142,4|4,0:0|0:0,0:0:0:0:
248,333,34981,2,0,L|241:259,1,54.9999976158142,8|4,0:0|0:0,0:0:0:0:
323,321,35216,2,0,L|297:245,1,54.9999976158142,4|4,0:0|0:0,0:0:0:0:
393,293,35450,2,0,L|361:243,1,54.9999976158142,8|4,0:0|0:0,0:0:0:0:
451,250,35685,6,0,L|395:193,2,54.9999976158142,4|4|8,0:0|0:0|0:0,0:0:0:0:
288,128,36153,2,0,L|352:64,2,54.9999976158142,4|4|8,0:0|0:0|0:0,0:0:0:0:
128,288,36622,1,4,0:0:0:0:
416,320,36856,1,12,0:0:0:0:
192,32,37091,1,12,0:0:0:0:
128,288,45060,5,4,0:0:0:0:
416,224,45528,1,8,0:0:0:0:
128,160,45997,1,4,0:0:0:0:
416,96,46466,1,8,0:0:0:0:
288,32,46778,1,2,0:0:0:0:
256,96,46935,5,4,0:0:0:0:
352,256,47403,1,8,0:0:0:0:
96,256,47872,1,4,0:0:0:0:
139,102,48341,2,8,L|156:178,1,54.9999976158142,8|8,0:0|0:0,0:0:0:0:
161,202,48575,1,4,0:0:0:0:
256,313,48810,5,4,0:0:0:0:
426,153,49278,1,8,0:0:0:0:
128,26,49747,1,4,0:0:0:0:
243,134,50216,1,8,0:0:0:0:
133,285,50528,1,2,0:0:0:0:
85,217,50685,5,4,0:0:0:0:
340,253,51153,1,8,0:0:0:0:
319,61,51622,1,4,0:0:0:0:
259,62,51778,1,4,0:0:0:0:
197,63,51935,1,4,0:0:0:0:
135,65,52091,2,0,L|136:185,1,109.999995231628,8|8,0:0|0:0,0:0:0:0:
137,270,52560,5,4,0:0:0:0:
189,193,52794,1,0,0:0:0:0:
268,148,53028,1,8,0:0:0:0:
371,143,53263,1,0,0:0:0:0:
466,172,53497,2,0,L|561:239,2,109.999995231628,4|0|8,0:0|0:0|0:0,0:0:0:0:
418,142,54122,1,4,0:0:0:0:
369,105,54278,1,4,0:0:0:0:
320,64,54435,5,4,0:0:0:0:
224,64,54669,1,0,0:0:0:0:
128,64,54903,1,8,0:0:0:0:
32,64,55138,1,0,0:0:0:0:
32,288,55372,5,4,0:0:0:0:
128,288,55606,1,0,0:0:0:0:
224,288,55841,2,0,L|352:288,1,109.999995231628,8|0,0:0|0:0,0:0:0:0:
416,288,56310,5,4,0:0:0:0:
352,224,56544,1,0,0:0:0:0:
416,160,56778,1,8,0:0:0:0:
352,96,57013,1,0,0:0:0:0:
160,96,57247,1,4,0:0:0:0:
224,160,57481,1,0,0:0:0:0:
160,224,57716,1,8,0:0:0:0:
224,288,57950,1,0,0:0:0:0:
347,291,58185,5,8,0:0:0:0:
346,241,58302,1,0,0:0:0:0:
333,192,58419,1,0,0:0:0:0:
301,147,58536,1,0,0:0:0:0:
271,109,58653,2,0,L|218:71,3,54.9999976158142,8|0|0|0,0:0|0:0|0:0|0:0,0:0:0:0:
186,66,59122,1,8,0:0:0:0:
129,73,59239,1,0,0:0:0:0:
88,112,59356,1,0,0:0:0:0:
80,161,59474,1,4,0:0:0:0:
81,223,59591,2,8,B|111:300|194:323|275:302,1,219.999990463257,10|4,0:0|0:0,0:0:0:0:
340,259,60294,5,0,0:0:0:0:
401,189,60528,2,0,P|346:154|288:183,1,109.999995231628,8|0,0:0|0:0,0:0:0:0:
234,224,60997,2,0,L|145:307,2,109.999995231628,4|0|8,0:0|0:0|0:0,0:0:0:0:
301,150,61700,1,0,0:0:0:0:
360,78,61935,6,0,P|305:46|243:79,1,109.999995231628,4|0,0:0|0:0,0:0:0:0:
218,126,62403,2,0,P|171:89|194:19,1,109.999995231628,8|0,0:0|0:0,0:0:0:0:
233,201,62872,2,0,P|156:211|113:154,1,109.999995231628,4|0,0:0|0:0,0:0:0:0:
79,130,63341,1,8,0:0:0:0:
234,331,63575,1,4,0:0:0:0:
384,224,63810,6,0,L|512:224,1,109.999995231628,4|0,0:0|0:0,0:0:0:0:
384,128,64278,2,0,L|224:128,1,109.999995231628,8|0,0:0|0:0,0:0:0:0:
192,192,64747,2,0,L|224:256,2,54.9999976158142,4|0|0,0:0|0:0|0:0,0:0:0:0:
155,110,65216,2,0,P|219:46|251:78,1,109.999995231628,8|0,0:0|0:0,0:0:0:0:
319,66,65685,5,4,0:0:0:0:
239,125,65919,1,0,0:0:0:0:
226,231,66153,1,8,0:0:0:0:
310,322,66388,1,0,0:0:0:0:
429,330,66622,2,0,L|515:331,2,73.333330154419,4|4|4,0:0|0:0|0:0,0:0:0:0:
377,218,67091,2,0,L|439:120,2,109.999995231628,8|0|4,0:0|0:0|0:0,0:0:0:0:
377,218,67677,5,0,0:0:0:0:
377,218,67794,1,0,0:0:0:0:
139,158,68028,1,8,0:0:0:0:
139,158,68145,1,0,0:0:0:0:
139,158,68263,1,0,0:0:0:0:
329,64,68497,1,4,0:0:0:0:
329,64,68614,1,0,0:0:0:0:
329,64,68731,1,0,0:0:0:0:
189,313,68966,2,0,P|126:340|85:290,1,109.999995231628,8|0,0:0|0:0,0:0:0:0:
38,198,69435,5,4,0:0:0:0:
38,159,69552,1,0,0:0:0:0:
37,124,69669,1,0,0:0:0:0:
264,161,69903,1,8,0:0:0:0:
292,185,70020,1,0,0:0:0:0:
318,206,70138,1,0,0:0:0:0:
131,274,70372,1,4,0:0:0:0:
161,243,70489,1,0,0:0:0:0:
162,203,70606,1,0,0:0:0:0:
187,45,70841,2,0,P|264:30|296:63,1,109.999995231628,8|4,0:0|0:0,0:0:0:0:
415,147,71310,6,0,L|463:212,2,54.9999976158142,4|0|0,0:0|0:0|0:0,0:0:0:0:
259,303,71778,1,8,0:0:0:0:
302,287,71895,1,0,0:0:0:0:
342,272,72013,1,0,0:0:0:0:
82,225,72247,2,0,L|62:163,2,54.9999976158142,4|0|0,0:0|0:0|0:0,0:0:0:0:
270,70,72716,1,8,0:0:0:0:
233,85,72833,1,0,0:0:0:0:
196,100,72950,1,0,0:0:0:0:
32,32,73185,5,8,0:0:0:0:
128,96,73419,1,0,0:0:0:0:
224,160,73653,1,8,0:0:0:0:
352,224,73888,1,0,0:0:0:0:
480,288,74122,1,8,0:0:0:0:
480,160,74356,2,0,L|406:113,1,54.9999976158142,4|4,0:0|0:0,0:0:0:0:
433,130,74591,2,0,P|311:177|341:271,1,219.999990463257,2|4,0:0|0:0,0:0:0:0:
130,286,82091,5,4,0:0:0:0:
129,219,82247,1,0,0:0:0:0:
129,151,82403,1,0,0:0:0:0:
131,84,82559,2,0,P|221:101|271:163,1,146.666660308838,8|8,0:0|0:0,0:0:0:0:
298,193,83028,1,4,0:0:0:0:
358,231,83184,1,0,0:0:0:0:
426,218,83341,1,0,0:0:0:0:
473,166,83497,2,0,L|497:73,2,73.333330154419,8|0|0,0:0|0:0|0:0,0:0:0:0:
486,242,83966,5,4,0:0:0:0:
453,303,84122,1,0,0:0:0:0:
391,339,84278,1,0,0:0:0:0:
315,341,84434,2,0,P|273:269|177:260,1,146.666660308838,8|8,0:0|0:0,0:0:0:0:
146,253,84903,1,4,0:0:0:0:
218,252,85059,1,0,0:0:0:0:
146,253,85216,1,0,0:0:0:0:
72,255,85372,2,0,L|-47:256,2,109.999995231628,8|0|0,0:0|0:0|0:0,0:0:0:0:
126,206,85997,5,4,0:0:0:0:
151,137,86153,1,0,0:0:0:0:
157,64,86309,2,0,L|313:64,1,146.666660308838,8|8,0:0|0:0,0:0:0:0:
374,74,86778,2,0,L|436:138,1,73.333330154419,4|0,0:0|0:0,0:0:0:0:
425,126,87091,2,0,L|356:190,1,73.333330154419,0|8,0:0|0:0,0:0:0:0:
371,176,87403,2,0,L|427:227,1,73.333330154419
425,225,87716,6,0,L|364:284,1,73.333330154419,4|0,0:0|0:0,0:0:0:0:
305,294,88028,1,4,0:0:0:0:
229,277,88184,2,0,L|163:243,1,73.333330154419,8|0,0:0|0:0,0:0:0:0:
113,193,88497,1,4,0:0:0:0:
96,126,88653,2,0,L|96:50,2,73.333330154419,4|4|4,0:0|0:0|0:0,0:0:0:0:
99,216,89122,1,8,0:0:0:0:
97,303,89356,1,2,0:0:0:0:
201,306,89591,5,4,0:0:0:0:
245,245,89747,1,0,0:0:0:0:
288,185,89903,1,0,0:0:0:0:
331,123,90059,2,0,P|403:94|436:148,1,146.666660308838,8|8,0:0|0:0,0:0:0:0:
437,213,90528,1,4,0:0:0:0:
393,273,90684,1,0,0:0:0:0:
351,210,90841,1,0,0:0:0:0:
313,274,90997,1,8,0:0:0:0:
269,210,91153,1,0,0:0:0:0:
231,274,91309,1,0,0:0:0:0:
186,210,91466,6,0,P|168:165|108:159,1,73.333330154419,4|0,0:0|0:0,0:0:0:0:
78,156,91778,1,0,0:0:0:0:
225,138,91934,2,0,P|167:83|72:127,1,146.666660308838,8|8,0:0|0:0,0:0:0:0:
36,120,92403,2,0,L|-31:156,2,73.333330154419,4|0|0,0:0|0:0|0:0,0:0:0:0:
113,87,92872,2,0,L|242:87,1,109.999995231628,8|2,0:0|0:0,0:0:0:0:
316,88,93341,5,4,0:0:0:0:
316,88,93497,1,0,0:0:0:0:
316,88,93653,1,0,0:0:0:0:
316,88,93809,2,0,P|256:141|283:189,1,146.666660308838,8|8,0:0|0:0,0:0:0:0:
283,190,94278,1,4,0:0:0:0:
363,189,94434,1,0,0:0:0:0:
404,259,94591,1,0,0:0:0:0:
363,329,94747,1,8,0:0:0:0:
283,329,94903,1,0,0:0:0:0:
242,259,95059,1,0,0:0:0:0:
200,185,95216,6,0,L|291:97,1,109.999995231628,8|0,0:0|0:0,0:0:0:0:
227,51,95684,2,0,L|120:152,1,109.999995231628,8|0,0:0|0:0,0:0:0:0:
91,177,96153,2,0,L|161:266,1,109.999995231628,8|0,0:0|0:0,0:0:0:0:
214,325,96622,2,0,P|211:254|357:157,1,219.999990463257,2|4,0:0|0:0,0:0:0:0:
369,139,97247,5,0,0:0:0:0:
253,39,97403,1,0,0:0:0:0:
151,140,97559,2,0,P|229:112|266:156,1,146.666660308838,8|8,0:0|0:0,0:0:0:0:
286,217,98028,1,4,0:0:0:0:
216,246,98184,1,0,0:0:0:0:
143,235,98341,1,0,0:0:0:0:
123,308,98497,1,8,0:0:0:0:
227,321,98653,1,0,0:0:0:0:
321,282,98809,1,0,0:0:0:0:
392,193,98966,6,0,L|416:118,2,73.333330154419,4|0|0,0:0|0:0|0:0,0:0:0:0:
371,258,99434,2,0,P|320:175|251:159,1,146.666660308838,8|8,0:0|0:0,0:0:0:0:
205,155,99903,1,4,0:0:0:0:
205,155,100059,1,0,0:0:0:0:
205,155,100216,1,0,0:0:0:0:
205,155,100372,2,0,L|205:273,1,109.999995231628,8|2,0:0|0:0,0:0:0:0:
204,335,100841,5,4,0:0:0:0:
138,287,100997,1,0,0:0:0:0:
105,213,101153,1,0,0:0:0:0:
119,130,101309,2,0,P|175:58|263:49,1,146.666660308838
315,44,101778,1,4,0:0:0:0:
380,91,101934,1,0,0:0:0:0:
413,165,102091,1,0,0:0:0:0:
405,245,102247,1,8,0:0:0:0:
357,310,102403,1,0,0:0:0:0:
284,343,102559,1,0,0:0:0:0:
201,343,102716,6,0,L|118:342,1,73.333330154419,4|0,0:0|0:0,0:0:0:0:
129,268,103028,2,0,L|207:270,1,73.333330154419,4|0,0:0|0:0,0:0:0:0:
208,197,103341,2,0,L|111:194,1,73.333330154419,8|0,0:0|0:0,0:0:0:0:
137,117,103653,1,4,0:0:0:0:
216,118,103809,1,0,0:0:0:0:
295,118,103966,1,4,0:0:0:0:
373,121,104122,2,0,P|325:197|274:196,1,109.999995231628,8|2,0:0|0:0,0:0:0:0:
230,199,104591,6,0,L|134:199,1,73.333330154419,4|0,0:0|0:0,0:0:0:0:
81,198,104903,1,0,0:0:0:0:
77,280,105059,2,0,P|145:233|154:165,1,146.666660308838,8|8,0:0|0:0,0:0:0:0:
160,103,105528,1,4,0:0:0:0:
214,51,105684,1,0,0:0:0:0:
289,52,105841,1,0,0:0:0:0:
341,108,105997,2,0,L|389:167,2,73.333330154419,8|0|0,0:0|0:0|0:0,0:0:0:0:
321,33,106466,5,4,0:0:0:0:
399,48,106622,1,0,0:0:0:0:
454,104,106778,1,0,0:0:0:0:
457,188,106934,2,0,P|402:129|337:107,1,146.666660308838,8|8,0:0|0:0,0:0:0:0:
261,100,107403,5,4,0:0:0:0:
261,100,107559,1,0,0:0:0:0:
261,100,107716,1,0,0:0:0:0:
206,173,107872,2,0,L|340:174,1,109.999995231628,8|2,0:0|0:0,0:0:0:0:
320,256,108341,6,0,L|256:256,1,36.6666650772095,4|0,0:0|0:0,0:0:0:0:
283,256,108497,2,0,L|224:256,1,36.6666650772095
246,256,108653,2,0,L|192:256,1,36.6666650772095
210,256,108809,2,0,P|145:202|173:134,1,146.666660308838,8|8,0:0|0:0,0:0:0:0:
192,96,109278,2,0,L|224:64,1,36.6666650772095,4|0,0:0|0:0,0:0:0:0:
217,70,109434,2,0,L|256:32,1,36.6666650772095
243,44,109591,2,0,L|288:0,1,36.6666650772095
269,18,109747,2,0,P|332:53|331:125,1,109.999995231628,8|2,0:0|0:0,0:0:0:0:
256,192,110216,12,4,111622,0:0:0:0:
138,134,112091,6,0,L|170:102,3,36.6666650772095,8|0|0|8,0:0|0:0|0:0|0:0,0:0:0:0:
362,123,112481,1,0,0:0:0:0:
385,158,112559,2,0,L|418:200,3,36.6666650772095,8|0|0|8,0:0|0:0|0:0|0:0,0:0:0:0:
266,291,112950,5,0,0:0:0:0:
256,245,113028,2,0,L|244:202,2,36.6666650772095,8|0|0,0:0|0:0|0:0,0:0:0:0:
215,263,113262,1,8,0:0:0:0:
177,282,113341,1,0,0:0:0:0:
136,303,113419,1,0,0:0:0:0:
106,322,113497,2,0,L|69:347,2,36.6666650772095,8|0|0,0:0|0:0|0:0,0:0:0:0:
110,279,113731,2,0,L|110:223,2,36.6666650772095,8|0|0,0:0|0:0|0:0,0:0:0:0:
72,292,113966,5,8,0:0:0:0:
72,292,114044,1,0,0:0:0:0:
72,292,114122,1,0,0:0:0:0:
72,292,114200,1,8,0:0:0:0:
61,154,114434,1,8,0:0:0:0:
61,154,114512,1,0,0:0:0:0:
61,154,114591,1,0,0:0:0:0:
61,154,114669,1,8,0:0:0:0:
156,118,114903,5,8,0:0:0:0:
318,118,115137,1,8,0:0:0:0:
313,312,115372,1,8,0:0:0:0:
146,313,115606,1,8,0:0:0:0:
224,218,115841,6,0,L|224:169,3,36.6666650772095,8|0|0|8,0:0|0:0|0:0|0:0,0:0:0:0:
225,49,116231,1,0,0:0:0:0:
263,48,116309,2,0,L|322:47,3,36.6666650772095,8|0|0|8,0:0|0:0|0:0|0:0,0:0:0:0:
421,105,116700,1,0,0:0:0:0:
461,129,116778,6,0,L|497:153,2,36.6666650772095,8|0|0,0:0|0:0|0:0,0:0:0:0:
427,146,117012,2,0,L|436:193,2,36.6666650772095,8|0|0,0:0|0:0|0:0,0:0:0:0:
381,133,117247,2,0,L|335:168,2,36.6666650772095,8|0|0,0:0|0:0|0:0,0:0:0:0:
386,91,117481,2,0,L|342:66,2,36.6666650772095,8|0|0,0:0|0:0|0:0,0:0:0:0:
280,143,117716,5,8,0:0:0:0:
280,143,117794,1,0,0:0:0:0:
280,143,117872,1,0,0:0:0:0:
280,143,117950,1,4,0:0:0:0:
280,143,118028,1,0,0:0:0:0:
280,143,118106,1,0,0:0:0:0:
233,203,118184,5,8,0:0:0:0:
233,203,118262,1,0,0:0:0:0:
233,203,118341,1,0,0:0:0:0:
233,203,118419,1,4,0:0:0:0:
233,203,118497,1,0,0:0:0:0:
233,203,118575,1,0,0:0:0:0:
186,263,118653,5,8,0:0:0:0:
91,149,118887,1,4,0:0:0:0:
256,192,119122,12,0,119591,0:0:0:0:
377,310,120059,6,0,P|425:263|424:203,1,109.999995231628,8|0,0:0|0:0,0:0:0:0:
422,143,120528,2,0,P|361:188|311:145,1,109.999995231628,4|0,0:0|0:0,0:0:0:0:
263,126,120880,2,0,P|206:230|234:293,1,164.999992847443,4|8,0:0|0:0,0:0:0:0:
141,170,121466,2,0,P|115:112|41:132,1,109.999995231628,4|0,0:0|0:0,0:0:0:0:
141,170,121934,2,0,P|186:241|226:238,1,109.999995231628,8|0,0:0|0:0,0:0:0:0:
287,245,122403,2,0,P|230:136|303:63,1,219.999990463257,4|8,0:0|0:0,0:0:0:0:
366,60,123106,1,0,0:0:0:0:
366,60,123223,1,0,0:0:0:0:
366,60,123341,6,0,P|417:131|406:183,1,109.999995231628,4|0,0:0|0:0,0:0:0:0:
396,238,123809,2,0,P|396:297|456:310,2,109.999995231628,8|0|0,0:0|0:0|0:0,0:0:0:0:
396,238,124395,2,0,P|312:235|223:196,1,164.999992847443,4|8,0:0|0:0,0:0:0:0:
161,141,124981,1,0,0:0:0:0:
135,173,125098,1,0,0:0:0:0:
132,212,125216,1,4,0:0:0:0:
154,253,125333,1,0,0:0:0:0:
422,335,125684,5,8,0:0:0:0:
276,63,125919,1,4,0:0:0:0:
276,63,126036,1,8,0:0:0:0:
282,195,126387,1,4,0:0:0:0:
282,195,126622,1,12,0:0:0:0:
64,64,127091,5,4,0:0:0:0:
128,128,127325,1,0,0:0:0:0:
64,192,127559,1,8,0:0:0:0:
128,256,127794,1,0,0:0:0:0:
64,320,128028,2,0,P|131:353|183:332,1,109.999995231628,4|0,0:0|0:0,0:0:0:0:
162,345,128380,2,0,P|189:278|275:245,1,164.999992847443,4|8,0:0|0:0,0:0:0:0:
349,243,128966,5,4,0:0:0:0:
341,203,129083,1,0,0:0:0:0:
317,169,129200,1,0,0:0:0:0:
279,142,129317,1,0,0:0:0:0:
236,132,129434,2,0,P|161:105|142:59,2,109.999995231628,8|0|4,0:0|0:0|0:0,0:0:0:0:
346,132,130137,5,0,0:0:0:0:
460,209,130372,1,8,0:0:0:0:
469,332,130606,1,0,0:0:0:0:
398,273,130841,6,0,P|381:218|432:152,1,109.999995231628,4|0,0:0|0:0,0:0:0:0:
460,111,131309,2,0,P|415:59|351:65,1,109.999995231628,8|0,0:0|0:0,0:0:0:0:
367,134,131778,2,0,P|303:162|271:113,1,109.999995231628,4|0,0:0|0:0,0:0:0:0:
307,233,132247,2,0,P|261:281|271:324,1,109.999995231628,8|0,0:0|0:0,0:0:0:0:
347,348,132716,5,4,0:0:0:0:
375,217,132950,1,4,0:0:0:0:
239,166,133184,1,12,0:0:0:0:
194,43,133419,1,4,0:0:0:0:
51,45,133653,1,4,0:0:0:0:
448,96,133887,1,8,0:0:0:0:
448,96,134122,1,12,0:0:0:0:
225,281,134591,6,0,L|331:252,1,109.999995231628,4|0,0:0|0:0,0:0:0:0:
408,232,135059,2,0,L|431:291,2,54.9999976158142,8|0|0,0:0|0:0|0:0,0:0:0:0:
329,161,135528,2,0,L|227:111,1,109.999995231628,4|0,0:0|0:0,0:0:0:0:
149,155,135997,2,0,L|135:216,2,54.9999976158142,8|0|0,0:0|0:0|0:0,0:0:0:0:
179,74,136466,1,4,0:0:0:0:
223,45,136583,1,0,0:0:0:0:
278,45,136700,1,0,0:0:0:0:
320,74,136817,1,0,0:0:0:0:
330,120,136934,1,8,0:0:0:0:
320,163,137051,1,0,0:0:0:0:
295,196,137169,1,4,0:0:0:0:
193,215,137403,5,4,0:0:0:0:
114,272,137637,2,0,L|98:381,2,109.999995231628,0|8|0,0:0|0:0|0:0,0:0:0:0:
126,169,138341,1,4,0:0:0:0:
146,128,138458,1,0,0:0:0:0:
183,103,138575,1,0,0:0:0:0:
225,89,138692,1,0,0:0:0:0:
267,91,138809,2,0,L|325:109,1,54.9999976158142,8|0,0:0|0:0,0:0:0:0:
355,130,139044,1,0,0:0:0:0:
386,169,139161,1,0,0:0:0:0:
392,208,139278,6,0,P|364:279|331:292,1,109.999995231628,4|0,0:0|0:0,0:0:0:0:
337,290,139630,2,0,P|203:264|166:278,1,164.999992847443,4|8,0:0|0:0,0:0:0:0:
32,352,140216,5,4,0:0:0:0:
32,32,140684,1,8,0:0:0:0:
480,352,141153,1,4,0:0:0:0:
480,32,141622,1,8,0:0:0:0:
256,192,142091,5,4,0:0:0:0:
448,64,149591,5,4,0:0:0:0:
416,160,149825,1,0,0:0:0:0:
384,256,150059,2,0,L|437:293,2,54.9999976158142,4|0|0,0:0|0:0|0:0,0:0:0:0:
270,181,150528,1,4,0:0:0:0:
270,181,150645,1,0,0:0:0:0:
270,181,150762,2,0,L|174:117,1,109.999995231628,0|4,0:0|0:0,0:0:0:0:
64,224,151231,5,0,0:0:0:0:
64,224,151348,1,0,0:0:0:0:
64,224,151466,2,0,L|128:128,1,109.999995231628,4|0,0:0|0:0,0:0:0:0:
224,64,151934,1,4,0:0:0:0:
224,64,152051,1,0,0:0:0:0:
224,64,152169,1,0,0:0:0:0:
320,160,152403,2,0,L|384:128,2,54.9999976158142,4|0|0,0:0|0:0|0:0,0:0:0:0:
256,256,152872,1,4,0:0:0:0:
416,320,153106,6,0,L|448:256,1,54.9999976158142
456,242,153341,1,4,0:0:0:0:
434,151,153575,1,0,0:0:0:0:
366,93,153809,1,4,0:0:0:0:
332,80,153926,1,0,0:0:0:0:
288,89,154044,1,0,0:0:0:0:
220,165,154278,1,4,0:0:0:0:
213,207,154395,1,0,0:0:0:0:
230,252,154512,1,0,0:0:0:0:
330,305,154747,1,4,0:0:0:0:
329,197,154981,5,0,0:0:0:0:
329,197,155098,1,0,0:0:0:0:
329,197,155216,2,0,L|243:119,1,109.999995231628,4|0,0:0|0:0,0:0:0:0:
188,68,155684,2,0,L|142:26,2,54.9999976158142,4|0|0,0:0|0:0|0:0,0:0:0:0:
200,173,156153,5,4,0:0:0:0:
266,283,156309,1,4,0:0:0:0:
160,340,156466,1,4,0:0:0:0:
94,231,156622,1,8,0:0:0:0:
303,176,156856,6,0,L|333:130,1,54.9999976158142,4|0,0:0|0:0,0:0:0:0:
351,100,157091,2,0,P|401:81|423:137,1,109.999995231628,4|0,0:0|0:0,0:0:0:0:
409,228,157559,2,0,L|493:273,2,54.9999976158142,4|0|0,0:0|0:0|0:0,0:0:0:0:
206,169,158028,2,0,L|194:115,2,54.9999976158142,4|0|0,0:0|0:0|0:0,0:0:0:0:
281,310,158497,1,4,0:0:0:0:
314,229,158731,5,0,0:0:0:0:
323,195,158848,1,0,0:0:0:0:
333,162,158966,1,4,0:0:0:0:
280,56,159200,1,0,0:0:0:0:
155,106,159434,1,4,0:0:0:0:
123,74,159551,1,0,0:0:0:0:
90,42,159669,1,0,0:0:0:0:
120,197,159903,6,0,L|82:254,1,54.9999976158142,4|0,0:0|0:0,0:0:0:0:
100,290,160137,2,0,L|148:321,1,54.9999976158142,8|0,0:0|0:0,0:0:0:0:
199,297,160372,2,0,L|228:247,1,54.9999976158142,4|0,0:0|0:0,0:0:0:0:
221,199,160606,2,0,L|166:167,1,54.9999976158142,8|0,0:0|0:0,0:0:0:0:
311,151,160841,5,4,0:0:0:0:
453,241,161075,1,0,0:0:0:0:
453,91,161309,1,4,0:0:0:0:
431,125,161426,1,0,0:0:0:0:
409,156,161544,1,0,0:0:0:0:
330,265,161778,2,0,L|291:314,2,54.9999976158142,4|0|0,0:0|0:0|0:0,0:0:0:0:
374,211,162247,2,0,P|305:179|241:184,1,109.999995231628,4|0,0:0|0:0,0:0:0:0:
272,177,162598,1,0,0:0:0:0:
272,177,162716,6,0,P|201:222|166:187,1,109.999995231628,8|0,0:0|0:0,0:0:0:0:
254,120,163184,2,0,P|211:58|243:24,1,109.999995231628,8|0,0:0|0:0,0:0:0:0:
320,147,163653,2,0,P|376:134|422:169,1,109.999995231628,8|0,0:0|0:0,0:0:0:0:
417,161,164005,2,0,P|450:94|393:29,1,164.999992847443,8|8,0:0|0:0,0:0:0:0:
301,32,164591,5,4,0:0:0:0:
191,103,164825,1,0,0:0:0:0:
311,229,165059,1,12,0:0:0:0:
311,229,165176,1,0,0:0:0:0:
311,229,165294,2,0,P|240:285|192:283,1,109.999995231628,0|4,0:0|0:0,0:0:0:0:
223,286,165645,1,0,0:0:0:0:
223,286,165762,2,0,P|199:204|162:181,1,109.999995231628,0|12,0:0|0:0,0:0:0:0:
76,160,166231,5,0,0:0:0:0:
76,160,166348,1,0,0:0:0:0:
76,160,166466,2,0,P|176:145|206:130,1,109.999995231628,4|0,0:0|0:0,0:0:0:0:
398,87,166934,1,12,0:0:0:0:
398,87,167051,1,0,0:0:0:0:
398,87,167169,1,0,0:0:0:0:
321,236,167403,1,4,0:0:0:0:
321,236,167520,1,0,0:0:0:0:
321,236,167637,2,0,P|311:157|283:128,1,109.999995231628,0|12,0:0|0:0,0:0:0:0:
195,63,168106,2,0,L|230:10,2,54.9999976158142,0|0|4,0:0|0:0|0:0,0:0:0:0:
136,153,168575,5,0,0:0:0:0:
174,304,168809,1,12,0:0:0:0:
174,304,168926,1,0,0:0:0:0:
174,304,169044,2,0,P|215:229|267:209,1,109.999995231628,0|4,0:0|0:0,0:0:0:0:
233,217,169395,1,0,0:0:0:0:
233,217,169512,2,0,P|303:179|332:115,1,109.999995231628,0|12,0:0|0:0,0:0:0:0:
331,69,169981,1,0,0:0:0:0:
383,87,170098,1,0,0:0:0:0:
422,130,170216,6,0,P|439:184|422:241,1,109.999995231628,4|0,0:0|0:0,0:0:0:0:
305,185,170684,1,12,0:0:0:0:
305,185,170801,1,0,0:0:0:0:
305,185,170919,1,0,0:0:0:0:
199,51,171153,5,4,0:0:0:0:
88,164,171309,1,4,0:0:0:0:
168,324,171466,1,4,0:0:0:0:
338,350,171622,1,8,0:0:0:0:
257,248,171856,6,0,L|206:211,1,54.9999976158142,4|0,0:0|0:0,0:0:0:0:
167,182,172091,1,4,0:0:0:0:
52,97,172325,1,0,0:0:0:0:
53,284,172559,2,0,L|41:358,2,54.9999976158142,12|0|0,0:0|0:0|0:0,0:0:0:0:
172,98,173028,2,0,L|226:123,1,54.9999976158142,4|0,0:0|0:0,0:0:0:0:
221,121,173262,2,0,P|246:221|282:233,1,109.999995231628,0|12,0:0|0:0,0:0:0:0:
401,278,173731,1,0,0:0:0:0:
401,278,173848,1,0,0:0:0:0:
401,278,173966,1,4,0:0:0:0:
441,145,174200,5,0,0:0:0:0:
316,72,174434,1,12,0:0:0:0:
301,108,174551,1,0,0:0:0:0:
288,145,174669,1,0,0:0:0:0:
237,234,174903,5,4,0:0:0:0:
186,255,175020,1,0,0:0:0:0:
135,234,175137,1,8,0:0:0:0:
114,183,175255,1,0,0:0:0:0:
135,132,175372,1,4,0:0:0:0:
186,111,175489,1,0,0:0:0:0:
237,132,175606,1,8,0:0:0:0:
258,183,175723,1,0,0:0:0:0:
273,237,175841,6,0,P|329:223|371:174,1,109.999995231628,4|0,0:0|0:0,0:0:0:0:
417,126,176309,2,0,L|454:177,1,54.9999976158142,12|0,0:0|0:0,0:0:0:0:
449,170,176544,2,0,L|353:279,1,109.999995231628,0|4,0:0|0:0,0:0:0:0:
376,252,176895,1,0,0:0:0:0:
376,252,177012,2,0,P|319:178|331:124,1,109.999995231628,0|12,0:0|0:0,0:0:0:0:
331,61,177481,2,0,L|269:46,1,54.9999976158142
146,37,177716,5,8,0:0:0:0:
146,37,177950,1,0,0:0:0:0:
159,237,178184,1,8,0:0:0:0:
159,237,178419,1,0,0:0:0:0:
376,152,178653,2,0,P|442:207|446:261,1,109.999995231628,8|0,0:0|0:0,0:0:0:0:
447,226,179005,2,0,P|326:237|301:316,1,164.999992847443,8|8,0:0|0:0,0:0:0:0:
361,346,179591,1,4,0:0:0:0:
192,160,187091,6,0,L|160:96,6,36.6666650772095,4|0|0|0|0|0|8,0:0|0:0|0:0|0:0|0:0|0:0|0:0,0:0:0:0:
230,230,187716,1,0,0:0:0:0:
311,273,187872,1,0,0:0:0:0:
403,251,188028,1,4,0:0:0:0:
456,176,188184,1,0,0:0:0:0:
458,84,188341,1,0,0:0:0:0:
458,84,188497,1,8,0:0:0:0:
333,137,188653,1,0,0:0:0:0:
333,137,188809,1,0,0:0:0:0:
356,256,188966,6,0,L|381:303,6,36.6666650772095,4|0|0|0|0|0|8,0:0|0:0|0:0|0:0|0:0|0:0|0:0,0:0:0:0:
312,183,189591,1,0,0:0:0:0:
238,225,189747,1,0,0:0:0:0:
211,144,189903,1,4,0:0:0:0:
133,178,190059,1,0,0:0:0:0:
111,99,190216,1,0,0:0:0:0:
41,151,190372,2,0,L|41:267,1,109.999995231628,8|2,0:0|0:0,0:0:0:0:
97,308,190841,5,4,0:0:0:0:
126,305,190919,1,0,0:0:0:0:
154,298,190997,1,0,0:0:0:0:
181,288,191075,1,0,0:0:0:0:
206,273,191153,1,0,0:0:0:0:
227,252,191231,1,0,0:0:0:0:
245,229,191309,5,8,0:0:0:0:
345,254,191466,1,0,0:0:0:0:
345,254,191622,1,0,0:0:0:0:
449,136,191778,1,4,0:0:0:0:
449,136,191934,1,0,0:0:0:0:
282,65,192091,1,0,0:0:0:0:
282,65,192247,1,8,0:0:0:0:
413,34,192403,1,0,0:0:0:0:
413,34,192559,1,0,0:0:0:0:
320,154,192716,6,0,L|369:176,6,36.6666650772095,4|0|0|0|0|0|8,0:0|0:0|0:0|0:0|0:0|0:0|0:0,0:0:0:0:
232,127,193341,1,0,0:0:0:0:
147,96,193497,1,0,0:0:0:0:
66,55,193653,5,4,0:0:0:0:
57,82,193731,1,0,0:0:0:0:
54,111,193809,1,4,0:0:0:0:
66,137,193887,1,0,0:0:0:0:
89,154,193966,1,4,0:0:0:0:
118,157,194044,1,0,0:0:0:0:
146,149,194122,2,0,P|206:104|230:56,1,109.999995231628,8|2,0:0|0:0,0:0:0:0:
317,57,194591,6,0,L|341:100,1,36.6666650772095,4|0,0:0|0:0,0:0:0:0:
334,89,194747,2,0,L|346:142,1,36.6666650772095
342,124,194903,2,0,L|333:178,1,36.6666650772095
336,161,195059,1,8,0:0:0:0:
317,243,195216,1,0,0:0:0:0:
317,243,195372,1,0,0:0:0:0:
432,264,195528,5,4,0:0:0:0:
446,177,195684,1,0,0:0:0:0:
446,89,195841,1,0,0:0:0:0:
262,85,195997,1,8,0:0:0:0:
253,174,196153,1,0,0:0:0:0:
229,263,196309,1,0,0:0:0:0:
162,325,196466,6,0,L|177:372,6,36.6666650772095,4|0|0|0|0|0|8,0:0|0:0|0:0|0:0|0:0|0:0|0:0,0:0:0:0:
131,246,197091,2,0,P|145:191|193:180,1,73.333330154419
245,123,197403,1,4,0:0:0:0:
245,123,197559,1,0,0:0:0:0:
245,123,197716,1,0,0:0:0:0:
245,123,197872,2,0,L|356:108,2,109.999995231628,8|0|4,0:0|0:0|0:0,0:0:0:0:
250,152,198419,5,0,0:0:0:0:
268,174,198497,1,0,0:0:0:0:
295,183,198575,1,0,0:0:0:0:
324,180,198653,1,0,0:0:0:0:
350,166,198731,1,0,0:0:0:0:
365,141,198809,5,8,0:0:0:0:
400,66,198966,2,0,P|445:115|450:171,1,73.333330154419
453,198,199278,2,0,P|409:203|392:270,1,73.333330154419,4|0,0:0|0:0,0:0:0:0:
456,267,199591,2,0,P|500:251|499:175,1,73.333330154419,0|8,0:0|0:0,0:0:0:0:
512,154,199903,1,0,0:0:0:0:
512,78,200059,1,0,0:0:0:0:
512,0,200216,5,8,0:0:0:0:
448,96,200450,1,0,0:0:0:0:
384,192,200684,1,8,0:0:0:0:
320,288,200919,1,0,0:0:0:0:
256,384,201153,2,0,P|185:348|155:295,1,109.999995231628,8|0,0:0|0:0,0:0:0:0:
167,325,201505,2,0,P|280:220|274:171,1,164.999992847443,8|8,0:0|0:0,0:0:0:0:
243,124,202091,5,4,0:0:0:0:
243,124,202169,1,0,0:0:0:0:
243,124,202247,1,0,0:0:0:0:
243,124,202325,1,0,0:0:0:0:
243,124,202403,1,0,0:0:0:0:
243,124,202481,1,0,0:0:0:0:
243,124,202559,2,0,L|348:95,2,73.333330154419,8|0|0,0:0|0:0|0:0,0:0:0:0:
113,211,203028,2,0,L|49:144,2,73.333330154419,4|0|0,0:0|0:0|0:0,0:0:0:0:
322,274,203497,2,0,L|301:365,2,73.333330154419,8|0|0,0:0|0:0|0:0,0:0:0:0:
406,183,203966,5,4,0:0:0:0:
427,163,204044,1,0,0:0:0:0:
436,135,204122,1,0,0:0:0:0:
431,106,204200,1,0,0:0:0:0:
414,81,204278,1,0,0:0:0:0:
388,66,204356,1,0,0:0:0:0:
358,64,204434,2,0,P|310:65|281:31,1,73.333330154419,8|0,0:0|0:0,0:0:0:0:
201,28,204747,1,0,0:0:0:0:
101,62,204903,2,0,P|60:108|90:156,1,73.333330154419,4|0,0:0|0:0,0:0:0:0:
113,224,205216,1,0,0:0:0:0:
234,302,205372,2,0,P|206:232|245:147,1,109.999995231628,8|0,0:0|0:0,0:0:0:0:
320,160,205841,6,0,L|378:138,6,36.6666650772095,4|0|0|0|0|0|8,0:0|0:0|0:0|0:0|0:0|0:0|0:0,0:0:0:0:
160,160,206466,1,0,0:0:0:0:
160,320,206622,1,0,0:0:0:0:
320,320,206778,1,4,0:0:0:0:
357,237,206934,1,0,0:0:0:0:
242,127,207091,1,0,0:0:0:0:
127,239,207247,1,8,0:0:0:0:
242,353,207403,1,0,0:0:0:0:
366,346,207559,1,0,0:0:0:0:
477,355,207716,6,0,L|524:369,6,36.6666650772095,4|0|0|0|0|0|8,0:0|0:0|0:0|0:0|0:0|0:0|0:0,0:0:0:0:
413,270,208341,1,0,0:0:0:0:
350,190,208497,1,0,0:0:0:0:
288,96,208653,2,0,L|256:64,1,36.6666650772095,4|0,0:0|0:0,0:0:0:0:
224,160,208809,2,0,L|192:192,1,36.6666650772095,4|0,0:0|0:0,0:0:0:0:
160,96,208966,2,0,L|128:64,1,36.6666650772095,4|0,0:0|0:0,0:0:0:0:
96,160,209122,2,0,P|83:231|162:250,1,109.999995231628,8|2,0:0|0:0,0:0:0:0:
221,274,209591,5,4,0:0:0:0:
221,274,209669,1,0,0:0:0:0:
221,274,209747,1,0,0:0:0:0:
221,274,209825,1,0,0:0:0:0:
221,274,209903,1,0,0:0:0:0:
221,274,209981,1,0,0:0:0:0:
221,274,210059,2,0,L|310:298,2,73.333330154419,8|0|0,0:0|0:0|0:0,0:0:0:0:
311,223,210528,2,0,L|238:201,2,73.333330154419,4|0|0,0:0|0:0|0:0,0:0:0:0:
262,133,210997,2,0,L|349:159,2,73.333330154419,8|0|0,0:0|0:0|0:0,0:0:0:0:
183,134,211466,6,0,L|147:158,1,36.6666650772095,4|0,0:0|0:0,0:0:0:0:
152,154,211622,2,0,L|125:202,1,36.6666650772095
134,186,211778,2,0,L|134:234,1,36.6666650772095
134,222,211934,1,8,0:0:0:0:
235,228,212091,1,0,0:0:0:0:
235,228,212247,1,0,0:0:0:0:
329,170,212403,1,4,0:0:0:0:
329,170,212559,1,0,0:0:0:0:
406,107,212716,1,0,0:0:0:0:
406,107,212872,2,0,P|498:87|537:114,1,109.999995231628,8|2,0:0|0:0,0:0:0:0:
474,178,213341,6,0,L|460:123,6,36.6666650772095,4|0|0|0|0|0|8,0:0|0:0|0:0|0:0|0:0|0:0|0:0,0:0:0:0:
447,273,213966,1,0,0:0:0:0:
371,340,214122,1,0,0:0:0:0:
267,354,214278,1,4,0:0:0:0:
165,321,214434,1,0,0:0:0:0:
116,227,214591,1,0,0:0:0:0:
119,126,214747,1,8,0:0:0:0:
188,47,214903,1,0,0:0:0:0:
295,25,215059,1,0,0:0:0:0:
406,58,215216,6,0,P|341:77|322:131,1,109.999995231628,8|0,0:0|0:0,0:0:0:0:
212,152,215684,2,0,P|283:166|328:235,1,109.999995231628,8|0,0:0|0:0,0:0:0:0:
284,268,216153,2,0,P|351:211|446:212,1,109.999995231628,8|0,0:0|0:0,0:0:0:0:
370,205,216505,2,0,P|365:123|262:82,1,164.999992847443,8|8,0:0|0:0,0:0:0:0:
144,69,217091,6,0,L|111:33,3,36.6666650772095,8|0|0|8,0:0|0:0|0:0|0:0,0:0:0:0:
209,218,217481,1,0,0:0:0:0:
237,202,217559,2,0,L|283:176,3,36.6666650772095,8|0|0|8,0:0|0:0|0:0|0:0,0:0:0:0:
424,158,217950,1,0,0:0:0:0:
430,191,218028,2,0,L|438:249,2,36.6666650772095,8|0|0,0:0|0:0|0:0,0:0:0:0:
466,150,218262,2,0,L|520:143,2,36.6666650772095,8|0|0,0:0|0:0|0:0,0:0:0:0:
416,114,218497,2,0,L|410:65,2,36.6666650772095,8|0|0,0:0|0:0|0:0,0:0:0:0:
376,162,218731,2,0,L|329:171,2,36.6666650772095,8|0|0,0:0|0:0|0:0,0:0:0:0:
384,256,218966,6,0,L|384:320,2,36.6666650772095,8|0|0,0:0|0:0|0:0,0:0:0:0:
320,256,219200,2,0,L|256:256,2,36.6666650772095,8|0|0,0:0|0:0|0:0,0:0:0:0:
320,320,219434,2,0,L|320:384,2,36.6666650772095,8|0|0,0:0|0:0|0:0,0:0:0:0:
256,320,219669,2,0,L|192:320,2,36.6666650772095,8|0|0,0:0|0:0|0:0,0:0:0:0:
160,256,219903,5,8,0:0:0:0:
64,128,220137,1,8,0:0:0:0:
192,32,220372,1,8,0:0:0:0:
288,160,220606,1,8,0:0:0:0:
307,73,220841,5,8,0:0:0:0:
334,62,220919,1,0,0:0:0:0:
362,66,220997,1,0,0:0:0:0:
384,85,221075,1,8,0:0:0:0:
345,163,221309,5,8,0:0:0:0:
364,184,221387,1,0,0:0:0:0:
393,187,221466,1,0,0:0:0:0:
420,176,221544,1,8,0:0:0:0:
414,278,221778,6,0,L|437:313,2,36.6666650772095,8|0|0,0:0|0:0|0:0,0:0:0:0:
386,230,222012,2,0,L|361:191,2,36.6666650772095,8|0|0,0:0|0:0|0:0,0:0:0:0:
359,276,222247,1,8,0:0:0:0:
359,276,222325,1,0,0:0:0:0:
359,276,222403,1,0,0:0:0:0:
359,276,222481,1,8,0:0:0:0:
256,384,222716,5,8,0:0:0:0:
32,192,222950,1,4,0:0:0:0:
256,32,223184,1,8,0:0:0:0:
480,192,223419,1,4,0:0:0:0:
256,192,223653,1,8,0:0:0:0:
256,192,223887,1,12,0:0:0:0:
256,192,224122,1,12,0:0:0:0:
