osu file format v12

[General]
AudioFilename: Spooky Scary Skeletons (Remix) - Extended Mix.mp3
AudioLeadIn: 0
PreviewTime: -1
Countdown: 0
SampleSet: Normal
StackLeniency: 0.7
Mode: 0
LetterboxInBreaks: 1
WidescreenStoryboard: 1

[Editor]
DistanceSpacing: 0.8
BeatDivisor: 2
GridSize: 16
TimelineZoom: 1

[Metadata]
Title:Spooky Scary Skeletons
TitleUnicode:Spooky Scary Skeletons
Artist:Living Tombstone
ArtistUnicode:Living Tombstone
Creator:floofyshmoofer
Version:Hard
Source:
Tags:spooky scary skeletons skeleton tombstone
BeatmapID:411058
BeatmapSetID:169753

[Difficulty]
HPDrainRate:6
CircleSize:4
OverallDifficulty:5
ApproachRate:7
SliderMultiplier:2.19999990463257
SliderTickRate:1

[Events]
//Background and Video events
0,0,"Background.jpg",0,0
//Break Periods
2,7291,14160
2,37760,44160
2,75259,81191
2,119322,126191
2,142291,148691
2,179790,186191
//Storyboard Layer 0 (Background)
//Storyboard Layer 1 (Fail)
//Storyboard Layer 2 (Pass)
//Storyboard Layer 3 (Foreground)
//Storyboard Sound Samples
//Background Colour Transformations
3,100,91,91,91

[TimingPoints]
60,468.75,4,1,0,50,1,0
29122,468.75,4,1,0,50,1,0
29122,468.75,4,1,0,50,1,0
29122,-50,4,1,0,50,0,0
29590,-100,4,1,0,50,0,0
80685,468.75,3,1,0,50,1,0
82091,468.75,4,1,0,50,1,0

[Colours]
Combo1 : 53,53,53
Combo2 : 126,142,72
Combo3 : 180,180,180
Combo4 : 55,28,0

[HitObjects]
176,128,60,6,0,L|144:96,3,36.6666650772095,8|0|0|8,0:0|0:0|0:0|0:0,0:0:0:0:
176,256,528,2,0,L|144:288,3,36.6666650772095,8|0|0|8,0:0|0:0|0:0|0:0,0:0:0:0:
304,192,997,2,0,L|352:192,2,36.6666650772095,8|0|0,0:0|0:0|0:0,0:0:0:0:
256,192,1231,2,0,L|208:192,2,36.6666650772095,8|0|0,0:0|0:0|0:0,0:0:0:0:
304,192,1466,2,0,P|336:128|331:87,1,109.999995231628,8|8,0:0|0:0,0:0:0:0:
261,49,1935,6,0,L|216:67,5,36.6666650772095,8|0|0|8|0|0,0:0|0:0|0:0|0:0|0:0|0:0,0:0:0:0:
183,113,2403,2,0,L|161:159,5,36.6666650772095,8|0|0|8|0|0,0:0|0:0|0:0|0:0|0:0|0:0,0:0:0:0:
142,212,2872,2,0,P|137:290|118:333,1,109.999995231628,8|8,0:0|0:0,0:0:0:0:
262,269,3341,2,0,P|345:265|393:239,1,109.999995231628,8|8,0:0|0:0,0:0:0:0:
427,198,3810,6,0,L|449:155,3,36.6666650772095,8|0|0|8,0:0|0:0|0:0|0:0,0:0:0:0:
352,93,4278,2,0,L|336:127,3,36.6666650772095,8|0|0|8,0:0|0:0|0:0|0:0,0:0:0:0:
239,70,4747,2,0,L|211:95,5,36.6666650772095,8|0|0|8|0|0,0:0|0:0|0:0|0:0|0:0|0:0,0:0:0:0:
183,119,5216,2,0,P|146:167|137:220,1,109.999995231628,8|8,0:0|0:0,0:0:0:0:
256,192,5685,12,4,7091,0:0:0:0:
184,89,15060,6,0,P|146:136|134:186,1,109.999995231628,4|0,0:0|0:0,0:0:0:0:
220,168,15528,2,0,P|252:215|256:284,1,109.999995231628,8|0,0:0|0:0,0:0:0:0:
322,188,15997,2,0,P|372:161|403:112,1,109.999995231628,4|0,0:0|0:0,0:0:0:0:
419,75,16349,2,0,P|339:69|289:4,1,164.999992847443,4|8,0:0|0:0,0:0:0:0:
271,81,16935,2,0,P|208:118|177:162,1,109.999995231628,4|0,0:0|0:0,0:0:0:0:
263,178,17403,2,0,B|289:233|289:233|356:226,1,109.999995231628,8|0,0:0|0:0,0:0:0:0:
409,213,17872,2,0,P|467:185|491:143,2,109.999995231628,4|0|8,0:0|0:0|0:0,0:0:0:0:
318,232,18575,1,0,0:0:0:0:
227,255,18810,6,0,P|169:261|129:223,1,109.999995231628,4|0,0:0|0:0,0:0:0:0:
111,155,19278,2,0,L|139:93,1,54.9999976158142,8|0,0:0|0:0,0:0:0:0:
245,133,19747,2,0,P|313:88|317:64,1,109.999995231628,4|0,0:0|0:0,0:0:0:0:
320,23,20099,2,0,B|379:41|379:41|392:149,1,164.999992847443,4|8,0:0|0:0,0:0:0:0:
386,224,20685,2,0,P|321:193|270:188,1,109.999995231628,4|8,0:0|0:0,0:0:0:0:
283,187,21153,2,0,P|358:151|402:149,1,109.999995231628,4|8,0:0|0:0,0:0:0:0:
384,148,21622,2,0,L|381:35,2,109.999995231628,4|8|12,0:0|0:0|0:0,0:0:0:0:
334,289,22560,5,4,0:0:0:0:
245,254,22794,1,0,0:0:0:0:
165,213,23028,2,0,P|128:164|143:116,1,109.999995231628,8|0,0:0|0:0,0:0:0:0:
206,64,23497,2,0,P|298:123|325:172,2,164.999992847443,4|4|4,0:0|0:0|0:0,0:0:0:0:
104,45,24435,1,4,0:0:0:0:
49,131,24669,1,0,0:0:0:0:
57,239,24903,2,0,P|101:303|144:312,1,109.999995231628,8|0,0:0|0:0,0:0:0:0:
171,307,25255,2,0,P|232:290|270:193,1,164.999992847443,0|4,0:0|0:0,0:0:0:0:
264,124,25841,2,0,P|271:68|323:34,2,109.999995231628,8|0|4,0:0|0:0|0:0,0:0:0:0:
273,211,26544,5,0,0:0:0:0:
286,299,26778,2,0,P|358:278|382:251,1,109.999995231628,8|0,0:0|0:0,0:0:0:0:
401,176,27247,2,0,P|361:121|376:30,2,164.999992847443,4|0|4,0:0|0:0|0:0,0:0:0:0:
401,176,28067,1,0,0:0:0:0:
401,176,28185,2,0,L|488:268,1,109.999995231628,4|8,0:0|0:0,0:0:0:0:
400,327,28653,2,0,L|326:241,1,109.999995231628,4|8,0:0|0:0,0:0:0:0:
237,222,29122,2,0,B|233:186|233:186|207:210|207:210|203:174|203:174|177:199|177:199|173:163|173:163|147:187|147:187|143:151|143:151|117:176|117:176|114:140|114:140|87:164|87:164|84:129|84:129|57:153|57:153|46:158,1,439.999980926514,4|8,0:0|0:0,0:0:0:0:
112,50,29825,5,0,0:0:0:0:
112,50,30059,2,0,P|188:51|217:72,1,109.999995231628,4|0,0:0|0:0,0:0:0:0:
164,127,30528,2,0,B|145:191|145:191|187:239,1,109.999995231628,8|0,0:0|0:0,0:0:0:0:
96,217,30997,2,0,P|74:149|98:109,1,109.999995231628,4|0,0:0|0:0,0:0:0:0:
126,99,31349,2,0,P|172:166|244:228,1,164.999992847443,4|8,0:0|0:0,0:0:0:0:
316,244,31935,1,4,0:0:0:0:
401,229,32169,1,0,0:0:0:0:
480,193,32403,2,0,L|535:140,1,54.9999976158142,8|0,0:0|0:0,0:0:0:0:
403,102,32872,1,4,0:0:0:0:
302,70,33106,2,0,L|188:40,2,109.999995231628,0|8|0,0:0|0:0|0:0,0:0:0:0:
331,162,33810,6,0,P|270:188|242:228,1,109.999995231628,4|0,0:0|0:0,0:0:0:0:
221,137,34278,2,0,P|167:96|112:102,1,109.999995231628,8|0,0:0|0:0,0:0:0:0:
228,48,34747,2,0,P|290:40|333:58,1,109.999995231628,4|0,0:0|0:0,0:0:0:0:
368,92,35099,2,0,P|288:131|262:215,1,164.999992847443,4|8,0:0|0:0,0:0:0:0:
291,271,35685,1,4,0:0:0:0:
191,253,35919,1,8,0:0:0:0:
291,271,36153,1,4,0:0:0:0:
191,253,36388,1,8,0:0:0:0:
291,271,36622,2,0,L|415:300,2,109.999995231628,4|8|12,0:0|0:0|0:0,0:0:0:0:
262,157,37560,5,4,0:0:0:0:
119,308,45060,5,4,0:0:0:0:
147,185,45528,1,8,0:0:0:0:
178,63,45997,1,4,0:0:0:0:
317,84,46466,2,0,P|305:152|344:235,1,146.666660308838,8|0,0:0|0:0,0:0:0:0:
363,258,46935,1,4,0:0:0:0:
266,314,47403,1,8,0:0:0:0:
149,305,47872,1,4,0:0:0:0:
73,235,48340,2,0,P|66:168|86:124,1,109.999995231628,8|2,0:0|0:0,0:0:0:0:
135,55,48810,5,4,0:0:0:0:
206,148,49278,1,8,0:0:0:0:
301,73,49747,1,4,0:0:0:0:
366,172,50216,2,0,P|329:243|260:276,1,146.666660308838,8|0,0:0|0:0,0:0:0:0:
229,285,50685,1,4,0:0:0:0:
107,245,51153,1,8,0:0:0:0:
33,154,51622,2,0,P|17:106|25:61,2,73.333330154419,4|4|4,0:0|0:0|0:0,0:0:0:0:
82,204,52091,2,0,P|127:154|179:142,1,109.999995231628,12|2,0:0|0:0,0:0:0:0:
256,144,52560,6,0,L|368:144,1,109.999995231628,4|0,0:0|0:0,0:0:0:0:
368,224,53028,2,0,L|256:224,1,109.999995231628,8|0,0:0|0:0,0:0:0:0:
256,304,53497,2,0,L|368:304,1,109.999995231628,4|0,0:0|0:0,0:0:0:0:
448,304,53966,2,0,P|464:208|432:160,1,146.666660308838,8|0,0:0|0:0,0:0:0:0:
408,136,54435,2,0,P|359:93|307:83,1,109.999995231628,4|0,0:0|0:0,0:0:0:0:
341,163,54903,2,0,P|277:144|226:161,1,109.999995231628,8|0,0:0|0:0,0:0:0:0:
305,222,55372,2,0,P|236:225|181:262,1,109.999995231628,4|0,0:0|0:0,0:0:0:0:
169,176,55841,2,0,B|224:147|224:147|208:80,1,109.999995231628,8|0,0:0|0:0,0:0:0:0:
194,31,56310,6,0,P|283:24|312:56,1,109.999995231628,4|0,0:0|0:0,0:0:0:0:
271,101,56778,2,0,P|277:164|336:190,1,109.999995231628,8|0,0:0|0:0,0:0:0:0:
228,188,57247,2,0,P|153:175|131:128,1,109.999995231628,4|0,0:0|0:0,0:0:0:0:
202,112,57716,2,0,P|288:161|337:231,1,146.666660308838,8|0,0:0|0:0,0:0:0:0:
334,231,58185,5,8,0:0:0:0:
334,231,58419,1,0,0:0:0:0:
237,286,58653,1,8,0:0:0:0:
237,286,58888,1,0,0:0:0:0:
136,253,59122,2,0,P|101:191|106:148,1,109.999995231628,8|0,0:0|0:0,0:0:0:0:
172,88,59591,2,0,P|275:112|384:207,1,219.999990463257,2|4,0:0|0:0,0:0:0:0:
408,242,60294,6,0,P|454:319|485:326,2,109.999995231628,0|8|0,0:0|0:0|0:0,0:0:0:0:
412,161,60997,1,4,0:0:0:0:
417,83,61231,1,0,0:0:0:0:
419,5,61466,2,0,P|350:27|341:75,1,109.999995231628,8|0,0:0|0:0,0:0:0:0:
335,131,61935,2,0,P|315:196|276:218,2,109.999995231628,4|0|8,0:0|0:0|0:0,0:0:0:0:
340,57,62638,2,0,P|270:57|236:94,1,109.999995231628,0|4,0:0|0:0,0:0:0:0:
216,155,63106,1,0,0:0:0:0:
211,237,63341,2,0,P|288:243|290:207,2,109.999995231628,8|0|4,0:0|0:0|0:0,0:0:0:0:
170,169,64044,5,0,0:0:0:0:
129,95,64278,2,0,B|182:63|182:63|244:95,1,109.999995231628,8|0,0:0|0:0,0:0:0:0:
296,122,64747,2,0,P|324:70|307:21,2,109.999995231628,4|0|8,0:0|0:0|0:0,0:0:0:0:
254,192,65450,1,0,0:0:0:0:
201,253,65685,2,0,P|262:298|306:286,1,109.999995231628,4|0,0:0|0:0,0:0:0:0:
201,253,66153,2,0,P|141:196|86:215,1,109.999995231628,8|0,0:0|0:0,0:0:0:0:
181,116,66622,6,0,L|207:44,2,73.333330154419,4|0|0,0:0|0:0|0:0,0:0:0:0:
163,188,67091,2,0,P|244:201|299:184,1,109.999995231628,8|0,0:0|0:0,0:0:0:0:
333,148,67560,5,4,0:0:0:0:
404,103,67794,1,0,0:0:0:0:
447,172,68028,1,8,0:0:0:0:
379,217,68263,1,0,0:0:0:0:
305,267,68497,2,0,P|232:275|185:247,1,109.999995231628,4|0,0:0|0:0,0:0:0:0:
271,179,68966,2,0,P|246:104|220:79,1,109.999995231628,8|0,0:0|0:0,0:0:0:0:
149,133,69435,5,4,0:0:0:0:
105,204,69669,1,0,0:0:0:0:
128,283,69903,1,8,0:0:0:0:
206,322,70138,1,0,0:0:0:0:
289,303,70372,2,0,P|261:238|266:192,1,109.999995231628,4|0,0:0|0:0,0:0:0:0:
301,138,70841,2,0,B|276:84|276:84|207:37,2,109.999995231628,8|0|4,0:0|0:0|0:0,0:0:0:0:
340,219,71544,6,0,P|408:195|421:164,1,109.999995231628,0|8,0:0|0:0,0:0:0:0:
426,86,72013,1,0,0:0:0:0:
421,165,72247,2,0,P|448:233|429:277,1,109.999995231628,4|0,0:0|0:0,0:0:0:0:
340,219,72716,2,0,P|316:137|326:100,1,109.999995231628,8|0,0:0|0:0,0:0:0:0:
328,28,73185,5,8,0:0:0:0:
230,27,73419,1,0,0:0:0:0:
227,109,73653,1,8,0:0:0:0:
121,107,73888,1,0,0:0:0:0:
120,187,74122,2,0,P|139:246|199:272,1,109.999995231628,8|0,0:0|0:0,0:0:0:0:
262,269,74591,2,0,B|295:202|356:207|356:207|404:85,1,219.999990463257,2|4,0:0|0:0,0:0:0:0:
408,290,82091,6,0,L|473:330,2,73.333330154419,4|0|0,0:0|0:0|0:0,0:0:0:0:
339,251,82559,2,0,P|280:201|241:121,1,146.666660308838,8|8,0:0|0:0,0:0:0:0:
246,70,83028,2,0,P|292:34|326:44,2,73.333330154419,4|0|0,0:0|0:0|0:0,0:0:0:0:
212,82,83497,2,0,P|152:66|117:98,2,73.333330154419,8|0|0,0:0|0:0|0:0,0:0:0:0:
245,118,83966,6,0,P|261:176|245:229,1,73.333330154419,4|0,0:0|0:0,0:0:0:0:
260,187,84278,1,0,0:0:0:0:
260,187,84434,2,0,P|321:286|365:287,1,146.666660308838,8|8,0:0|0:0,0:0:0:0:
406,294,84903,2,0,P|469:327|486:368,2,73.333330154419,4|0|0,0:0|0:0|0:0,0:0:0:0:
333,291,85372,2,0,L|378:166,1,109.999995231628,8|2,0:0|0:0,0:0:0:0:
400,122,85841,6,0,P|422:82|459:56,2,73.333330154419,4|0|0,0:0|0:0|0:0,0:0:0:0:
366,186,86309,2,0,B|287:169|287:169|266:93,1,146.666660308838,8|8,0:0|0:0,0:0:0:0:
254,40,86778,2,0,L|181:28,2,73.333330154419,4|0|0,0:0|0:0|0:0,0:0:0:0:
327,39,87247,2,0,L|433:16,2,73.333330154419,8|0|0,0:0|0:0|0:0,0:0:0:0:
294,110,87716,6,0,P|239:118|200:103,2,73.333330154419,4|0|0,0:0|0:0|0:0,0:0:0:0:
326,178,88184,2,0,P|275:193|221:185,2,73.333330154419,4|0|0,0:0|0:0|0:0,0:0:0:0:
377,226,88653,2,0,P|339:256|305:267,2,73.333330154419,4|4|4,0:0|0:0|0:0,0:0:0:0:
445,258,89122,2,0,P|468:193|443:139,1,109.999995231628,8|2,0:0|0:0,0:0:0:0:
405,77,89591,5,4,0:0:0:0:
405,77,89747,1,0,0:0:0:0:
405,77,89903,1,0,0:0:0:0:
405,77,90059,2,0,P|325:59|256:81,1,146.666660308838,8|8,0:0|0:0,0:0:0:0:
203,113,90528,2,0,P|156:142|177:97,2,73.333330154419,4|0|0,0:0|0:0|0:0,0:0:0:0:
176,45,90997,1,8,0:0:0:0:
176,45,91153,1,0,0:0:0:0:
176,45,91309,1,0,0:0:0:0:
176,45,91466,6,0,L|110:101,2,73.333330154419,4|0|0,0:0|0:0|0:0,0:0:0:0:
176,45,91934,2,0,P|268:78|292:134,1,146.666660308838,8|8,0:0|0:0,0:0:0:0:
297,182,92403,2,0,P|295:235|342:252,1,73.333330154419,4|0,0:0|0:0,0:0:0:0:
362,266,92716,2,0,P|412:249|416:209,1,73.333330154419,0|8,0:0|0:0,0:0:0:0:
437,148,93106,1,2,0:0:0:0:
454,33,93341,6,0,P|401:22|362:34,1,73.333330154419,4|0,0:0|0:0,0:0:0:0:
309,48,93653,1,0,0:0:0:0:
239,82,93809,2,0,P|195:136|178:237,1,146.666660308838,8|8,0:0|0:0,0:0:0:0:
133,277,94278,2,0,P|102:313|111:358,2,73.333330154419,4|0|0,0:0|0:0|0:0,0:0:0:0:
210,278,94747,2,0,P|240:316|231:360,2,73.333330154419,8|0|0,0:0|0:0|0:0,0:0:0:0:
178,208,95216,6,0,B|179:142|179:142|133:92,1,109.999995231628,8|0,0:0|0:0,0:0:0:0:
254,152,95684,2,0,B|319:126|319:126|352:183,1,109.999995231628,8|0,0:0|0:0,0:0:0:0:
318,251,96153,2,0,B|303:203|303:203|313:119,1,109.999995231628,8|0,0:0|0:0,0:0:0:0:
380,118,96622,2,0,P|286:48|161:88,1,219.999990463257,2|4,0:0|0:0,0:0:0:0:
190,64,97247,5,0,0:0:0:0:
190,64,97403,1,0,0:0:0:0:
190,64,97559,2,0,P|226:148|197:214,1,146.666660308838,8|8,0:0|0:0,0:0:0:0:
189,238,98028,2,0,P|166:277|173:312,1,73.333330154419,4|0,0:0|0:0,0:0:0:0:
198,329,98341,2,0,P|258:333|281:291,1,73.333330154419,0|8,0:0|0:0,0:0:0:0:
297,300,98653,2,0,P|289:244|248:226,1,73.333330154419
234,188,98966,6,0,L|234:109,2,73.333330154419,4|0|0,0:0|0:0|0:0,0:0:0:0:
233,248,99434,2,0,P|311:234|376:195,1,146.666660308838,8|8,0:0|0:0,0:0:0:0:
397,161,99903,2,0,B|419:130|419:130|397:93,2,73.333330154419,4|0|0,0:0|0:0|0:0,0:0:0:0:
347,193,100372,2,0,P|282:165|263:111,1,109.999995231628,8|2,0:0|0:0,0:0:0:0:
254,54,100841,6,0,P|193:66|173:103,2,73.333330154419,4|0|0,0:0|0:0|0:0,0:0:0:0:
309,63,101309,2,0,P|308:142|261:214,1,146.666660308838,8|8,0:0|0:0,0:0:0:0:
275,199,101778,1,4,0:0:0:0:
275,199,101934,1,0,0:0:0:0:
275,199,102091,1,0,0:0:0:0:
275,199,102247,2,0,P|212:243|155:234,2,73.333330154419,8|0|0,0:0|0:0|0:0,0:0:0:0:
313,153,102716,6,0,P|350:116|381:112,1,73.333330154419,4|0,0:0|0:0,0:0:0:0:
415,111,103028,1,0,0:0:0:0:
473,112,103184,2,0,P|473:185|454:215,1,73.333330154419,4|0,0:0|0:0,0:0:0:0:
447,228,103497,1,0,0:0:0:0:
404,260,103653,2,0,P|360:284|317:285,1,73.333330154419,4|4,0:0|0:0,0:0:0:0:
289,279,103966,1,4,0:0:0:0:
226,275,104122,2,0,L|151:174,1,109.999995231628,8|2,0:0|0:0,0:0:0:0:
131,140,104591,6,0,P|172:91|166:58,2,73.333330154419,4|0|0,0:0|0:0|0:0,0:0:0:0:
92,177,105059,2,0,P|79:261|130:291,1,146.666660308838,8|8,0:0|0:0,0:0:0:0:
171,294,105528,2,0,P|227:276|241:255,1,73.333330154419,4|0,0:0|0:0,0:0:0:0:
266,233,105841,2,0,P|306:205|354:204,1,73.333330154419,0|8,0:0|0:0,0:0:0:0:
378,200,106153,2,0,P|424:193|463:152,1,73.333330154419
489,143,106466,6,0,P|493:80|462:56,2,73.333330154419,4|0|0,0:0|0:0|0:0,0:0:0:0:
459,189,106934,2,0,P|366:217|302:171,1,146.666660308838,8|8,0:0|0:0,0:0:0:0:
288,172,107403,1,4,0:0:0:0:
238,140,107559,1,0,0:0:0:0:
186,110,107716,1,0,0:0:0:0:
134,81,107872,2,0,B|125:171|125:171|169:229,1,146.666660308838,8|2,0:0|0:0,0:0:0:0:
186,255,108341,6,0,P|163:298|192:328,2,73.333330154419,4|0|0,0:0|0:0|0:0,0:0:0:0:
232,236,108809,2,0,B|311:203|311:203|383:233,1,146.666660308838,8|8,0:0|0:0,0:0:0:0:
416,251,109278,2,0,L|450:321,2,73.333330154419,4|0|0,0:0|0:0|0:0,0:0:0:0:
416,250,109747,2,0,L|481:194,2,73.333330154419,8|0|0,0:0|0:0|0:0,0:0:0:0:
416,250,110216,6,0,P|376:183|334:165,1,109.999995231628,8|0,0:0|0:0,0:0:0:0:
438,148,110684,2,0,P|452:85|492:37,1,109.999995231628,8|0,0:0|0:0,0:0:0:0:
496,123,111153,2,0,P|410:169|352:163,1,109.999995231628,8|0,0:0|0:0,0:0:0:0:
296,133,111622,1,2,0:0:0:0:
117,161,112091,6,0,L|86:136,3,36.6666650772095,8|0|0|8,0:0|0:0|0:0|0:0,0:0:0:0:
227,246,112559,2,0,L|271:277,3,36.6666650772095,8|0|0|8,0:0|0:0|0:0|0:0,0:0:0:0:
241,153,113028,2,0,P|238:102|217:79,1,73.333330154419,8|0,0:0|0:0,0:0:0:0:
179,75,113262,2,0,P|137:94|124:120,1,73.333330154419,8|0,0:0|0:0,0:0:0:0:
129,156,113497,2,0,P|147:194|181:200,1,73.333330154419,8|0,0:0|0:0,0:0:0:0:
205,198,113731,2,0,P|236:166|243:131,1,73.333330154419,8|0,0:0|0:0,0:0:0:0:
306,94,113966,6,0,P|361:106|395:160,1,109.999995231628,8|8,0:0|0:0,0:0:0:0:
313,183,114434,2,0,P|323:258|295:305,1,109.999995231628,8|8,0:0|0:0,0:0:0:0:
199,310,114903,1,8,0:0:0:0:
142,242,115137,1,8,0:0:0:0:
129,154,115372,1,8,0:0:0:0:
159,71,115606,1,8,0:0:0:0:
276,67,115841,6,0,L|265:121,3,36.6666650772095,8|0|0|8,0:0|0:0|0:0|0:0,0:0:0:0:
392,69,116309,2,8,L|437:52,3,36.6666650772095,8|8|8|0,0:0|0:0|0:0|0:0,0:0:0:0:
338,194,116778,2,0,L|336:253,5,36.6666650772095,8|0|0|8|0|0,0:0|0:0|0:0|0:0|0:0|0:0,0:0:0:0:
334,268,117247,2,0,P|310:322|243:343,1,109.999995231628,8|8,0:0|0:0,0:0:0:0:
256,192,117716,12,4,119122,0:0:0:0:
134,73,127091,5,4,0:0:0:0:
221,74,127325,1,0,0:0:0:0:
308,73,127559,2,0,P|344:148|328:178,1,109.999995231628,8|0,0:0|0:0,0:0:0:0:
275,230,128028,2,0,P|241:164|199:148,1,109.999995231628,4|0,0:0|0:0,0:0:0:0:
165,142,128380,2,0,P|73:107|39:38,1,164.999992847443,4|8,0:0|0:0,0:0:0:0:
117,36,128966,2,0,L|172:40,1,54.9999976158142,4|0,0:0|0:0,0:0:0:0:
250,140,129434,1,8,0:0:0:0:
203,215,129669,1,0,0:0:0:0:
154,288,129903,1,4,0:0:0:0:
434,177,130606,5,0,0:0:0:0:
434,177,130841,2,0,P|376:115|329:107,1,109.999995231628,4|0,0:0|0:0,0:0:0:0:
348,194,131309,2,0,P|317:275|333:306,1,109.999995231628,8|0,0:0|0:0,0:0:0:0:
251,229,131778,2,0,P|189:188|176:142,1,109.999995231628,4|0,0:0|0:0,0:0:0:0:
215,85,132247,2,0,P|293:100|337:67,1,109.999995231628,8|0,0:0|0:0,0:0:0:0:
398,53,132716,5,4,0:0:0:0:
372,137,132950,1,8,0:0:0:0:
295,180,133184,1,4,0:0:0:0:
272,265,133419,1,8,0:0:0:0:
187,288,133653,1,12,0:0:0:0:
88,115,134591,6,0,P|138:73|184:63,1,109.999995231628,4|0,0:0|0:0,0:0:0:0:
253,63,135059,1,8,0:0:0:0:
330,66,135294,1,0,0:0:0:0:
407,68,135528,2,0,P|407:136|378:194,1,109.999995231628,4|0,0:0|0:0,0:0:0:0:
333,212,135997,1,8,0:0:0:0:
264,223,136231,1,0,0:0:0:0:
189,225,136466,6,0,P|215:154|261:144,1,109.999995231628,4|0,0:0|0:0,0:0:0:0:
317,145,136934,2,0,P|293:216|299:255,1,109.999995231628,8|0,0:0|0:0,0:0:0:0:
326,313,137403,1,4,0:0:0:0:
101,243,138341,6,0,P|85:173|99:124,1,109.999995231628,4|0,0:0|0:0,0:0:0:0:
101,243,138809,2,0,P|169:195|216:196,1,109.999995231628,8|0,0:0|0:0,0:0:0:0:
101,243,139278,2,0,P|170:296|180:329,1,109.999995231628,4|0,0:0|0:0,0:0:0:0:
189,347,139630,2,0,P|267:314|319:240,1,164.999992847443,4|8,0:0|0:0,0:0:0:0:
340,176,140216,5,4,0:0:0:0:
182,63,140684,5,4,0:0:0:0:
71,235,141153,5,4,0:0:0:0:
248,337,141622,5,4,0:0:0:0:
211,198,142091,5,4,0:0:0:0:
94,88,149591,6,0,L|127:194,1,109.999995231628,4|0,0:0|0:0,0:0:0:0:
151,263,150059,2,0,L|174:322,2,54.9999976158142,8|0|0,0:0|0:0|0:0,0:0:0:0:
239,183,150528,2,0,L|271:130,2,54.9999976158142,4|0|0,0:0|0:0|0:0,0:0:0:0:
277,273,150997,1,8,0:0:0:0:
386,292,151231,2,0,L|404:348,2,54.9999976158142,0|0|4,0:0|0:0|0:0,0:0:0:0:
349,214,151700,6,0,P|350:142|373:110,1,109.999995231628,0|8,0:0|0:0,0:0:0:0:
370,112,152051,1,0,0:0:0:0:
370,112,152169,2,0,P|300:76|238:80,1,109.999995231628,4|0,0:0|0:0,0:0:0:0:
270,74,152520,1,0,0:0:0:0:
270,74,152637,2,0,P|178:112|158:78,1,109.999995231628,0|8,0:0|0:0,0:0:0:0:
100,80,153106,2,0,L|85:25,2,54.9999976158142,0|0|4,0:0|0:0|0:0,0:0:0:0:
126,168,153575,5,0,0:0:0:0:
147,256,153809,2,0,P|146:298|136:311,2,54.9999976158142,8|0|0,0:0|0:0|0:0,0:0:0:0:
226,184,154278,2,0,P|247:150|283:132,2,54.9999976158142,4|0|0,0:0|0:0|0:0,0:0:0:0:
248,278,154747,1,8,0:0:0:0:
359,303,154981,2,0,L|409:352,2,54.9999976158142,0|0|4,0:0|0:0|0:0,0:0:0:0:
333,218,155450,5,0,0:0:0:0:
311,129,155684,2,0,P|329:93|353:86,2,54.9999976158142,8|0|0,0:0|0:0|0:0,0:0:0:0:
166,108,156153,1,4,0:0:0:0:
116,181,156309,1,4,0:0:0:0:
187,225,156466,1,4,0:0:0:0:
236,157,156622,1,8,0:0:0:0:
297,57,156856,6,0,L|360:43,1,54.9999976158142
387,38,157091,2,0,P|410:98|404:156,1,109.999995231628,4|0,0:0|0:0,0:0:0:0:
376,216,157559,2,0,L|406:271,2,54.9999976158142,8|0|0,0:0|0:0|0:0,0:0:0:0:
342,147,158028,2,0,L|315:94,2,54.9999976158142,4|0|0,0:0|0:0|0:0,0:0:0:0:
306,241,158497,1,8,0:0:0:0:
210,283,158731,1,0,0:0:0:0:
210,283,158848,1,0,0:0:0:0:
210,283,158966,6,0,P|176:214|136:178,1,109.999995231628,4|0,0:0|0:0,0:0:0:0:
200,111,159434,2,0,L|256:87,1,54.9999976158142,8|0,0:0|0:0,0:0:0:0:
290,72,159669,1,0,0:0:0:0:
390,137,159903,2,0,P|416:178|421:201,3,54.9999976158142,4|0|8|0,0:0|0:0|0:0|0:0,0:0:0:0:
423,228,160372,2,0,P|411:269|390:295,3,54.9999976158142,4|0|8|0,0:0|0:0|0:0|0:0,0:0:0:0:
364,314,160841,6,0,P|289:274|237:274,1,109.999995231628,4|0,0:0|0:0,0:0:0:0:
186,262,161309,2,0,L|126:261,2,54.9999976158142,8|0|0,0:0|0:0|0:0,0:0:0:0:
288,265,161778,2,0,L|321:216,1,54.9999976158142,4|0,0:0|0:0,0:0:0:0:
341,188,162012,2,0,P|362:126|350:78,1,109.999995231628,0|8,0:0|0:0,0:0:0:0:
231,46,162481,1,0,0:0:0:0:
231,46,162598,1,0,0:0:0:0:
231,46,162716,6,0,P|167:94|160:126,1,109.999995231628,4|0,0:0|0:0,0:0:0:0:
249,127,163184,2,0,P|279:192|252:240,1,109.999995231628,8|0,0:0|0:0,0:0:0:0:
195,189,163653,2,0,P|167:258|183:302,1,109.999995231628,4|0,0:0|0:0,0:0:0:0:
250,251,164122,2,0,L|372:251,2,109.999995231628,8|0|4,0:0|0:0|0:0,0:0:0:0:
151,251,164825,5,0,0:0:0:0:
86,164,165059,2,0,L|107:108,2,54.9999976158142,8|0|0,0:0|0:0|0:0,0:0:0:0:
213,145,165528,2,0,L|274:126,2,54.9999976158142,4|0|0,0:0|0:0|0:0,0:0:0:0:
155,219,165997,1,8,0:0:0:0:
193,318,166231,1,0,0:0:0:0:
223,308,166348,1,0,0:0:0:0:
253,296,166466,6,0,P|321:252|347:213,1,109.999995231628,4|0,0:0|0:0,0:0:0:0:
393,154,166934,2,0,P|423:128|442:125,2,54.9999976158142,8|0|0,0:0|0:0|0:0,0:0:0:0:
275,131,167403,1,4,0:0:0:0:
275,131,167520,1,0,0:0:0:0:
275,131,167637,2,0,P|203:110|156:138,1,109.999995231628,0|8,0:0|0:0,0:0:0:0:
96,231,168106,2,0,L|69:284,2,54.9999976158142,0|0|4,0:0|0:0|0:0,0:0:0:0:
147,132,168575,6,0,P|180:86|239:63,1,109.999995231628,0|8,0:0|0:0,0:0:0:0:
227,64,168926,1,0,0:0:0:0:
227,64,169044,2,0,P|307:91|328:145,1,109.999995231628,0|4,0:0|0:0,0:0:0:0:
319,109,169395,1,0,0:0:0:0:
319,109,169512,2,0,P|309:188|279:217,1,109.999995231628,0|8,0:0|0:0,0:0:0:0:
198,297,169981,2,0,L|177:347,2,54.9999976158142,0|0|4,0:0|0:0|0:0,0:0:0:0:
206,194,170450,5,0,0:0:0:0:
161,103,170684,2,0,L|112:74,2,54.9999976158142,8|0|0,0:0|0:0|0:0,0:0:0:0:
324,133,171153,2,0,P|369:113|415:127,1,73.333330154419,4|4,0:0|0:0,0:0:0:0:
413,207,171466,2,0,P|379:228|338:221,1,73.333330154419,4|8,0:0|0:0,0:0:0:0:
226,165,171856,1,0,0:0:0:0:
226,165,171973,1,0,0:0:0:0:
226,165,172091,6,0,P|181:240|173:292,1,109.999995231628,4|0,0:0|0:0,0:0:0:0:
94,331,172559,2,0,L|41:357,2,54.9999976158142,8|0|0,0:0|0:0|0:0,0:0:0:0:
212,297,173028,2,0,L|292:313,2,54.9999976158142,4|0|0,0:0|0:0|0:0,0:0:0:0:
131,234,173497,1,8,0:0:0:0:
135,143,173731,2,0,P|141:112|165:89,1,54.9999976158142
181,70,173966,6,0,P|261:54|294:83,1,109.999995231628,4|0,0:0|0:0,0:0:0:0:
354,161,174434,1,8,0:0:0:0:
354,161,174551,1,0,0:0:0:0:
354,161,174669,2,0,P|317:207|267:215,1,109.999995231628,0|4,0:0|0:0,0:0:0:0:
269,215,175020,1,0,0:0:0:0:
269,215,175137,1,8,0:0:0:0:
269,215,175255,1,0,0:0:0:0:
269,215,175372,2,0,L|211:204,3,54.9999976158142,4|0|8|0,0:0|0:0|0:0|0:0,0:0:0:0:
176,197,175841,6,0,B|115:183|115:183|78:245,1,109.999995231628,4|0,0:0|0:0,0:0:0:0:
52,304,176309,2,0,L|26:359,2,54.9999976158142,8|0|0,0:0|0:0|0:0,0:0:0:0:
99,200,176778,1,4,0:0:0:0:
99,200,176895,1,0,0:0:0:0:
99,200,177012,2,0,P|130:140|184:127,1,109.999995231628,0|8,0:0|0:0,0:0:0:0:
306,118,177481,1,0,0:0:0:0:
341,117,177598,1,0,0:0:0:0:
380,117,177716,6,0,P|391:190|370:228,1,109.999995231628,8|0,0:0|0:0,0:0:0:0:
283,190,178184,2,0,P|229:230|190:284,1,109.999995231628,8|0,0:0|0:0,0:0:0:0:
196,170,178653,2,0,P|166:109|180:68,1,109.999995231628,8|0,0:0|0:0,0:0:0:0:
296,80,179122,2,0,P|354:48|379:14,2,109.999995231628,8|8|4,0:0|0:0|0:0,0:0:0:0:
333,130,187091,6,0,L|366:98,5,36.6666650772095,4|0|0|0|0|0,0:0|0:0|0:0|0:0|0:0|0:0,0:0:0:0:
383,78,187559,2,0,P|443:106|437:202,1,146.666660308838,8|0,0:0|0:0,0:0:0:0:
439,228,188028,2,0,P|426:286|438:328,2,73.333330154419,4|0|0,0:0|0:0|0:0,0:0:0:0:
428,170,188497,2,0,P|401:134|412:95,2,73.333330154419,8|0|0,0:0|0:0|0:0,0:0:0:0:
471,197,188966,2,0,L|510:199,5,36.6666650772095,4|0|0|0|0|0,0:0|0:0|0:0|0:0|0:0|0:0,0:0:0:0:
503,253,189434,2,0,P|468:293|362:309,1,146.666660308838,8|0,0:0|0:0,0:0:0:0:
327,313,189903,2,0,P|288:344|286:368,2,73.333330154419,4|0|0,0:0|0:0|0:0,0:0:0:0:
377,293,190372,2,0,L|347:168,1,109.999995231628,8|0,0:0|0:0,0:0:0:0:
330,109,190841,6,0,L|318:67,5,36.6666650772095,4|0|0|0|0|0,0:0|0:0|0:0|0:0|0:0|0:0,0:0:0:0:
308,37,191309,2,0,P|248:53|182:126,1,146.666660308838,8|0,0:0|0:0,0:0:0:0:
170,163,191778,2,0,P|153:219|134:253,1,73.333330154419,4|0,0:0|0:0,0:0:0:0:
124,271,192091,2,0,P|86:213|88:178,1,73.333330154419,0|8,0:0|0:0,0:0:0:0:
107,178,192403,2,0,P|163:200|200:189,1,73.333330154419
222,193,192716,2,0,L|259:187,5,36.6666650772095,4|0|0|0|0|0,0:0|0:0|0:0|0:0|0:0|0:0,0:0:0:0:
176,201,193184,2,0,P|203:269|296:300,1,146.666660308838,8|0,0:0|0:0,0:0:0:0:
344,306,193653,2,0,L|399:309,5,36.6666650772095,4|0|0|0|0|0,0:0|0:0|0:0|0:0|0:0|0:0,0:0:0:0:
424,306,194122,2,0,L|488:207,1,109.999995231628,8|0,0:0|0:0,0:0:0:0:
499,121,194591,6,0,L|461:101,5,36.6666650772095,4|0|0|0|0|0,0:0|0:0|0:0|0:0|0:0|0:0,0:0:0:0:
426,87,195059,2,0,P|350:77|265:107,1,146.666660308838,8|0,0:0|0:0,0:0:0:0:
235,125,195528,2,0,L|162:169,2,73.333330154419,4|0|0,0:0|0:0|0:0,0:0:0:0:
290,86,195997,2,0,P|348:88|371:113,2,73.333330154419,8|0|0,0:0|0:0|0:0,0:0:0:0:
218,105,196466,2,0,L|167:119,5,36.6666650772095,4|0|0|0|0|0,0:0|0:0|0:0|0:0|0:0|0:0,0:0:0:0:
148,126,196934,2,0,P|138:194|65:274,1,146.666660308838,8|0,0:0|0:0,0:0:0:0:
61,284,197403,2,0,P|28:328|28:353,2,73.333330154419,4|0|0,0:0|0:0|0:0,0:0:0:0:
119,241,197872,2,0,L|242:241,1,109.999995231628,8|0,0:0|0:0,0:0:0:0:
288,241,198341,6,0,L|315:268,5,36.6666650772095,4|0|0|0|0|0,0:0|0:0|0:0|0:0|0:0|0:0,0:0:0:0:
345,297,198809,2,0,P|407:294|457:205,1,146.666660308838,8|0,0:0|0:0,0:0:0:0:
467,183,199278,2,0,P|477:118|472:98,2,73.333330154419,4|0|0,0:0|0:0|0:0,0:0:0:0:
409,208,199747,2,0,P|386:172|348:152,2,73.333330154419,8|0|0,0:0|0:0|0:0,0:0:0:0:
404,287,200216,5,8,0:0:0:0:
323,252,200450,1,0,0:0:0:0:
244,213,200684,1,8,0:0:0:0:
166,171,200919,1,0,0:0:0:0:
94,119,201153,2,0,P|165:57|199:54,1,109.999995231628,8|0,0:0|0:0,0:0:0:0:
271,63,201622,1,2,0:0:0:0:
342,181,202091,6,0,L|392:194,5,36.6666650772095,4|0|0|0|0|0,0:0|0:0|0:0|0:0|0:0|0:0,0:0:0:0:
301,175,202559,2,0,P|257:166|226:183,1,73.333330154419,8|0,0:0|0:0,0:0:0:0:
182,215,202872,1,0,0:0:0:0:
146,266,203028,2,0,P|103:295|75:296,2,73.333330154419,4|0|0,0:0|0:0|0:0,0:0:0:0:
182,215,203497,2,0,P|186:155|167:121,1,73.333330154419,8|0,0:0|0:0,0:0:0:0:
166,83,203809,1,0,0:0:0:0:
222,47,203966,6,0,L|272:41,5,36.6666650772095,4|0|0|0|0|0,0:0|0:0|0:0|0:0|0:0|0:0,0:0:0:0:
308,39,204434,2,0,P|353:64|373:106,1,73.333330154419,8|0,0:0|0:0,0:0:0:0:
380,143,204747,1,0,0:0:0:0:
396,206,204903,2,0,P|409:259|405:302,2,73.333330154419,4|0|0,0:0|0:0|0:0,0:0:0:0:
380,143,205372,2,0,L|457:57,1,109.999995231628,8|0,0:0|0:0,0:0:0:0:
476,170,205841,6,0,L|474:212,5,36.6666650772095,4|0|0|0|0|0,0:0|0:0|0:0|0:0|0:0|0:0,0:0:0:0:
468,253,206309,2,0,P|446:292|412:295,1,73.333330154419,8|0,0:0|0:0,0:0:0:0:
357,301,206622,1,0,0:0:0:0:
290,305,206778,2,0,P|234:341|226:365,2,73.333330154419,4|0|0,0:0|0:0|0:0,0:0:0:0:
357,301,207247,2,0,P|404:268|411:232,1,73.333330154419,8|0,0:0|0:0,0:0:0:0:
430,193,207559,1,0,0:0:0:0:
446,132,207716,6,0,L|456:90,5,36.6666650772095,4|0|0|0|0|0,0:0|0:0|0:0|0:0|0:0|0:0,0:0:0:0:
467,34,208184,2,0,P|416:28|373:48,1,73.333330154419,8|0,0:0|0:0,0:0:0:0:
333,53,208497,1,0,0:0:0:0:
280,94,208653,2,0,L|244:122,1,36.6666650772095,4|0,0:0|0:0,0:0:0:0:
251,116,208809,2,0,L|202:156,1,36.6666650772095
222,139,208966,2,0,L|183:170,1,36.6666650772095
193,161,209122,2,0,P|132:213|157:238,1,109.999995231628,8|0,0:0|0:0,0:0:0:0:
183,289,209591,6,0,L|207:331,5,36.6666650772095,4|0|0|0|0|0,0:0|0:0|0:0|0:0|0:0|0:0,0:0:0:0:
230,378,210059,2,0,L|283:302,1,73.333330154419,8|0,0:0|0:0,0:0:0:0:
301,262,210372,2,0,L|251:183,1,73.333330154419,0|4,0:0|0:0,0:0:0:0:
231,140,210684,2,0,L|276:69,1,73.333330154419
304,22,210997,2,0,L|353:93,1,73.333330154419,8|0,0:0|0:0,0:0:0:0:
379,136,211309,1,0,0:0:0:0:
408,195,211466,6,0,L|429:234,5,36.6666650772095,4|0|0|0|0|0,0:0|0:0|0:0|0:0|0:0|0:0,0:0:0:0:
451,285,211934,2,0,P|408:303|364:292,1,73.333330154419,8|0,0:0|0:0,0:0:0:0:
325,272,212247,1,0,0:0:0:0:
283,225,212403,2,0,P|232:182|205:181,2,73.333330154419,4|0|0,0:0|0:0|0:0,0:0:0:0:
240,294,212872,2,0,B|306:296|306:296|331:254,1,109.999995231628,8|0,0:0|0:0,0:0:0:0:
370,183,213341,6,0,L|386:151,5,36.6666650772095,4|0|0|0|0|0,0:0|0:0|0:0|0:0|0:0|0:0,0:0:0:0:
412,93,213809,2,0,P|366:74|336:83,1,73.333330154419,8|0,0:0|0:0,0:0:0:0:
286,102,214122,2,0,P|244:113|210:100,1,73.333330154419,0|4,0:0|0:0,0:0:0:0:
164,78,214434,2,0,P|123:64|88:79,1,73.333330154419
59,124,214747,2,0,P|39:170|59:210,2,73.333330154419,8|0|0,0:0|0:0|0:0,0:0:0:0:
121,83,215216,6,0,P|159:166|156:220,1,109.999995231628,8|0,0:0|0:0,0:0:0:0:
160,295,215684,2,0,P|236:274|281:218,1,109.999995231628,8|0,0:0|0:0,0:0:0:0:
186,203,216153,2,0,P|189:138|211:73,1,109.999995231628,8|0,0:0|0:0,0:0:0:0:
326,138,216622,1,2,0:0:0:0:
394,265,217091,6,0,L|421:297,3,36.6666650772095,8|0|0|8,0:0|0:0|0:0|0:0,0:0:0:0:
256,264,217559,2,0,L|226:296,3,36.6666650772095,8|0|0|0,0:0|0:0|0:0|0:0,0:0:0:0:
324,197,218028,2,0,P|321:143|281:85,1,109.999995231628,8|8,0:0|0:0,0:0:0:0:
205,48,218497,2,0,L|163:40,3,36.6666650772095,8|0|0|8,0:0|0:0|0:0|0:0,0:0:0:0:
194,151,218966,2,0,P|164:188|134:199,1,73.333330154419,8|0,0:0|0:0,0:0:0:0:
106,201,219200,2,0,P|68:232|68:263,1,73.333330154419,8|0,0:0|0:0,0:0:0:0:
89,293,219434,2,0,P|133:314|169:303,1,73.333330154419,8|0,0:0|0:0,0:0:0:0:
197,295,219669,2,0,P|231:267|291:266,1,73.333330154419,8|0,0:0|0:0,0:0:0:0:
297,250,219903,6,0,L|410:224,1,109.999995231628,8|8,0:0|0:0,0:0:0:0:
318,156,220372,2,0,L|203:117,1,109.999995231628,8|8,0:0|0:0,0:0:0:0:
95,156,220841,2,0,L|60:171,3,36.6666650772095,8|0|0|8,0:0|0:0|0:0|0:0,0:0:0:0:
215,60,221309,2,0,L|220:22,3,36.6666650772095,8|0|0|8,0:0|0:0|0:0|0:0,0:0:0:0:
231,188,221778,1,8,0:0:0:0:
289,280,222012,1,8,0:0:0:0:
368,202,222247,1,8,0:0:0:0:
255,118,222481,1,8,0:0:0:0:
220,254,222716,6,0,P|284:221|295:200,1,73.333330154419,8|0,0:0|0:0,0:0:0:0:
306,186,222950,2,0,P|341:155|384:153,1,73.333330154419,8|0,0:0|0:0,0:0:0:0:
406,145,223184,2,0,P|440:116|451:53,1,109.999995231628,8|0,0:0|0:0,0:0:0:0:
319,93,223653,1,8,0:0:0:0:
319,93,223887,1,12,0:0:0:0:
319,93,224122,1,12,0:0:0:0:
