osu file format v6

[General]
AudioFilename: carol (kz remix).mp3
AudioLeadIn: 1941
PreviewTime: 73700
Countdown: 1
SampleSet: Soft
StackLeniency: 0.7
Mode: 0
LetterboxInBreaks: 0
StoryFireInFront: 0

[Editor]
Bookmarks: 13303
DistanceSpacing: 0.800000011920929
BeatDivisor: 4
GridSize: 8

[Metadata]
Title:Carol (KZ remix)
Artist:Livetune feat. Hatsune Miku
Creator:al2e10
Version:Hard
Source:Re:MIKUS
Tags:techno remix bonus track original kisk baker

[Difficulty]
HPDrainRate:6
CircleSize:5
OverallDifficulty:6
SliderMultiplier:1.6
SliderTickRate:2

[Events]
//Background and Video events
0,0,"miku020.jpg"
//Break Periods
2,37098,42771
2,104021,117540
2,125713,130463
//Storyboard Layer 0 (Background)
//Storyboard Layer 1 (Fail)
//Storyboard Layer 2 (Pass)
//Storyboard Layer 3 (Foreground)
//Storyboard Sound Samples
//Background Colour Transformations
3,100,255,255,255

[TimingPoints]
437,461.538461538462,4,2,0,69,1,0
14744,-100,4,2,0,100,0,0
14975,-100,4,2,0,71,0,0
16475,-100,4,2,1,71,0,0
16706,-100,4,2,0,71,0,0
20167,-100,4,2,1,71,0,0
20398,-100,4,2,0,71,0,0
25706,-100,4,2,0,33,0,0
25937,-100,4,2,0,71,0,0
27552,-100,4,2,1,71,0,0
27783,-100,4,2,0,71,0,0
30956,-100,4,1,0,39,0,0
31649,-100,4,2,0,71,0,0
34706,-100,4,1,0,38,0,0
35398,-100,4,2,0,73,0,0
52013,-100,4,1,0,59,0,0
52244,-100,4,2,0,69,0,0
66783,-100,4,2,0,31,0,0
67013,-100,4,2,0,69,0,0
73187,-100,4,1,0,50,0,0
73533,-100,4,1,0,31,0,0
73764,-100,4,2,0,61,0,0
73937,-100,4,1,0,61,0,0
74283,-100,4,1,0,61,0,1
79244,-100,4,1,1,53,0,1
79475,-100,4,1,0,64,0,1
80341,-100,4,1,0,41,0,1
80860,-100,4,1,0,69,0,1
82937,-100,4,1,1,70,0,1
88013,-100,4,1,2,70,0,0
88995,-100,4,2,0,70,0,0
96090,-100,4,1,0,59,0,0
96321,-100,4,2,0,72,0,0
102898,-100,4,2,0,0,0,0
103360,-100,4,2,0,68,0,0
122918,-200,4,2,0,71,0,0
123380,-100,4,2,0,71,0,0
124360,-200,4,2,0,71,0,0
125629,-100,4,2,0,71,0,0
140629,-100,4,2,0,48,0,0
140860,-100,4,2,0,71,0,0
155398,-100,4,2,0,38,0,0
155629,-100,4,2,0,71,0,0
162667,-100,4,1,0,71,0,0
162898,-100,4,1,0,59,0,1
177437,-100,4,2,0,59,0,0
177667,-100,4,2,0,61,0,0
177667,-100,4,2,0,61,0,1

[Colours]
Combo1 : 128,255,255
Combo2 : 69,175,159
Combo3 : 80,122,165
Combo4 : 87,170,193

[HitObjects]
256,80,13360,1,2
256,144,13590,1,0
256,208,13821,1,2
256,272,14052,1,0
256,336,14283,5,0
256,336,14398,1,2
320,336,14629,1,2
320,336,14744,1,8
80,64,15206,5,4
144,112,15436,1,0
208,160,15667,2,0,B|312:160,1,80,8|0
280,240,16129,5,0
368,240,16360,2,2,B|384:192|448:296|512:216,2,160
320,168,17513,1,8
320,88,17744,1,0
256,40,17975,1,2
96,304,18437,1,8
400,304,18898,1,2
256,104,19360,6,0,B|256:288,1,160,8|0
184,304,20052,2,2,B|256:368|344:296,1,160
312,232,20744,1,0
248,184,20975,1,0
192,136,21206,1,8
192,136,21437,5,0
256,88,21667,1,0
312,40,21898,1,8
312,40,22129,1,8
360,96,22360,2,0,B|328:112|400:112|328:136|400:136|328:144|368:168,1,80,0|4
48,344,23052,5,8
120,344,23283,1,0
440,232,23744,1,0
368,232,23975,1,8
296,232,24206,1,0
104,64,24667,5,2
168,120,24898,1,8
104,176,25129,1,0
184,200,25360,2,0,B|224:256|120:288|208:360,1,160,0|12
248,296,26052,1,0
296,232,26283,1,4
400,80,26744,6,0,B|304:80,1,80,8|2
320,80,27206,1,2
264,128,27437,2,0,B|176:160|96:128,1,160
56,192,28129,1,0
104,256,28360,1,0
56,320,28590,2,0,B|144:320,2,80,8|0|0
104,256,29283,1,8
152,192,29513,1,8
256,72,29975,5,4
256,328,30437,5,8
288,256,30667,2,0,B|376:256,1,80
256,192,31129,1,2
216,128,31360,2,2,B|120:128,1,80,10|2
256,72,31821,1,0
256,72,32052,5,0
296,128,32283,1,8
256,192,32513,1,0
216,248,32744,2,2,B|48:248,1,160,2|8
88,184,33437,5,2
136,248,33667,1,2
184,312,33898,1,0
264,312,34129,2,0,B|352:320,1,80,8|2
280,248,34590,2,0,B|192:232,1,80,0|2
272,184,35052,2,2,B|368:208,1,80,2|2
304,128,35513,2,0,B|288:64|192:144|168:56,2,160,0|8|0
368,128,36667,1,8
368,128,36898,1,8
256,208,43821,12,4,44744
256,80,45206,5,2
392,272,45667,1,0
328,224,45898,1,0
248,224,46129,2,2,B|152:224,1,80
104,192,46590,2,0,B|104:144|208:144|208:80,1,160,2|0
280,48,47283,5,2
312,112,47513,1,0
392,112,47744,2,0,B|432:192|392:288,1,160,2|2
344,232,48437,1,0
280,192,48667,1,0
208,192,48898,1,2
152,232,49129,1,2
96,280,49360,5,0
96,280,49590,2,2,B|64:200|96:112,1,160
32,112,50283,1,0
64,56,50513,1,0
128,56,50744,1,2
168,104,50975,1,2
208,152,51206,6,0,B|280:192|376:144,2,160,2|2|4
136,304,52590,1,2
352,304,53052,1,0
304,240,53283,1,0
224,240,53513,1,0
176,176,53744,2,2,B|176:120|64:128|72:64,1,160
144,48,54437,1,2
208,96,54667,1,0
176,176,54898,1,0
136,256,55129,6,0,B|48:256,1,80
112,320,55590,2,0,B|216:320,1,80
256,256,56052,1,0
256,256,56167,1,2
320,312,56398,1,0
320,312,56513,1,2
400,312,56744,5,0
456,256,56975,2,2,B|456:168,2,80
384,240,57667,1,0
312,224,57898,1,2
312,152,58129,1,0
256,96,58360,5,0
256,312,58821,1,0
256,312,59052,1,8
256,48,59513,1,4
144,288,59975,5,8
192,336,60206,1,0
256,312,60437,1,0
312,336,60667,1,0
360,296,60898,1,8
336,240,61129,2,2,B|248:208|168:248,1,160
112,216,61821,1,8
128,144,62052,1,2
200,144,62283,1,0
232,208,62513,5,0
272,264,62744,1,10
336,264,62975,2,0,B|368:176|336:104,1,160,0|2
304,56,63667,1,8
264,104,63898,2,2,B|232:184|280:272,1,160
240,312,64590,1,8
192,264,64821,5,0
144,224,65052,2,0,B|56:224,1,80,2|0
168,168,65513,2,0,B|256:168,1,80,10|0
256,112,65975,5,0
304,152,66206,1,10
304,216,66437,1,8
352,256,66667,1,2
400,216,66898,1,4
256,256,67360,6,0,B|176:280|88:256,2,160,10|0|10
224,192,68513,1,0
152,192,68744,1,2
104,144,68975,1,0
152,96,69206,2,0,B|256:96,1,80,10|0
272,144,69667,2,0,B|368:144,1,80,2|8
336,208,70129,1,8
400,208,70360,5,0
432,272,70590,1,2
400,336,70821,1,2
336,336,71052,1,8
304,272,71283,2,0,B|224:256|128:272,1,160
112,208,71975,1,10
144,144,72206,1,2
192,88,72437,5,4
320,88,72667,1,2
320,224,72898,1,4
192,224,73129,1,2
256,224,73360,5,0
256,192,73475,1,0
256,160,73590,1,0
256,128,73706,1,0
256,96,73821,1,12
64,336,74283,5,4
112,288,74513,1,0
160,336,74744,1,8
208,288,74975,2,0,B|288:272|384:288,1,160,2|2
384,224,75667,1,8
432,272,75898,1,0
416,336,76129,1,0
368,288,76360,5,0
384,224,76590,1,8
400,160,76821,1,0
384,96,77052,2,2,B|272:96,2,80,2|0|8
80,96,77975,5,0
96,160,78206,2,0,B|192:160,1,80,0|8
80,224,78667,2,0,B|272:224,2,160,2|2|2
64,288,79821,1,0
80,352,80052,5,0
144,336,80283,1,2
208,336,80513,2,2,B|304:304|336:224,1,160,2|8
368,192,81206,1,8
64,64,81667,5,0
128,96,81898,1,0
96,160,82129,1,8
128,224,82360,2,0,B|176:256|224:176|272:192|304:224,2,160,2|2|2
80,272,83513,1,0
112,336,83744,5,0
176,336,83975,1,8
240,336,84206,1,0
256,272,84436,1,0
256,208,84667,2,2,B|256:144|192:144,1,80,0|8
160,112,85129,1,0
112,72,85360,5,4
416,112,85821,1,8
368,160,86052,2,0,B|272:160,1,80,2|0
352,224,86513,2,0,B|448:224,2,80,2|8|2
368,288,87206,1,0
416,336,87436,2,0,B|336:352|240:336,2,160,2|2|2
432,272,88590,1,4
256,64,89052,5,4
64,272,89513,5,8
112,320,89744,1,0
352,224,90206,5,2
400,176,90436,1,8
464,176,90667,1,0
176,224,91129,5,2
128,176,91360,1,8
64,176,91590,1,0
256,48,92052,5,2
304,96,92283,2,0,B|400:96,1,80,8|2
256,144,92744,1,0
304,192,92975,2,0,B|416:192,1,80,2|8
320,256,93436,1,0
304,320,93667,1,0
240,320,93898,5,2
256,256,94129,1,8
240,192,94360,1,0
224,128,94590,2,0,B|144:160|64:128,1,160,0|8
32,176,95283,1,0
48,240,95513,1,0
32,304,95744,1,8
32,304,95975,2,2,B|80:336|160:288|128:192,1,160,8|0
176,176,96667,5,0
176,112,96898,1,8
176,48,97129,1,0
384,176,97590,5,2
384,240,97821,1,10
384,304,98052,1,2
176,176,98513,5,0
112,176,98744,1,8
48,176,98975,1,0
384,176,99436,5,2
384,112,99667,1,10
384,48,99898,1,2
64,48,100360,6,0,B|64:144,2,80,0|8|0
432,336,101283,6,0,B|432:240,2,80,0|8|0
256,208,101975,12,4,103360
256,192,103821,5,4
256,64,118590,5,4
424,288,119052,5,8
352,320,119283,1,0
72,264,119744,5,0
128,320,119975,1,8
192,272,120206,1,0
336,80,120667,1,0
400,32,120898,1,8
456,80,121129,1,0
456,152,121360,6,2,B|408:232|304:224,1,160,2|10
56,112,122283,2,2,B|104:32|208:40,1,160,2|10
256,88,122975,2,0,B|256:208,1,80
256,336,124129,5,0
256,48,124590,2,0,B|256:200,1,120,8|8
256,168,125513,1,8
256,208,131513,12,4,133359
256,64,133821,6,0,B|304:40|400:112|440:48,1,160,0|2
456,112,134513,1,2
424,168,134744,1,0
432,232,134975,1,2
80,232,135437,1,0
104,168,135667,1,2
80,104,135898,1,2
256,336,136360,6,0,B|256:160,1,160,2|2
200,192,137052,1,0
216,128,137283,1,0
280,128,137513,1,2
312,72,137744,1,2
288,336,138206,5,2
264,280,138437,1,2
208,256,138667,1,0
200,192,138898,2,0,B|104:192,2,80,2|0|2
264,192,139590,2,0,B|448:192,1,160,2|0
416,136,140283,2,0,B|248:136,1,160,2|4
256,336,141206,6,0,B|256:280|136:280|136:216,1,160,2|2
160,176,141898,1,0
224,176,142129,1,2
272,216,142360,1,2
472,304,142821,6,0,B|472:208,1,80,0|2
472,88,143283,2,0,B|472:176,2,80,2|0|2
424,48,143975,1,0
368,80,144206,2,2,B|336:176|376:264,1,160
256,64,145129,5,0
256,64,145244,1,2
136,256,145590,5,0
176,208,145821,1,2
240,208,146052,1,0
304,208,146283,2,0,B|368:152,1,80,2|0
352,248,146744,2,0,B|288:312,2,80,2|0|2
408,272,147437,1,0
472,272,147667,1,8
256,56,148129,5,4
160,304,148590,5,0
208,352,148821,1,0
256,304,149052,1,0
304,352,149283,1,0
352,304,149513,1,0
328,240,149744,2,2,B|248:192|168:248,1,160
144,192,150437,5,0
112,136,150667,1,2
80,192,150898,1,0
112,248,151129,5,2
144,304,151360,1,2
208,304,151590,2,0,B|304:344|376:288,1,160,0|2
360,240,152283,1,2
360,176,152513,2,0,B|264:136|192:192,1,160
208,240,153206,1,2
208,304,153437,6,0,B|120:304,2,80,2|0|0
208,240,154129,1,0
208,176,154360,2,0,B|296:176,2,80,0|2|2
184,120,155052,1,0
120,120,155283,1,2
88,176,155513,1,4
232,168,155975,5,0
272,216,156206,1,0
312,264,156437,2,0,B|400:224,1,80,2|0
352,312,156898,2,0,B|272:352,1,80,2|0
416,312,157360,2,0,B|472:312|472:200|400:200,1,160,0|2
352,200,158052,2,0,B|288:200|288:104|360:96,1,160,2|8
358,96,158744,1,8
320,48,158975,5,0
256,64,159206,1,2
224,120,159437,1,2
240,184,159667,2,0,B|144:184,1,80,2|0
384,40,160360,6,0,B|504:40,2,80
360,96,161052,1,2
368,160,161283,1,4
408,208,161513,1,2
472,216,161744,1,4
472,280,161975,5,0
440,280,162090,1,2
408,280,162206,1,0
376,280,162321,1,4
344,280,162437,1,8
72,56,162898,5,4
144,88,163129,1,2
224,88,163360,1,8
296,56,163590,2,0,B|384:56,2,80,2|0|2
288,128,164283,1,8
344,184,164513,6,0,B|344:360,1,160,2|2
272,320,165206,1,8
200,288,165437,1,2
128,320,165667,1,0
64,288,165898,2,0,B|64:192,2,80,2|8|2
128,248,166590,5,4
200,216,166821,1,2
200,144,167052,2,0,B|288:144,1,80,8|2
416,144,167513,2,0,B|328:144,1,80,0|2
304,80,167975,1,8
368,40,168206,5,4
80,320,168667,1,0
152,288,168898,1,8
224,320,169129,2,2,B|320:352|400:312,1,160,2|10
380,320,169821,1,8
256,48,170283,5,0
184,80,170513,1,2
248,120,170744,1,8
312,160,170975,2,0,B|488:160,2,160,2|2|2
272,216,172129,1,0
224,272,172360,2,0,B|128:272,2,80,2|8|2
200,200,173052,1,0
144,160,173283,2,0,B|144:104|32:104|32:176,1,160,2|2
48,240,173975,5,0
80,304,174206,1,2
120,240,174437,1,8
160,304,174667,1,2
232,304,174898,2,2,B|408:304,1,160,0|8
400,240,175590,2,0,B|312:240,2,80,2|8|2
256,208,176283,12,4,177667
