osu file format v6

[General]
AudioFilename: YAWARAKASE.mp3
AudioLeadIn: 0
PreviewTime: 15690
Countdown: 0
SampleSet: Normal
StackLeniency: 0.5
Mode: 0
LetterboxInBreaks: 0
SkinPreference:taiko

[Editor]
Bookmarks: 17336,30136,33336,36536,39736,46136,47736,51536,58902,94136,100930
DistanceSpacing: 1.20000004768372
BeatDivisor: 4
GridSize: 8

[Metadata]
Title:Yawaraka Sensha
Artist:Livedoor
Creator:Zekira
Version:Muzukashii
Source:Taiko no Tatsujin
Tags:TaikOsu

[Difficulty]
HPDrainRate:2
CircleSize:4
OverallDifficulty:5
SliderMultiplier:0.7
SliderTickRate:2

[Events]
//Background and Video events
0,0,"yawaraka.jpg"
//Break Periods
//Storyboard Layer 0 (Background)
//Storyboard Layer 1 (Fail)
//Storyboard Layer 2 (Pass)
//Storyboard Layer 3 (Foreground)
//Storyboard Sound Samples
//Background Colour Transformations
3,100,255,255,128

[TimingPoints]
3080,400,4,1,1,80,1,0
3080,-50,4,1,1,80,0,0
41480,-50,4,1,1,80,0,1
54280,-50,4,1,1,80,0,0
86280,-50,4,1,1,80,0,1

[Colours]
Combo1 : 128,0,255
Combo2 : 243,89,34
Combo3 : 112,196,193
Combo4 : 0,255,0

[HitObjects]
256,192,3080,1,0
256,192,3880,1,0
256,192,4680,1,0
256,192,5480,1,0
64,328,6280,5,0
144,328,6480,2,0,B|192:328,2,35
312,328,7080,1,0
392,328,7280,2,0,B|432:328,2,35
392,200,7880,1,0
312,200,8080,2,0,B|272:200,2,35
144,200,8680,1,0
144,200,8880,1,0
144,200,9080,1,2
16,48,9480,5,0
96,48,9680,2,0,B|176:48,1,70
336,48,10280,1,2
336,128,10480,2,2,B|256:128,1,70
112,192,11080,1,0
112,192,11280,1,0
192,192,11480,1,0
192,192,11580,1,0
192,192,11680,1,0
192,192,11780,1,0
192,192,11880,1,0
448,48,12680,5,4
200,272,13480,1,2
200,272,13680,1,2
200,272,13880,1,0
64,48,14280,5,4
312,272,15080,1,2
312,272,15280,1,2
312,272,15480,1,0
144,272,15880,5,0
144,144,16180,2,0,B|144:96,1,35
144,24,16480,1,0
224,24,16680,1,2
224,24,17080,1,2
368,272,17480,5,0
368,144,17780,2,0,B|368:96,1,35
368,24,18080,1,0
288,24,18280,1,0
288,24,18680,1,2
256,192,19080,5,4
256,192,19880,1,4
256,192,20680,1,4
256,192,21480,1,4
168,192,21680,1,2
168,192,21880,1,2
168,192,22080,1,2
144,112,22280,5,0
144,240,22580,2,0,B|144:288,1,35
144,360,22880,1,0
224,360,23080,1,2
224,360,23480,1,2
368,112,23880,5,0
368,240,24180,2,0,B|368:288,1,35
368,360,24480,1,0
288,360,24680,1,0
288,360,25080,1,2
256,192,25480,5,0
168,192,25680,1,0
80,192,25880,1,2
80,104,26080,1,2
168,104,26280,1,0
256,104,26480,1,0
344,104,26680,1,2
424,104,26880,1,2
424,192,27080,5,0
296,192,27380,2,0,B|248:192,1,35
168,192,27680,1,0
168,192,27880,1,0
464,40,28680,5,0
464,40,28880,1,2
464,40,29080,1,0
464,208,29480,1,0
464,208,29880,1,0
296,208,30280,5,0
296,208,30480,1,2
296,208,30680,1,0
296,40,31080,1,0
296,40,31480,1,0
208,40,31680,1,0
120,40,31880,5,0
32,40,32080,1,2
32,120,32280,1,0
32,288,32680,1,0
32,288,33080,1,0
200,288,33480,5,0
280,288,33680,1,2
360,288,33880,1,0
496,192,34280,1,0
384,64,34680,1,2
384,64,34880,1,2
464,40,35080,5,0
464,40,35280,1,2
464,40,35480,1,0
464,208,35880,1,0
464,208,36280,1,0
296,208,36680,5,0
296,208,36880,1,2
296,208,37080,1,0
296,40,37480,1,0
296,40,37880,1,0
208,40,38080,1,0
120,40,38280,5,0
32,40,38480,1,2
32,120,38680,1,0
32,288,39080,1,0
32,288,39480,1,0
200,288,39880,5,0
280,288,40080,1,2
360,288,40280,1,0
496,192,40680,1,2
384,64,41080,1,2
256,8,41480,5,4
256,136,41780,1,0
256,136,41880,1,0
256,216,42080,1,0
256,296,42280,1,2
256,296,42680,1,2
424,296,43080,5,4
424,168,43380,1,0
424,168,43480,1,0
424,88,43680,1,0
424,8,43880,1,2
424,8,44280,1,2
256,8,44680,5,4
88,8,45080,1,2
88,176,45480,1,4
256,176,45880,1,2
256,344,46280,1,4
256,344,46680,1,4
256,344,47080,1,4
256,344,47480,1,4
256,344,47880,5,4
440,56,48680,1,0
440,56,48880,1,0
440,56,49080,1,0
352,200,49480,5,4
40,64,50280,1,0
120,64,50480,1,0
200,64,50680,1,2
280,64,50880,1,2
360,64,51080,5,4
360,232,51480,1,2
200,232,51880,1,4
200,64,52280,1,2
32,64,52680,2,2,B|32:360,1,280
32,344,53880,1,6
496,336,54280,5,0
416,336,54480,2,0,B|336:336,1,70
176,336,55080,1,2
176,256,55280,2,2,B|256:256,1,70
400,192,55880,1,0
400,192,56080,1,0
320,192,56280,1,0
320,192,56380,1,0
320,192,56480,1,0
320,192,56580,1,0
320,192,56680,1,0
64,336,57480,5,4
128,280,57680,2,0,B|192:232,1,70
312,112,58280,1,2
312,112,58480,1,2
312,112,58680,1,0
448,336,59080,5,4
384,280,59280,2,0,B|328:224,1,70
200,112,59880,1,2
200,112,60080,1,2
200,112,60280,1,0
368,112,60680,5,0
368,240,60980,2,0,B|368:288,1,35
368,360,61280,1,0
288,360,61480,1,2
288,360,61880,1,2
144,112,62280,5,0
144,240,62580,2,0,B|144:288,1,35
144,360,62880,1,0
224,360,63080,1,2
224,360,63280,1,2
224,360,63480,1,2
256,192,63880,5,4
256,192,64680,1,4
256,192,65480,1,4
256,192,66280,1,4
344,192,66480,1,2
344,192,66680,1,2
344,192,66880,1,2
368,272,67080,5,0
368,144,67380,2,0,B|368:96,1,35
368,24,67680,1,0
288,24,67880,1,2
288,24,68280,1,2
144,272,68680,5,0
144,144,68980,2,0,B|144:96,1,35
144,24,69280,1,0
224,24,69480,1,0
224,24,69880,1,2
256,192,70280,5,0
344,192,70480,1,0
432,192,70680,1,2
432,280,70880,1,2
344,280,71080,1,0
256,280,71280,1,0
168,280,71480,1,2
88,280,71680,1,2
88,192,71880,5,0
216,192,72180,2,0,B|264:192,1,35
344,192,72480,1,0
344,192,72680,1,0
48,344,73480,5,0
48,344,73680,1,2
48,344,73880,1,0
48,176,74280,1,0
48,176,74480,1,2
48,176,74680,1,0
216,176,75080,5,0
216,176,75280,1,2
216,176,75480,1,0
216,344,75880,1,0
216,344,76080,1,2
216,344,76280,1,0
304,344,76480,1,0
392,344,76680,5,0
480,344,76880,1,2
480,264,77080,1,0
480,96,77480,1,0
480,96,77680,1,2
480,96,77880,1,0
312,96,78280,5,0
232,96,78480,1,2
152,96,78680,1,0
16,192,79080,1,0
72,256,79280,1,2
128,320,79480,1,2
128,320,79680,1,2
48,344,79880,5,0
48,344,80080,1,2
48,344,80280,1,0
48,176,80680,1,0
48,176,80880,1,2
48,176,81080,1,0
216,176,81480,5,0
216,176,81680,1,2
216,176,81880,1,0
216,344,82280,1,0
216,344,82480,1,2
216,344,82680,1,0
304,344,82880,1,0
392,344,83080,5,0
480,344,83280,1,2
480,264,83480,1,0
480,96,83880,1,0
480,96,84080,1,2
480,96,84280,1,0
312,96,84680,5,0
232,96,84880,1,2
152,96,85080,1,0
16,192,85480,1,2
72,256,85680,1,2
128,320,85880,1,2
208,320,86080,1,2
256,376,86280,5,4
256,248,86580,1,0
256,248,86680,1,0
256,168,86880,1,0
256,88,87080,1,2
256,88,87480,1,2
88,88,87880,5,4
88,216,88180,1,0
88,216,88280,1,0
88,296,88480,1,0
88,376,88680,1,4
88,376,88880,1,4
88,376,89080,1,4
256,376,89480,5,4
424,376,89880,1,2
424,208,90280,1,4
256,208,90680,1,2
256,40,91080,1,4
256,40,91480,1,4
256,40,91880,1,6
256,40,92280,1,6
256,40,92680,5,4
72,328,93480,1,0
72,328,93680,1,0
72,328,93880,1,0
160,184,94280,5,4
472,320,95080,1,0
392,320,95280,1,0
312,320,95480,1,2
232,320,95680,1,2
152,320,95880,5,4
152,152,96280,1,6
312,152,96680,1,4
312,320,97080,1,6
480,320,97480,2,6,B|480:32,1,280
480,40,98680,1,6
16,48,99080,5,0
96,48,99280,2,0,B|176:48,1,70
336,48,99880,1,2
336,128,100080,2,2,B|256:128,1,70
112,192,100680,1,0
112,192,100880,1,0
192,192,101080,1,0
192,192,101180,1,0
192,192,101280,1,0
192,192,101380,1,0
192,192,101480,1,0
48,280,101880,1,0
216,280,102280,6,6,L|360:280,1,140
256,192,102880,1,0
256,192,102980,1,0
256,192,103080,1,0
