osu file format v7

[General]
AudioFilename: YAWARAKASE.mp3
AudioLeadIn: 0
PreviewTime: 15690
Countdown: 0
SampleSet: Normal
StackLeniency: 0.5
Mode: 0
LetterboxInBreaks: 0
SkinPreference:taiko

[Editor]
Bookmarks: 19080,30136,33336,36536,39736,46136,47736,51536,53480,58902,94136
DistanceSpacing: 1.13999998569489
BeatDivisor: 4
GridSize: 8

[Metadata]
Title:Yawaraka Sensha
Artist:Livedoor
Creator:Zekira
Version:Deathstream Inner Oni
Source:Taiko no Tatsujin
Tags:TaikOsu

[Difficulty]
HPDrainRate:3
CircleSize:5
OverallDifficulty:7
SliderMultiplier:1.4
SliderTickRate:1

[Events]
//Background and Video events
0,0,"yawaraka.jpg"
//Break Periods
2,54080,59780
//Storyboard Layer 0 (Background)
//Storyboard Layer 1 (Fail)
//Storyboard Layer 2 (Pass)
//Storyboard Layer 3 (Foreground)
//Storyboard Sound Samples
//Background Colour Transformations
3,100,255,255,128

[TimingPoints]
3080,400,4,1,1,80,1,0
41480,-100,4,1,1,80,0,1
54280,-100,4,1,1,80,0,0
86280,-100,4,1,1,80,0,1
102280,-50,4,1,1,80,0,1

[Colours]
Combo1 : 128,0,255
Combo2 : 243,89,34
Combo3 : 112,196,193
Combo4 : 0,255,0

[HitObjects]
24,359,3080,1,0
27,324,3180,1,0
33,289,3280,1,0
38,254,3380,1,0
44,219,3480,1,2
53,185,3580,1,2
70,154,3680,1,0
88,124,3780,1,0
111,97,3880,1,0
192,80,4080,5,0
272,80,4280,1,2
302,107,4380,1,2
339,125,4480,5,0
373,148,4580,1,0
390,185,4680,1,0
392,226,4780,1,0
370,262,4880,1,0
336,286,4980,1,0
295,295,5080,1,2
254,304,5180,1,2
212,310,5280,1,0
170,314,5380,1,0
129,304,5480,1,2
89,289,5580,1,2
67,252,5680,1,0
57,211,5780,1,0
60,166,5880,5,2
62,124,5980,1,2
52,83,6080,1,0
83,54,6180,1,0
123,44,6280,1,0
164,38,6380,1,0
205,36,6480,1,0
246,34,6580,1,0
287,32,6680,1,2
323,52,6780,1,2
359,73,6880,1,0
394,95,6980,1,0
431,114,7080,1,0
501,160,7280,1,0
441,219,7480,5,2
446,260,7580,1,2
419,292,7680,1,0
383,314,7780,1,0
342,325,7880,1,0
300,332,7980,1,0
264,310,8080,1,0
222,316,8180,1,0
181,326,8280,1,2
139,334,8380,1,2
101,314,8480,1,0
72,282,8580,1,0
56,243,8680,1,2
55,201,8780,1,2
55,159,8880,1,0
63,117,8980,1,0
95,90,9080,1,2
130,67,9180,1,2
136,108,9280,1,0
143,149,9380,1,0
143,190,9480,5,0
220,222,9680,1,2
259,235,9780,1,0
299,222,9880,1,2
327,143,10080,1,2
252,104,10280,1,0
184,40,10480,1,0
142,41,10580,1,2
100,41,10680,1,0
46,105,10880,1,0
33,190,11080,5,0
97,243,11280,1,2
138,316,11480,1,0
179,323,11580,1,2
220,326,11680,1,0
261,327,11780,1,2
302,328,11880,1,2
385,323,12080,1,2
422,247,12280,1,0
455,82,12680,5,0
430,115,12780,1,0
402,146,12880,1,0
377,179,12980,1,0
341,201,13080,1,2
305,223,13180,1,2
265,235,13280,1,2
224,245,13380,1,2
183,255,13480,1,0
100,271,13680,1,0
16,276,13880,5,2
11,234,13980,1,2
28,195,14080,1,2
20,153,14180,1,2
31,112,14280,1,0
65,87,14380,1,0
101,65,14480,1,0
140,51,14580,1,0
181,43,14680,1,2
217,63,14780,1,2
193,97,14880,1,2
163,126,14980,1,2
133,155,15080,1,0
130,238,15280,1,0
126,321,15480,1,2
96,32,15880,5,2
56,32,15980,1,2
24,56,16080,1,0
0,88,16180,1,0
0,128,16280,1,2
24,160,16380,1,2
56,184,16480,1,0
96,192,16580,1,0
136,192,16680,1,2
176,192,16780,1,2
208,168,16880,1,0
232,136,16980,1,0
232,96,17080,1,2
208,64,17180,1,2
176,40,17280,1,0
136,32,17380,1,0
96,32,17480,5,2
96,72,17580,1,2
96,112,17680,1,0
96,152,17780,1,0
96,192,17880,1,2
96,232,17980,1,2
96,272,18080,1,0
96,312,18180,1,0
136,312,18280,1,2
136,272,18380,1,2
136,232,18480,1,0
136,192,18580,1,0
136,152,18680,1,2
136,112,18780,1,2
136,72,18880,1,0
136,32,18980,1,0
176,32,19080,5,0
192,72,19180,1,0
208,112,19280,1,0
224,152,19380,1,0
240,192,19480,1,0
256,232,19580,1,0
272,272,19680,1,0
288,312,19780,1,0
328,312,19880,5,2
344,272,19980,1,2
360,232,20080,1,2
376,192,20180,1,2
392,152,20280,1,2
408,112,20380,1,2
424,72,20480,1,2
440,32,20580,1,2
400,32,20680,5,0
360,32,20780,1,0
320,32,20880,1,0
280,32,20980,1,0
240,32,21080,1,0
200,32,21180,1,0
160,32,21280,1,0
120,32,21380,1,0
80,32,21480,5,2
96,72,21580,1,2
80,112,21680,1,0
96,152,21780,1,0
80,192,21880,1,2
96,232,21980,1,2
80,272,22080,1,0
96,312,22180,1,0
136,312,22280,5,2
176,312,22380,1,2
216,304,22480,1,0
248,280,22580,1,0
280,256,22680,1,2
304,224,22780,1,2
320,184,22880,1,0
328,144,22980,1,0
336,104,23080,1,2
320,64,23180,1,2
288,40,23280,1,0
256,24,23380,1,0
216,24,23480,1,2
176,24,23580,1,2
136,24,23680,1,0
96,40,23780,1,0
96,80,23880,5,2
136,80,23980,1,2
176,80,24080,1,0
216,80,24180,1,0
256,80,24280,1,2
280,112,24380,1,2
272,152,24480,1,0
264,192,24580,1,0
248,232,24680,1,2
216,256,24780,1,2
184,272,24880,1,0
144,280,24980,1,0
104,280,25080,1,2
64,264,25180,1,2
56,224,25280,1,0
56,184,25380,1,0
16,184,25480,5,0
16,144,25580,1,0
16,104,25680,1,0
16,64,25780,1,0
56,64,25880,1,0
96,64,25980,1,0
136,64,26080,1,0
176,64,26180,1,0
216,64,26280,5,2
216,104,26380,1,2
216,144,26480,1,2
216,184,26580,1,2
176,184,26680,1,2
136,184,26780,1,2
96,184,26880,1,2
56,184,26980,1,2
16,184,27080,5,0
16,144,27180,1,0
16,104,27280,1,0
16,64,27380,1,0
56,64,27480,1,0
96,64,27580,1,0
136,64,27680,1,0
176,64,27780,1,0
216,64,27880,5,2
256,64,27980,1,2
296,64,28080,1,0
336,64,28180,1,0
376,64,28280,1,2
416,64,28380,1,2
456,64,28480,1,0
496,64,28580,1,0
512,104,28680,5,0
472,104,28780,1,0
432,104,28880,1,0
392,104,28980,1,0
368,136,29080,1,2
344,104,29180,1,0
304,104,29280,1,0
264,104,29380,1,0
240,136,29480,1,2
216,104,29580,1,0
176,104,29680,1,0
136,104,29780,1,0
112,136,29880,1,2
88,104,29980,1,0
48,104,30080,1,0
8,104,30180,1,0
32,72,30280,5,2
72,72,30380,1,0
112,72,30480,1,0
152,72,30580,1,0
152,32,30680,1,2
192,32,30780,1,0
232,32,30880,1,0
272,32,30980,1,0
272,72,31080,1,2
312,72,31180,1,0
352,72,31280,1,0
392,72,31380,1,0
392,32,31480,1,2
432,32,31580,1,0
472,32,31680,1,0
512,32,31780,1,0
512,72,31880,5,2
512,120,31980,1,2
512,160,32080,1,2
512,200,32180,1,2
472,200,32280,1,0
472,240,32380,1,2
472,280,32480,1,2
472,320,32580,1,2
432,320,32680,1,0
432,280,32780,1,2
432,240,32880,1,2
432,200,32980,1,2
392,200,33080,1,0
392,160,33180,1,2
392,120,33280,1,2
392,80,33380,1,2
352,80,33480,5,0
352,128,33580,1,2
352,168,33680,1,2
352,208,33780,1,2
312,208,33880,1,0
312,248,33980,1,2
312,288,34080,1,2
312,328,34180,1,2
272,328,34280,1,0
272,288,34380,1,2
272,248,34480,1,2
272,208,34580,1,2
232,208,34680,1,0
232,168,34780,1,2
232,128,34880,1,2
232,88,34980,1,2
192,88,35080,5,0
152,88,35180,1,0
112,88,35280,1,0
72,88,35380,1,0
48,56,35480,1,2
24,88,35580,1,0
24,128,35680,1,0
24,168,35780,1,0
48,200,35880,1,2
24,232,35980,1,0
24,272,36080,1,0
24,312,36180,1,0
48,344,36280,1,2
72,312,36380,1,0
72,272,36480,1,0
72,232,36580,1,0
48,200,36680,5,2
72,168,36780,1,0
72,128,36880,1,0
72,88,36980,1,0
40,64,37080,1,2
72,40,37180,1,0
112,40,37280,1,0
152,40,37380,1,0
184,64,37480,1,2
216,40,37580,1,0
256,40,37680,1,0
296,40,37780,1,0
328,64,37880,1,2
360,40,37980,1,0
400,40,38080,1,0
440,40,38180,1,0
440,80,38280,5,2
440,120,38380,1,2
440,160,38480,1,2
440,200,38580,1,2
400,200,38680,2,2,L|400:144,3,35,0|2|2|2
360,168,39080,1,0
360,208,39180,1,2
360,248,39280,1,2
360,288,39380,1,2
320,288,39480,2,2,L|320:232,3,35,0|2|2|2
280,248,39880,5,0
280,208,39980,1,2
280,168,40080,1,2
280,128,40180,1,2
240,128,40280,2,2,L|240:184,3,35,0|2|2|2
200,160,40680,1,0
200,120,40780,1,2
200,80,40880,1,2
200,40,40980,1,2
160,40,41080,2,2,L|160:96,3,35,0|2|2|2
120,80,41480,5,0
120,120,41580,1,0
120,160,41680,1,0
120,200,41780,1,0
160,200,41880,1,2
160,160,41980,1,2
160,120,42080,1,2
160,80,42180,1,2
200,80,42280,1,0
200,120,42380,1,0
200,160,42480,1,0
200,200,42580,1,0
240,200,42680,1,2
240,160,42780,1,2
240,120,42880,1,2
240,80,42980,1,2
280,80,43080,5,0
280,120,43180,1,0
280,160,43280,1,0
280,200,43380,1,0
320,200,43480,1,2
320,160,43580,1,2
320,120,43680,1,2
320,80,43780,1,2
360,80,43880,1,0
360,120,43980,1,0
360,160,44080,1,0
360,200,44180,1,0
400,200,44280,1,2
400,160,44380,1,2
400,120,44480,1,2
400,80,44580,1,2
440,80,44680,6,0,L|480:80,3,35
475,119,45080,2,2,L|431:121,3,35
440,160,45480,2,0,L|480:160,3,35
475,199,45880,2,2,L|431:201,3,35
440,240,46280,6,0,L|480:240,3,35
475,279,46680,2,2,L|431:281,3,35
440,320,47080,2,0,L|480:320,3,35
475,359,47480,2,2,L|431:361,3,35
400,360,47880,5,0
360,360,47980,1,0
320,360,48080,1,0
280,360,48180,1,0
240,360,48280,1,0
200,360,48380,1,0
160,360,48480,1,0
120,360,48580,1,0
120,320,48680,1,0
160,320,48780,1,0
200,320,48880,1,0
240,320,48980,1,0
280,320,49080,1,0
320,320,49180,1,0
360,320,49280,1,0
400,320,49380,1,0
400,280,49480,5,2
360,280,49580,1,2
320,280,49680,1,2
280,280,49780,1,2
240,280,49880,1,2
200,280,49980,1,2
160,280,50080,1,2
120,280,50180,1,2
120,240,50280,1,2
160,240,50380,1,2
200,240,50480,1,2
240,240,50580,1,2
280,240,50680,1,2
320,240,50780,1,2
360,240,50880,1,2
400,240,50980,1,2
400,200,51080,5,0
400,160,51180,1,0
360,160,51280,1,2
360,200,51380,1,2
320,200,51480,1,0
320,160,51580,1,0
280,160,51680,1,2
280,200,51780,1,2
240,200,51880,1,0
240,160,51980,1,0
200,160,52080,1,2
200,200,52180,1,2
160,200,52280,1,0
160,160,52380,1,0
120,160,52480,1,2
120,200,52580,1,2
80,200,52680,5,0
80,160,52780,1,0
40,160,52880,1,2
40,200,52980,1,2
0,200,53080,1,0
0,160,53180,1,0
0,120,53280,1,2
40,120,53380,1,2
80,120,53480,1,0
120,120,53580,1,2
160,120,53680,1,0
200,120,53780,1,2
240,120,53880,1,0
416,352,60680,5,2
456,352,60780,1,2
488,328,60880,1,0
512,296,60980,1,0
512,256,61080,1,2
488,224,61180,1,2
456,200,61280,1,0
416,192,61380,1,0
376,192,61480,1,2
336,192,61580,1,2
304,216,61680,1,0
280,248,61780,1,0
280,288,61880,1,2
304,320,61980,1,2
336,344,62080,1,0
376,352,62180,1,0
416,352,62280,5,2
416,312,62380,1,2
416,272,62480,1,0
416,232,62580,1,0
416,192,62680,1,2
416,152,62780,1,2
416,112,62880,1,0
416,72,62980,1,0
376,72,63080,1,2
376,112,63180,1,2
376,152,63280,1,0
376,192,63380,1,0
376,232,63480,1,2
376,272,63580,1,2
376,312,63680,1,0
376,352,63780,1,0
336,352,63880,5,0
320,312,63980,1,0
304,272,64080,1,0
288,232,64180,1,0
272,192,64280,1,0
256,152,64380,1,0
240,112,64480,1,0
224,72,64580,1,0
184,72,64680,5,2
168,112,64780,1,2
152,152,64880,1,2
136,192,64980,1,2
120,232,65080,1,2
104,272,65180,1,2
88,312,65280,1,2
72,352,65380,1,2
112,352,65480,5,0
152,352,65580,1,0
192,352,65680,1,0
232,352,65780,1,0
272,352,65880,1,0
312,352,65980,1,0
352,352,66080,1,0
392,352,66180,1,0
432,352,66280,5,2
416,312,66380,1,2
432,272,66480,1,0
416,232,66580,1,0
432,192,66680,1,2
416,152,66780,1,2
432,112,66880,1,0
416,72,66980,1,0
376,72,67080,5,2
336,72,67180,1,2
296,80,67280,1,0
264,104,67380,1,0
232,128,67480,1,2
208,160,67580,1,2
192,200,67680,1,0
184,240,67780,1,0
176,280,67880,1,2
192,320,67980,1,2
224,344,68080,1,0
256,360,68180,1,0
296,360,68280,1,2
336,360,68380,1,2
376,360,68480,1,0
416,344,68580,1,0
416,304,68680,5,2
376,304,68780,1,2
336,304,68880,1,0
296,304,68980,1,0
256,304,69080,1,2
232,272,69180,1,2
240,232,69280,1,0
248,192,69380,1,0
264,152,69480,1,2
296,128,69580,1,2
328,112,69680,1,0
368,104,69780,1,0
408,104,69880,1,2
448,120,69980,1,2
456,160,70080,1,0
456,200,70180,1,0
496,200,70280,5,0
496,240,70380,1,0
496,280,70480,1,0
496,320,70580,1,0
456,320,70680,1,0
416,320,70780,1,0
376,320,70880,1,0
336,320,70980,1,0
296,320,71080,5,2
296,280,71180,1,2
296,240,71280,1,2
296,200,71380,1,2
336,200,71480,1,2
376,200,71580,1,2
416,200,71680,1,2
456,200,71780,1,2
496,200,71880,5,0
496,240,71980,1,0
496,280,72080,1,0
496,320,72180,1,0
456,320,72280,1,0
416,320,72380,1,0
376,320,72480,1,0
336,320,72580,1,0
296,320,72680,5,2
256,320,72780,1,2
216,320,72880,1,0
176,320,72980,1,0
136,320,73080,1,2
96,320,73180,1,2
56,320,73280,1,0
16,320,73380,1,0
0,280,73480,5,0
40,280,73580,1,0
80,280,73680,1,0
120,280,73780,1,0
144,248,73880,1,2
168,280,73980,1,0
208,280,74080,1,0
248,280,74180,1,0
272,248,74280,1,2
296,280,74380,1,0
336,280,74480,1,0
376,280,74580,1,0
400,248,74680,1,2
424,280,74780,1,0
464,280,74880,1,0
504,280,74980,1,0
480,312,75080,5,2
440,312,75180,1,0
400,312,75280,1,0
360,312,75380,1,0
360,352,75480,1,2
320,352,75580,1,0
280,352,75680,1,0
240,352,75780,1,0
240,312,75880,1,2
200,312,75980,1,0
160,312,76080,1,0
120,312,76180,1,0
120,352,76280,1,2
80,352,76380,1,0
40,352,76480,1,0
0,352,76580,1,0
0,312,76680,5,2
0,264,76780,1,2
0,224,76880,1,2
0,184,76980,1,2
40,184,77080,1,0
40,144,77180,1,2
40,104,77280,1,2
40,64,77380,1,2
80,64,77480,1,0
80,104,77580,1,2
80,144,77680,1,2
80,184,77780,1,2
120,184,77880,1,0
120,224,77980,1,2
120,264,78080,1,2
120,304,78180,1,2
160,304,78280,5,0
160,256,78380,1,2
160,216,78480,1,2
160,176,78580,1,2
200,176,78680,1,0
200,136,78780,1,2
200,96,78880,1,2
200,56,78980,1,2
240,56,79080,1,0
240,96,79180,1,2
240,136,79280,1,2
240,176,79380,1,2
280,176,79480,1,0
280,216,79580,1,2
280,256,79680,1,2
280,296,79780,1,2
320,296,79880,5,0
360,296,79980,1,0
400,296,80080,1,0
440,296,80180,1,0
464,328,80280,1,2
488,296,80380,1,0
488,256,80480,1,0
488,216,80580,1,0
464,184,80680,1,2
488,152,80780,1,0
488,112,80880,1,0
488,72,80980,1,0
464,40,81080,1,2
440,72,81180,1,0
440,112,81280,1,0
440,152,81380,1,0
464,184,81480,5,2
440,216,81580,1,0
440,256,81680,1,0
440,296,81780,1,0
472,320,81880,1,2
440,344,81980,1,0
400,344,82080,1,0
360,344,82180,1,0
328,320,82280,1,2
296,344,82380,1,0
256,344,82480,1,0
216,344,82580,1,0
184,320,82680,1,2
152,344,82780,1,0
112,344,82880,1,0
72,344,82980,1,0
72,304,83080,5,2
72,264,83180,1,2
72,224,83280,1,2
72,184,83380,1,2
112,184,83480,2,2,L|112:240,3,35,0|2|2|2
152,216,83880,1,0
152,176,83980,1,2
152,136,84080,1,2
152,96,84180,1,2
192,96,84280,2,2,L|192:152,3,35,0|2|2|2
232,136,84680,5,0
232,176,84780,1,2
232,216,84880,1,2
232,256,84980,1,2
272,256,85080,2,2,L|272:200,3,35,0|2|2|2
312,224,85480,1,0
312,264,85580,1,2
312,304,85680,1,2
312,344,85780,1,2
352,344,85880,2,2,L|352:288,3,35,0|2|2|2
392,304,86280,5,0
392,264,86380,1,0
392,224,86480,1,0
392,184,86580,1,0
352,184,86680,1,2
352,224,86780,1,2
352,264,86880,1,2
352,304,86980,1,2
312,304,87080,1,0
312,264,87180,1,0
312,224,87280,1,0
312,184,87380,1,0
272,184,87480,1,2
272,224,87580,1,2
272,264,87680,1,2
272,304,87780,1,2
232,304,87880,5,0
232,264,87980,1,0
232,224,88080,1,0
232,184,88180,1,0
192,184,88280,1,2
192,224,88380,1,2
192,264,88480,1,2
192,304,88580,1,2
152,304,88680,1,0
152,264,88780,1,0
152,224,88880,1,0
152,184,88980,1,0
112,184,89080,1,2
112,224,89180,1,2
112,264,89280,1,2
112,304,89380,1,2
72,304,89480,6,0,L|32:304,3,35
37,265,89880,2,2,L|81:263,3,35
72,224,90280,2,0,L|32:224,3,35
37,185,90680,2,2,L|81:183,3,35
72,144,91080,6,0,L|32:144,3,35
37,105,91480,2,2,L|81:103,3,35
72,64,91880,2,0,L|32:64,3,35
37,25,92280,2,2,L|81:23,3,35
112,24,92680,5,0
152,24,92780,1,2
192,24,92880,1,0
232,24,92980,1,2
272,24,93080,1,0
312,24,93180,1,2
352,24,93280,1,0
392,24,93380,1,2
392,64,93480,1,0
352,64,93580,1,2
312,64,93680,1,0
272,64,93780,1,2
232,64,93880,1,0
192,64,93980,1,2
152,64,94080,1,0
112,64,94180,1,2
112,104,94280,5,0
152,104,94380,1,2
192,104,94480,1,0
232,104,94580,1,2
272,104,94680,1,0
312,104,94780,1,2
352,104,94880,1,0
392,104,94980,1,2
392,144,95080,1,0
352,144,95180,1,2
312,144,95280,1,0
272,144,95380,1,2
232,144,95480,1,0
192,144,95580,1,2
152,144,95680,1,0
112,144,95780,1,2
112,184,95880,5,0
112,224,95980,1,0
152,224,96080,1,2
152,184,96180,1,2
192,184,96280,1,0
192,224,96380,1,0
232,224,96480,1,2
232,184,96580,1,2
272,184,96680,1,0
272,224,96780,1,0
312,224,96880,1,2
312,184,96980,1,2
352,184,97080,1,0
352,224,97180,1,0
392,224,97280,1,2
392,184,97380,1,2
432,184,97480,5,0
432,224,97580,1,0
472,224,97680,1,2
472,184,97780,1,2
512,184,97880,1,0
512,224,97980,1,0
512,264,98080,1,2
472,264,98180,1,2
432,264,98280,1,0
392,264,98380,1,2
352,264,98480,1,0
312,264,98580,1,2
272,264,98680,1,0
272,162,99080,5,0
220,222,99280,1,2
259,235,99380,1,0
299,222,99480,1,2
327,143,99680,1,2
252,104,99880,1,0
184,48,100080,1,0
142,49,100180,1,2
100,49,100280,1,0
46,113,100480,1,0
33,190,100680,5,0
97,243,100880,1,2
138,316,101080,1,0
179,323,101180,1,2
220,326,101280,1,0
261,327,101380,1,2
302,328,101480,1,2
385,323,101680,1,2
422,247,101880,1,0
257,191,102280,1,6
45,54,102880,5,0
45,54,102980,1,0
45,54,103080,1,0
