osu file format v13

[General]
AudioFilename: Littlest Pet Shop Sweet Shop song With Captions lyrics.mp3
AudioLeadIn: 0
PreviewTime: -1
Countdown: 0
SampleSet: None
StackLeniency: 0.7
Mode: 0
LetterboxInBreaks: 1
WidescreenStoryboard: 1

[Editor]
DistanceSpacing: 0.8
BeatDivisor: 6
GridSize: 8
TimelineZoom: 1.8

[Metadata]
Title:The Sweet Shop
TitleUnicode:The Sweet Shop
Artist:Littlest Pet Shop Pets
ArtistUnicode:Littlest Pet Shop Pets
Creator:Poshi082
Version:Normal
Source:Littlest Pet Shop
Tags:LPS, Littlest, Pet, Shop, Sweet, Shop
BeatmapID:485251
BeatmapSetID:205633

[Difficulty]
HPDrainRate:4
CircleSize:3
OverallDifficulty:1
ApproachRate:6
SliderMultiplier:1.4
SliderTickRate:1

[Events]
//Background and Video events
0,0,"tutt.jpg",0,0
Video,0,"The Sweet Shop - Littlest Pet Shop.avi"
//Break Periods
//Storyboard Layer 0 (Background)
//Storyboard Layer 1 (Fail)
//Storyboard Layer 2 (Pass)
//Storyboard Layer 3 (Foreground)
//Storyboard Sound Samples
//Background Colour Transformations
3,100,163,162,255

[TimingPoints]
2758.52631578947,315.789473684211,4,2,0,54,1,0

[Colours]
Combo1 : 166,0,166
Combo2 : 232,232,0
Combo3 : 4,169,183
Combo4 : 69,67,67

[HitObjects]
112,96,4232,5,0,0:0:0:0:
112,200,4495,1,0,0:0:0:0:
208,72,4758,2,0,L|208:216,2,140,0|0|0,0:0|0:0|0:0,0:0:0:0:
152,264,5811,5,0,0:0:0:0:
272,192,6495,1,0,0:0:0:0:
376,142,6969,5,0,0:0:0:0:
384,232,7442,2,0,L|264:150,1,140,0|0,0:0|0:0,0:0:0:0:
72,272,8074,5,0,0:0:0:0:
200,264,8390,1,0,0:0:0:0:
304,224,8705,2,0,L|303:62,2,140,0|0|0,0:0|0:0|0:0,0:0:0:0:
312,64,9653,6,0,L|320:152,1,70,0|0,0:0|0:0,0:0:0:0:
248,200,10284,2,0,L|333:246,1,93.3333333333333,0|0,0:0|0:0,0:0:0:0:
160,160,10653,6,0,L|160:55,1,93.3333333333333,0|0,0:0|0:0,0:0:0:0:
160,64,10969,2,0,L|47:63,1,93.3333333333333,0|0,0:0|0:0,0:0:0:0:
120,160,11600,1,0,0:0:0:0:
112,56,12126,5,0,0:0:0:0:
208,32,12548,1,0,0:0:0:0:
208,32,12758,2,0,P|174:83|173:85,1,46.6666666666667,0|0,0:0|0:0,0:0:0:0:
152,184,13179,5,0,0:0:0:0:
152,184,13442,2,0,L|73:50,1,140,0|0,0:0|0:0,0:0:0:0:
392,80,14126,5,0,0:0:0:0:
256,80,14705,2,0,L|256:224,1,140,0|0,0:0|0:0,0:0:0:0:
56,144,15653,5,0,0:0:0:0:
168,144,16074,2,0,L|176:240,1,93.3333333333333,0|0,0:0|0:0,0:0:0:0:
128,184,16705,2,0,L|20:274,1,140,0|0,0:0|0:0,0:0:0:0:
281,287,17337,2,0,L|118:79,1,256.666666666667,0|0,0:0|0:0,0:0:0:0:
448,48,18284,5,0,0:0:0:0:
432,120,18626,2,0,P|368:112|288:104,1,140,0|0,0:0|0:0,0:0:0:0:
240,96,19232,2,0,P|160:80|104:144,1,163.333333333333,0|0,0:0|0:0,0:0:0:0:
200,192,19916,1,0,0:0:0:0:
88,48,20495,5,0,0:0:0:0:
96,184,20811,1,0,0:0:0:0:
256,64,21126,5,0,0:0:0:0:
240,176,21469,1,0,0:0:0:0:
424,224,21784,5,0,0:0:0:0:
336,272,22100,1,0,0:0:0:0:
328,168,22442,1,0,0:0:0:0:
72,296,23074,5,0,0:0:0:0:
160,280,23442,2,0,L|240:272,1,70,0|0,0:0|0:0,0:0:0:0:
312,264,24179,2,0,L|384:304,1,70,0|0,0:0|0:0,0:0:0:0:
392,224,24653,2,0,P|448:224|464:184,1,93.3333333333333,0|0,0:0|0:0,0:0:0:0:
448,120,24969,6,0,L|336:120,1,93.3333333333333,0|0,0:0|0:0,0:0:0:0:
56,264,25600,2,0,L|208:264,1,140,0|0,0:0|0:0,0:0:0:0:
196,264,26284,2,0,L|88:264,1,93.3333333333333,0|0,0:0|0:0,0:0:0:0:
112,184,27179,2,0,L|256:128,1,140,0|0,0:0|0:0,0:0:0:0:
256,192,27863,12,0,28495,0:0:0:0:
376,104,28811,6,0,L|376:216,1,93.3333333333333,0|0,0:0|0:0,0:0:0:0:
400,328,29442,6,0,L|400:200,1,116.666666666667,0|0,0:0|0:0,0:0:0:0:
304,232,30074,2,0,L|323:320,1,70,0|0,0:0|0:0,0:0:0:0:
200,240,30442,5,0,0:0:0:0:
72,88,30705,2,0,L|88:208,1,116.666666666667,0|0,0:0|0:0,0:0:0:0:
72,88,31337,2,0,L|232:80,1,140,0|0,0:0|0:0,0:0:0:0:
456,72,31969,2,0,L|352:72,1,93.3333333333333,0|0,0:0|0:0,0:0:0:0:
360,80,32337,6,0,L|357:152,1,70,0|0,0:0|0:0,0:0:0:0:
256,136,32653,5,0,0:0:0:0:
256,192,32863,12,0,33653,0:0:0:0:
104,280,33916,5,0,0:0:0:0:
128,192,34232,2,0,L|224:216,1,93.3333333333333,0|0,0:0|0:0,0:0:0:0:
264,320,35232,5,0,0:0:0:0:
368,320,35548,6,0,L|496:320,1,116.666666666667,0|0,0:0|0:0,0:0:0:0:
256,192,36074,12,0,38442,0:0:0:0:
400,64,38705,6,0,L|400:216,1,140
40,200,39390,6,0,L|40:56,1,140,0|0,0:0|0:0,0:0:0:0:
216,312,39969,6,0,L|304:312,1,70
280,224,40284,6,0,L|208:224,1,70,0|0,0:0|0:0,0:0:0:0:
256,192,40758,12,0,43495,0:0:0:0:
400,64,43811,6,0,L|400:216,1,140
40,64,44442,6,0,L|40:224,1,140,0|0,0:0|0:0,0:0:0:0:
280,296,45075,6,0,L|192:296,1,70
280,224,45390,6,0,L|208:224,1,70,0|0,0:0|0:0,0:0:0:0:
224,112,46074,5,0,0:0:0:0:
128,112,46390,1,0,0:0:0:0:
128,208,46705,5,0,0:0:0:0:
224,208,47021,1,0,0:0:0:0:
144,296,47390,6,0,L|232:296,2,70,0|0|0,0:0|0:0|0:0,0:0:0:0:
312,304,48074,1,0,0:0:0:0:
400,304,48284,1,0,0:0:0:0:
376,232,48548,5,0,0:0:0:0:
328,232,48916,1,0,0:0:0:0:
280,232,49232,1,0,0:0:0:0:
232,232,49548,1,0,0:0:0:0:
192,232,49863,5,0,0:0:0:0:
176,232,50074,5,0,0:0:0:0:
160,232,50232,5,0,0:0:0:0:
248,104,50495,6,0,L|248:144,4,23.3333333333333,0|0|0|0|0,0:0|0:0|0:0|0:0|0:0,0:0:0:0:
336,224,51179,2,0,L|424:280,1,93.3333333333333,0|0,0:0|0:0,0:0:0:0:
256,216,51811,2,0,L|168:272,1,93.3333333333333,0|0,0:0|0:0,0:0:0:0:
376,112,52442,5,0,0:0:0:0:
448,184,53074,1,0,0:0:0:0:
256,192,53284,12,0,54021,0:0:0:0:
136,96,54232,6,0,L|224:208,1,140,0|0,0:0|0:0,0:0:0:0:
368,192,54969,6,0,P|368:104|416:96,1,140,0|0,0:0|0:0,0:0:0:0:
248,128,55600,1,0,0:0:0:0:
288,296,56284,6,0,L|400:256,1,116.666666666667,0|0,0:0|0:0,0:0:0:0:
397,256,56863,1,0,0:0:0:0:
184,296,57548,2,0,L|88:320,1,93.3333333333333,0|0,0:0|0:0,0:0:0:0:
192,208,58179,2,0,L|280:248,1,93.3333333333333,0|0,0:0|0:0,0:0:0:0:
256,192,58548,12,0,59232,0:0:0:0:
352,344,59442,5,0,0:0:0:0:
312,272,59758,2,0,L|424:280,1,93.3333333333333,0|0,0:0|0:0,0:0:0:0:
112,216,60126,5,0,0:0:0:0:
192,112,60390,5,0,0:0:0:0:
272,216,60705,5,0,0:0:0:0:
256,296,61021,5,0,0:0:0:0:
208,248,61337,2,0,P|304:208|440:96,1,280,0|0,0:0|0:0,0:0:0:0:
64,96,62495,5,0,0:0:0:0:
56,192,62653,2,0,L|144:192,1,70,0|0,0:0|0:0,0:0:0:0:
126,192,62969,2,0,L|198:192,1,70
196,192,63284,1,0,0:0:0:0:
256,192,63653,12,0,64021,0:0:0:0:
176,304,64442,6,0,L|240:296,1,46.6666666666667,0|0,0:0|0:0,0:0:0:0:
222,298,64863,2,0,L|216:216,1,70,0|0,0:0|0:0,0:0:0:0:
224,208,65232,2,0,L|302:167,1,70,0|0,0:0|0:0,0:0:0:0:
216,120,65495,2,0,L|288:176,1,70,0|0,0:0|0:0,0:0:0:0:
320,112,65863,2,0,L|265:173,1,70,0|0,0:0|0:0,0:0:0:0:
256,192,66126,5,0,0:0:0:0:
80,88,66442,6,0,P|88:168|152:256,1,186.666666666667,0|0,0:0|0:0,0:0:0:0:
152,248,67074,2,0,P|200:128|200:112,1,140,0|0,0:0|0:0,0:0:0:0:
112,176,67600,5,0,0:0:0:0:
416,160,67758,6,0,L|368:208,1,46.6666666666667,0|0,0:0|0:0,0:0:0:0:
488,216,68390,2,0,L|457:262,1,46.6666666666667,0|0,0:0|0:0,0:0:0:0:
256,192,68653,12,0,69495,0:0:0:0:
152,48,69653,6,0,L|80:128,1,93.3333333333333,0|0,0:0|0:0,0:0:0:0:
161,176,70284,2,0,L|88:264,1,93.3333333333333,0|0,0:0|0:0,0:0:0:0:
42,209,70969,2,0,L|56:128,1,70,0|0,0:0|0:0,0:0:0:0:
53,140,71284,2,0,L|48:64,1,70,0|0,0:0|0:0,0:0:0:0:
256,192,71811,12,0,74811,0:0:0:0:
