osu file format v13

[General]
AudioFilename: Littlest Pet Shop Sweet Shop song With Captions lyrics.mp3
AudioLeadIn: 0
PreviewTime: -1
Countdown: 0
SampleSet: None
StackLeniency: 0.7
Mode: 0
LetterboxInBreaks: 1
WidescreenStoryboard: 0

[Editor]
DistanceSpacing: 0.8
BeatDivisor: 6
GridSize: 8
TimelineZoom: 1.8

[Metadata]
Title:The Sweet Shop
TitleUnicode:The Sweet Shop
Artist:Littlest Pet Shop Pets
ArtistUnicode:Littlest Pet Shop Pets
Creator:Poshi082
Version:Insane
Source:Littlest Pet Shop
Tags:LPS, Littlest, Pet, Shop, Sweet, Shop
BeatmapID:485250
BeatmapSetID:205633

[Difficulty]
HPDrainRate:8
CircleSize:4
OverallDifficulty:1
ApproachRate:8
SliderMultiplier:1.4
SliderTickRate:1

[Events]
//Background and Video events
0,0,"tutt.jpg",0,0
Video,0,"The Sweet Shop - Littlest Pet Shop.avi"
//Break Periods
//Storyboard Layer 0 (Background)
//Storyboard Layer 1 (Fail)
//Storyboard Layer 2 (Pass)
//Storyboard Layer 3 (Foreground)
//Storyboard Sound Samples
//Background Colour Transformations
3,100,163,162,255

[TimingPoints]
2758.52631578947,315.789473684211,4,2,0,54,1,0

[Colours]
Combo1 : 166,0,166
Combo2 : 232,232,0
Combo3 : 4,169,183
Combo4 : 69,67,67

[HitObjects]
168,152,4232,5,0,0:0:0:0:
328,48,4495,1,0,0:0:0:0:
407,208,4758,2,0,L|287:304,2,140,0|0|0,0:0|0:0|0:0,0:0:0:0:
408,208,5548,1,0,0:0:0:0:
152,264,5811,1,0,0:0:0:0:
144,128,6179,1,0,0:0:0:0:
272,192,6495,1,0,0:0:0:0:
376,142,6969,5,0,0:0:0:0:
387,247,7126,1,0,0:0:0:0:
337,318,7442,2,0,L|217:236,1,140,0|0,0:0|0:0,0:0:0:0:
221,239,7969,1,0,0:0:0:0:
96,184,8074,5,0,0:0:0:0:
157,92,8284,1,0,0:0:0:0:
232,172,8390,1,0,0:0:0:0:
354,235,8705,2,0,L|353:73,2,140,0|0|0,0:0|0:0|0:0,0:0:0:0:
35,210,9653,6,0,L|144:231,1,93.3333333333333,0|0,0:0|0:0,0:0:0:0:
126,227,9969,2,0,L|221:188,1,93.3333333333333,0|0,0:0|0:0,0:0:0:0:
211,191,10284,2,0,L|296:237,1,93.3333333333333,0|0,0:0|0:0,0:0:0:0:
424,248,10653,6,0,L|424:143,1,93.3333333333333,0|0,0:0|0:0,0:0:0:0:
420,153,10969,2,0,L|307:152,1,93.3333333333333,0|0,0:0|0:0,0:0:0:0:
326,152,11337,1,0,0:0:0:0:
76,321,11600,1,0,0:0:0:0:
412,64,12126,5,0,0:0:0:0:
412,64,12232,2,0,P|390:135|368:135,1,93.3333333333333,0|0,0:0|0:0,0:0:0:0:
385,135,12548,1,0,0:0:0:0:
385,135,12758,2,0,P|351:186|350:188,1,46.6666666666667,0|0,0:0|0:0,0:0:0:0:
308,253,13179,5,0,0:0:0:0:
220,300,13442,2,0,L|141:166,1,140,0|0,0:0|0:0,0:0:0:0:
186,102,14126,5,0,0:0:0:0:
272,153,14337,1,0,0:0:0:0:
94,208,14705,2,0,L|240:269,1,140,0|0,0:0|0:0,0:0:0:0:
428,74,15653,5,0,0:0:0:0:
428,74,15758,2,0,L|295:158,1,140,0|0,0:0|0:0,0:0:0:0:
309,148,16284,1,0,0:0:0:0:
309,148,16390,6,0,L|399:205,1,93.3333333333333,0|0,0:0|0:0,0:0:0:0:
388,198,16705,6,0,L|280:288,1,140,0|0,0:0|0:0,0:0:0:0:
281,287,17337,6,0,L|118:79,1,256.666666666667,0|0,0:0|0:0,0:0:0:0:
320,136,18284,5,0,0:0:0:0:
408,192,18495,1,0,0:0:0:0:
320,224,18626,2,0,P|256:216|256:208,1,87.5,0|0,0:0|0:0,0:0:0:0:
256,216,18916,5,0,0:0:0:0:
256,216,19232,2,0,P|176:200|168:208,1,93.3333333333333,0|0,0:0|0:0,0:0:0:0:
176,200,19600,1,0,0:0:0:0:
176,200,19916,2,0,L|176:72,1,116.666666666667,0|0,0:0|0:0,0:0:0:0:
288,80,20495,5,0,0:0:0:0:
376,104,20811,1,0,0:0:0:0:
64,248,21126,5,0,0:0:0:0:
136,296,21337,1,0,0:0:0:0:
48,336,21469,1,0,0:0:0:0:
424,224,21784,5,0,0:0:0:0:
432,312,21982,1,0,0:0:0:0:
336,272,22100,1,0,0:0:0:0:
328,168,22284,1,0,0:0:0:0:
240,176,22442,2,0,L|240:264,2,70,0|0|0,0:0|0:0|0:0,0:0:0:0:
144,96,23074,5,0,0:0:0:0:
304,192,23337,1,0,0:0:0:0:
176,216,23442,2,0,L|224:160,1,70,0|0,0:0|0:0,0:0:0:0:
272,88,23705,1,0,0:0:0:0:
272,88,23863,2,0,L|344:128,1,70,0|0,0:0|0:0,0:0:0:0:
333,121,24179,1,0,0:0:0:0:
56,72,24337,6,0,P|72:112|120:120,1,93.3333333333333,0|0,0:0|0:0,0:0:0:0:
192,88,24653,2,0,P|248:88|264:112,1,70,0|0,0:0|0:0,0:0:0:0:
408,328,24969,6,0,L|296:328,1,93.3333333333333,0|0,0:0|0:0,0:0:0:0:
176,192,25284,5,0,0:0:0:0:
128,80,25600,2,0,L|280:80,1,140,0|0,0:0|0:0,0:0:0:0:
272,80,26284,2,0,L|272:192,1,93.3333333333333,0|0,0:0|0:0,0:0:0:0:
368,200,26758,1,0,0:0:0:0:
104,192,26916,6,0,L|96:256,1,46.6666666666667,0|0,0:0|0:0,0:0:0:0:
176,248,27179,2,0,L|184:200,1,46.6666666666667,0|0,0:0|0:0,0:0:0:0:
424,64,27548,6,0,L|344:136,1,93.3333333333333,0|0,0:0|0:0,0:0:0:0:
256,192,27863,12,0,28495,0:0:0:0:
320,168,28705,5,0,0:0:0:0:
240,168,28811,2,0,L|240:232,1,46.6666666666667,0|0,0:0|0:0,0:0:0:0:
240,214,29021,1,0,0:0:0:0:
240,214,29126,2,0,L|168:264,1,70,0|0,0:0|0:0,0:0:0:0:
182,254,29337,1,0,0:0:0:0:
104,256,29442,6,0,L|104:128,1,116.666666666667,0|0,0:0|0:0,0:0:0:0:
104,139,29758,6,0,L|216:136,1,93.3333333333333,0|0,0:0|0:0,0:0:0:0:
197,136,30074,6,0,L|216:224,1,70,0|0,0:0|0:0,0:0:0:0:
352,80,30442,5,0,0:0:0:0:
248,72,30705,2,0,L|264:192,1,116.666666666667,0|0,0:0|0:0,0:0:0:0:
136,136,31337,2,0,L|296:128,1,140,0|0,0:0|0:0,0:0:0:0:
344,160,31863,5,0,0:0:0:0:
344,248,31969,2,0,L|240:248,1,93.3333333333333,0|0,0:0|0:0,0:0:0:0:
256,248,32337,6,0,L|253:320,1,70,0|0,0:0|0:0,0:0:0:0:
253,317,32653,5,0,0:0:0:0:
256,192,32863,12,0,33653,0:0:0:0:
128,80,33916,5,0,0:0:0:0:
240,104,34126,1,0,0:0:0:0:
144,160,34232,2,0,L|240:184,1,93.3333333333333,0|0,0:0|0:0,0:0:0:0:
440,72,34548,6,0,L|440:184,1,93.3333333333333,0|0,0:0|0:0,0:0:0:0:
360,168,34863,2,0,L|360:72,1,93.3333333333333,0|0,0:0|0:0,0:0:0:0:
240,144,35232,5,0,0:0:0:0:
144,88,35548,6,0,L|256:152,1,116.666666666667,0|0,0:0|0:0,0:0:0:0:
256,192,36074,12,0,38442,0:0:0:0:
400,64,38705,6,0,L|400:216,1,140
40,200,39390,6,0,L|40:56,1,140,0|0,0:0|0:0,0:0:0:0:
216,312,39969,6,0,L|304:312,1,70
280,224,40284,6,0,L|208:224,1,70,0|0,0:0|0:0,0:0:0:0:
256,192,40758,12,0,43495,0:0:0:0:
400,64,43811,6,0,L|400:216,1,140
40,64,44442,6,0,L|40:224,1,140,0|0,0:0|0:0,0:0:0:0:
280,296,45075,6,0,L|192:296,1,70
280,224,45390,6,0,L|208:224,1,70,0|0,0:0|0:0,0:0:0:0:
56,248,46074,5,0,0:0:0:0:
120,312,46284,1,0,0:0:0:0:
144,232,46390,1,0,0:0:0:0:
432,72,46705,5,0,0:0:0:0:
352,112,46863,1,0,0:0:0:0:
424,168,47021,1,0,0:0:0:0:
80,40,47390,6,0,L|80:128,2,70,0|0|0,0:0|0:0|0:0,0:0:0:0:
200,40,47969,1,0,0:0:0:0:
160,120,48074,1,0,0:0:0:0:
352,112,48284,1,0,0:0:0:0:
120,144,48548,5,0,0:0:0:0:
144,144,48758,5,0,0:0:0:0:
168,144,48916,5,0,0:0:0:0:
200,144,49074,5,0,0:0:0:0:
224,144,49232,5,0,0:0:0:0:
256,144,49390,5,0,0:0:0:0:
280,144,49548,5,0,0:0:0:0:
304,144,49705,5,0,0:0:0:0:
328,144,49863,5,0,0:0:0:0:
352,144,50074,5,0,0:0:0:0:
368,144,50232,5,0,0:0:0:0:
248,104,50495,6,0,L|248:144,4,23.3333333333333,0|0|0|0|0,0:0|0:0|0:0|0:0|0:0,0:0:0:0:
72,88,50811,5,0,0:0:0:0:
32,168,51179,2,0,L|120:224,1,93.3333333333333,0|0,0:0|0:0,0:0:0:0:
272,144,51811,2,0,L|184:200,1,93.3333333333333,0|0,0:0|0:0,0:0:0:0:
96,224,52442,5,0,0:0:0:0:
176,296,52758,1,0,0:0:0:0:
208,192,53074,1,0,0:0:0:0:
256,192,53284,12,0,54021,0:0:0:0:
152,104,54232,6,0,L|192:152,1,46.6666666666667,0|0,0:0|0:0,0:0:0:0:
208,200,54548,2,0,L|152:224,1,46.6666666666667,0|0,0:0|0:0,0:0:0:0:
384,280,54969,6,0,P|384:192|392:128,1,140,0|0,0:0|0:0,0:0:0:0:
280,176,55600,1,0,0:0:0:0:
128,160,55916,5,0,0:0:0:0:
56,264,56284,6,0,L|176:280,1,116.666666666667,0|0,0:0|0:0,0:0:0:0:
256,224,56863,1,0,0:0:0:0:
256,224,57390,1,0,0:0:0:0:
176,200,57548,2,0,L|88:160,1,93.3333333333333,0|0,0:0|0:0,0:0:0:0:
208,128,57863,2,0,L|120:96,1,93.3333333333333,0|0,0:0|0:0,0:0:0:0:
160,24,58179,2,0,L|248:64,1,93.3333333333333,0|0,0:0|0:0,0:0:0:0:
256,192,58548,12,0,59232,0:0:0:0:
160,136,59442,5,0,0:0:0:0:
272,152,59653,1,0,0:0:0:0:
208,224,59758,2,0,L|320:232,1,93.3333333333333,0|0,0:0|0:0,0:0:0:0:
424,72,60126,5,0,0:0:0:0:
48,56,60390,5,0,0:0:0:0:
256,192,60705,5,0,0:0:0:0:
88,328,61021,5,0,0:0:0:0:
176,320,61337,2,0,P|272:280|288:104,1,280,0|0,0:0|0:0,0:0:0:0:
64,96,62495,5,0,0:0:0:0:
56,192,62653,2,0,L|144:192,1,70,0|0,0:0|0:0,0:0:0:0:
264,192,62969,2,0,L|336:192,1,70
496,200,63284,2,0,L|416:200,1,70,0|0,0:0|0:0,0:0:0:0:
256,192,63653,12,0,64021,0:0:0:0:
128,192,64442,6,0,L|192:184,1,46.6666666666667,0|0,0:0|0:0,0:0:0:0:
176,184,64758,1,0,0:0:0:0:
176,184,64863,2,0,L|248:160,1,70,0|0,0:0|0:0,0:0:0:0:
242,161,65074,1,0,0:0:0:0:
242,161,65232,2,0,L|320:120,1,70,0|0,0:0|0:0,0:0:0:0:
304,128,65495,2,0,L|376:184,1,70,0|0,0:0|0:0,0:0:0:0:
359,171,65863,2,0,L|304:232,1,70,0|0,0:0|0:0,0:0:0:0:
256,192,66126,5,0,0:0:0:0:
64,48,66442,6,0,P|72:128|136:216,1,186.666666666667,0|0,0:0|0:0,0:0:0:0:
360,216,67074,2,0,P|408:96|408:80,1,140,0|0,0:0|0:0,0:0:0:0:
256,192,67600,5,0,0:0:0:0:
136,56,67758,6,0,L|88:104,1,46.6666666666667,0|0,0:0|0:0,0:0:0:0:
103,88,68074,2,0,L|152:120,1,46.6666666666667,0|0,0:0|0:0,0:0:0:0:
136,112,68390,2,0,L|105:158,1,46.6666666666667,0|0,0:0|0:0,0:0:0:0:
256,192,68653,12,0,69495,0:0:0:0:
368,80,69653,6,0,L|296:160,1,93.3333333333333,0|0,0:0|0:0,0:0:0:0:
305,149,69969,2,0,L|393:221,1,93.3333333333333,0|0,0:0|0:0,0:0:0:0:
377,208,70284,2,0,L|304:296,1,93.3333333333333,0|0,0:0|0:0,0:0:0:0:
317,279,70600,2,0,L|256:240,1,70,0|0,0:0|0:0,0:0:0:0:
258,241,70969,2,0,L|184:288,1,70,0|0,0:0|0:0,0:0:0:0:
199,278,71284,2,0,L|144:216,1,70,0|0,0:0|0:0,0:0:0:0:
256,192,71600,5,0,0:0:0:0:
256,192,71811,12,0,74811,0:0:0:0:
