osu file format v6

[General]
AudioFilename: YouTube- BROOKLYN RAGE~!.mp3
AudioLeadIn: 0
PreviewTime: -1
Countdown: 0
SampleSet: Normal
StackLeniency: 0.3
Mode: 0
LetterboxInBreaks: 1

[Editor]
DistanceSpacing: 0.800000011920929
BeatDivisor: 2
GridSize: 32

[Metadata]
Title:BROOKLYN RAGE~!
Artist:LittleKuriboh
Creator:EnPassant
Version:Egyptian Rage!
Source:
Tags:

[Difficulty]
HPDrainRate:4
CircleSize:4
OverallDifficulty:2
SliderMultiplier:1
SliderTickRate:2

[Events]
//Background and Video events
Video,0,"Brooklyn Rage!.wmv"
//Break Periods
2,22989,24507
//Storyboard Layer 0 (Background)
//Storyboard Layer 1 (Fail)
//Storyboard Layer 2 (Pass)
//Storyboard Layer 3 (Foreground)
//Storyboard Sound Samples
//Background Colour Transformations
3,100,163,162,255

[TimingPoints]
10683.3511077231,504.413619167718,4,1,1,59,1,0
26761,-100,4,1,1,59,0,0
172347,-100,4,2,1,59,0,0
180166,-100,4,1,1,59,0,0

[Colours]
Combo1 : 255,0,0
Combo2 : 55,28,0
Combo3 : 0,0,0
Combo4 : 255,128,0

[HitObjects]
64,64,10683,1,0
192,64,11187,1,0
320,64,11692,1,0
448,64,12196,1,0
448,192,12701,5,0
320,192,13205,1,0
192,192,13709,1,0
64,192,14214,1,0
64,320,14718,5,0
192,320,15223,1,0
320,320,15727,1,0
448,320,16231,1,0
448,192,16736,5,0
320,192,17240,1,0
128,192,17997,2,0,B|96:256,1,50
64,192,18501,2,0,B|96:128,1,50
256,192,19258,12,4,21276
256,192,22032,5,0
256,192,22284,1,0
256,192,22537,1,0
256,192,22789,1,0
224,224,26067,5,0
224,224,26320,1,0
224,224,26572,1,0
224,224,26824,1,4
256,128,27329,5,8
384,128,27833,1,0
384,256,28337,1,8
256,256,28842,1,0
128,256,29346,1,8
192,128,30103,5,0
192,128,30355,1,0
192,128,30607,5,0
192,128,30859,1,0
352,192,31364,5,8
352,64,31868,1,0
224,64,32373,1,8
96,64,32877,1,0
96,192,33381,1,8
160,320,34138,6,0,B|224:256,1,50
224,256,34642,2,0,B|224:192,1,50
192,160,35147,6,0,B|128:224,2,50
256,128,35904,2,0,B|256:224,3,50
320,160,36912,2,0,B|256:224,1,50,0|8
256,224,37417,1,0
256,224,37669,1,0
256,224,37921,1,8
288,32,38930,6,8,B|352:64,1,50
288,96,39434,1,0
288,96,39687,1,8
288,160,39939,6,8,B|224:192,1,50
288,224,40443,1,0
288,224,40695,1,8
288,288,40948,2,8,B|224:320,1,50
192,320,41452,2,8,B|160:256,1,50
224,256,41956,1,8
224,224,42209,6,0,B|224:160,3,50,0|0|8|0
160,160,43218,6,0,B|160:96,1,50
224,128,43722,2,0,B|256:64,1,50,8|0
288,64,44226,2,0,B|320:128,1,50
384,128,44731,2,0,B|416:64,1,50,8|0
480,64,45235,2,0,B|448:128,1,50
448,160,45740,2,0,B|384:192,1,50,8|0
192,160,46748,5,0
192,160,47001,1,0
192,160,47253,1,0
256,192,47505,2,8,B|256:96,1,50
224,96,48009,6,0,B|320:96,1,50
320,96,48514,2,0,B|384:128,1,50
384,160,49018,1,0
352,192,49270,5,0
320,224,49523,2,0,B|256:256,1,50
256,192,50027,1,0
256,64,51036,6,0,B|128:192,1,150
160,256,52045,2,0,B|256:160,3,100
288,192,53810,2,0,B|320:128,2,50
256,224,54567,2,0,B|320:256,1,50
320,288,55071,6,0,B|384:352,2,50
256,288,55828,2,0,B|160:288,1,50
160,128,56837,1,0
192,192,57089,2,0,B|128:192,1,50
128,256,57593,2,0,B|192:256,1,50
384,320,59107,2,0,B|256:192|256:192|256:192,1,150
288,128,60115,2,0,B|384:224,2,100
128,192,61881,6,0,B|192:256,1,50
224,256,62385,2,0,B|288:192,1,50
288,160,62890,2,0,B|224:128,1,50
192,160,63394,6,0,B|128:128,1,50
128,96,63898,1,0
160,64,64151,1,0
256,256,64907,2,0,B|224:192,1,50
256,160,65412,2,0,B|320:160,1,50
320,224,65916,1,0
288,96,67429,5,2
256,128,67682,1,2
224,96,67934,1,2
224,224,68438,5,2
256,256,68690,1,2
288,224,68943,1,2
256,128,69447,5,4
224,160,69699,1,4
256,192,69951,1,4
288,160,70204,1,4
192,192,70708,5,4
256,128,71212,1,4
320,192,71717,1,4
352,192,71969,1,4
160,96,73230,2,0,B|224:160,1,50
256,96,73735,2,0,B|320:160,1,50
224,128,74239,2,0,B|288:64,1,50
320,128,74743,2,0,B|384:64,1,50
352,160,75500,5,0
320,192,75752,1,0
352,224,76004,1,0
224,160,76509,1,0
192,192,76761,1,0
224,224,77013,1,0
256,128,77518,1,0
288,160,77770,1,0
288,224,78022,1,0
256,256,78274,1,0
256,256,78779,5,0
256,128,79283,1,0
192,192,79788,1,0
128,192,80040,1,0
256,32,81301,6,0,B|192:96,1,50
224,128,81805,2,0,B|288:192,1,50
256,192,82310,2,0,B|192:256,1,50
224,288,82814,2,0,B|288:352,1,50
192,128,83571,5,0
224,160,83823,1,0
256,192,84075,1,0
288,224,84327,2,0,B|352:224,2,50
256,256,85084,1,0
224,288,85336,1,0
192,320,85588,2,0,B|128:320,2,50
352,224,86597,5,0
352,224,86849,1,0
352,224,87102,1,0
352,224,87354,1,0
320,256,87606,5,0
288,288,87858,1,0
256,320,88110,1,0
224,352,88363,2,0,B|224:288,2,50
192,320,89119,1,0
160,288,89371,1,0
128,256,89624,2,0,B|64:256,2,50
256,96,90632,5,0
288,128,90885,1,0
256,160,91137,1,0
224,192,91389,1,0
192,160,91641,5,0
160,192,91893,2,0,B|96:256,1,50
128,256,92398,2,0,B|192:320,1,50
224,320,92902,1,0
256,288,93154,6,0,B|320:224,1,50
320,224,93659,1,0
352,192,93911,2,0,B|416:256,1,50
416,256,94416,1,0
256,32,95677,6,0,B|256:96,1,50
256,128,96181,2,0,B|256:224,1,50
256,224,96685,2,0,B|256:288,1,50
256,320,97190,2,0,B|256:384,1,50
320,352,97694,2,0,B|384:288,1,50
384,256,98199,2,0,B|320:192,1,50
320,192,98703,5,0
256,224,98955,2,0,B|256:320,1,50
256,192,99712,6,0,B|192:160,1,50
160,160,100216,2,0,B|128:224,1,50
128,256,100721,2,0,B|192:288,1,50
224,288,101225,2,0,B|256:224,1,50
256,192,101730,2,0,B|160:192,2,50
320,224,102486,1,0
256,32,103243,5,0
224,96,103495,2,0,B|288:96,1,50
288,160,103999,2,0,B|224:160,1,50
192,192,104504,5,0
224,224,104756,1,0
256,256,105008,1,0
288,224,105260,1,0
320,192,105513,1,0
288,160,105765,2,0,B|256:96,1,50
224,160,106269,2,0,B|256:96,1,50
256,160,107026,5,6
256,32,107530,6,0,B|448:32,1,150
448,64,108539,2,0,B|352:160,1,100
288,96,109548,1,0
224,160,110305,2,0,B|160:224,1,50
160,224,110809,2,0,B|224:288,1,50
224,224,111313,2,0,B|288:160,1,50
288,128,111818,5,0
320,160,112070,1,0
352,192,112322,1,0
384,224,112574,1,0
224,128,113331,5,0
192,160,113583,1,0
160,192,113835,1,0
128,224,114088,2,0,B|128:288,1,50
256,352,115601,6,0,B|128:224,1,150
192,224,116610,1,0
160,320,117114,1,0
256,288,117619,1,0
320,96,118375,5,0
288,64,118627,2,0,B|224:128,1,50
224,64,119132,2,0,B|160:128,1,50
160,128,119636,1,0
192,160,119888,5,0
224,192,120141,1,0
288,192,120393,1,0
320,160,120645,1,0
384,224,121402,6,0,B|416:288,1,50
352,288,121906,1,0
320,256,122158,1,0
288,224,122410,1,0
224,160,123924,5,2
256,192,124176,1,2
288,224,124428,1,2
320,128,124933,5,2
288,160,125185,1,2
256,192,125437,1,2
320,128,125941,5,0
352,160,126194,1,0
384,192,126446,1,0
352,224,126698,1,0
256,320,127202,1,4
160,224,127707,1,4
256,192,128211,5,4
256,160,128463,1,0
288,64,129724,5,2
256,96,129977,1,0
224,128,130229,1,2
256,160,130481,1,0
256,224,130733,1,2
288,256,130985,1,0
256,288,131238,1,2
224,320,131490,1,0
224,128,131994,5,2
192,160,132247,1,2
224,192,132499,1,2
288,128,133003,5,2
320,160,133255,1,2
288,192,133508,1,2
192,160,134012,5,0
224,160,134264,1,0
256,160,134516,1,0
288,160,134769,1,0
416,160,135273,1,4
320,96,135777,1,4
320,224,136282,1,4
288,192,136534,1,4
288,224,137795,5,4
320,192,138047,1,0
320,160,138299,1,4
288,128,138552,1,0
256,128,138804,1,4
224,160,139056,1,0
224,192,139308,1,4
256,224,139561,1,0
352,64,140065,5,0
320,64,140317,1,0
288,64,140569,1,0
256,64,140822,2,0,B|288:128,2,50
320,128,141578,5,0
352,96,141830,1,0
384,64,142083,2,0,B|448:64,2,50
288,192,143091,5,2
320,224,143344,1,2
288,256,143596,1,2
256,288,143848,1,2
224,256,144100,5,0
192,288,144352,1,0
160,320,144605,1,0
128,288,144857,2,0,B|64:352,2,50
96,256,145613,1,0
128,224,145866,1,0
160,192,146118,2,0,B|224:128,2,50
160,128,147127,5,2
192,96,147379,1,2
224,128,147631,1,2
256,96,147883,2,0,B|352:224,1,150
320,256,148892,2,0,B|192:256,1,100
192,288,149901,2,0,B|96:128,1,150
96,128,150910,2,0,B|160:64,1,50
160,64,151414,2,0,B|224:128,1,50
224,128,151919,2,0,B|96:256,1,150
96,256,152927,2,0,B|224:256,1,100
224,224,153936,2,0,B|352:96,1,150
256,32,155450,5,0
224,64,155702,1,0
192,96,155954,2,0,B|256:96,1,50
256,128,156458,1,0
224,160,156711,1,0
192,192,156963,2,0,B|288:192,1,50
288,224,157467,5,0
256,256,157719,1,0
224,288,157972,2,0,B|320:288,1,50
320,256,158476,5,0
288,224,158728,1,0
256,192,158980,2,0,B|320:192,1,50
320,160,159485,1,0
288,128,159737,1,0
256,96,159989,2,0,B|320:96,1,50
320,64,160494,5,0
352,96,160746,1,0
384,128,160998,2,0,B|320:128,1,50
320,160,161503,1,0
352,192,161755,1,0
384,224,162007,2,0,B|320:224,1,50
288,256,162511,5,0
256,224,162764,1,0
224,256,163016,1,0
256,224,163268,1,0
256,192,163520,1,0
256,224,163772,1,6
320,160,164529,5,8
288,192,164781,1,8
256,224,165033,1,8
224,192,165286,1,8
192,160,165538,1,8
224,128,165790,1,8
256,96,166042,1,8
288,128,166294,1,12
256,160,166547,5,8
224,192,166799,1,8
192,224,167051,1,8
224,256,167303,1,8
256,288,167555,1,8
288,256,167808,1,8
320,224,168060,1,8
288,192,168312,1,12
256,224,168564,5,8
288,256,168817,1,8
320,288,169069,1,8
352,320,169321,1,2
384,352,169573,1,4
416,320,169825,5,8
448,288,170078,1,2
480,256,170330,1,4
448,224,170582,5,8
416,256,170834,1,2
384,288,171086,1,4
352,256,171339,1,8
320,224,171591,1,8
288,192,171843,1,8
256,160,172095,1,8
256,160,172347,5,6
224,192,172600,5,0
192,224,172852,1,0
288,128,173356,5,0
320,96,173608,1,0
352,64,173861,1,0
288,160,174365,5,2
320,192,174617,1,2
352,224,174869,1,2
384,256,175122,1,2
256,256,175626,1,2
256,128,176131,5,4
192,192,176635,1,4
160,192,176887,1,4
288,160,178148,5,4
320,192,178400,1,6
288,224,178653,1,4
256,256,178905,1,6
224,224,179157,1,4
192,192,179409,1,6
224,160,179661,1,4
256,128,179914,1,6
256,192,180418,5,0
224,256,180670,1,0
256,320,180922,1,0
256,192,181427,5,0
288,128,181679,1,0
256,64,181931,1,0
128,64,182436,5,0
160,96,182688,1,0
192,128,182940,1,0
224,160,183192,1,0
288,224,183697,1,0
352,288,184201,5,0
288,224,184706,1,0
256,192,184958,1,0
288,192,186219,5,0
320,224,186471,1,0
288,256,186723,1,0
256,224,186975,1,0
256,160,187228,1,0
224,128,187480,1,0
192,160,187732,1,0
224,192,187984,1,0
480,352,188489,5,0
448,320,188741,1,0
416,288,188993,1,0
288,352,189497,5,0
320,320,189750,1,0
352,288,190002,1,0
384,224,190506,5,0
384,192,190759,1,0
352,224,191011,1,0
352,192,191263,1,0
352,64,191767,1,0
352,192,192272,5,0
224,192,192776,1,0
256,160,193028,1,0
352,320,194289,5,0
320,288,194542,1,0
288,256,194794,1,0
256,224,195046,1,0
256,160,195298,1,0
224,128,195550,1,0
192,96,195803,1,0
160,64,196055,1,0
320,96,196559,5,0
352,128,196811,1,0
384,160,197064,1,0
480,192,197568,5,0
448,160,197820,1,0
416,128,198073,1,0
288,128,198577,5,0
256,160,198829,1,0
224,192,199081,1,0
192,224,199334,1,0
320,288,199838,1,0
384,160,200342,5,0
256,160,200847,1,0
288,224,201099,1,0
256,128,202360,5,0
256,160,202612,1,0
288,128,202864,1,0
288,160,203117,1,0
320,128,203369,1,0
320,160,203621,1,0
352,128,203873,1,0
352,160,204125,1,0
320,128,204630,5,0
288,160,204882,1,0
256,192,205134,1,0
192,256,205639,5,0
224,224,205891,1,0
256,192,206143,1,0
320,256,206648,5,0
288,224,206900,1,0
256,192,207152,1,0
224,160,207404,1,0
352,160,207909,1,0
352,288,208413,5,0
224,288,208917,1,0
224,288,209170,1,0
224,160,210431,5,0
256,192,210683,1,0
288,224,210935,1,0
320,192,211187,1,0
288,160,211439,1,0
256,128,211692,1,0
224,96,211944,1,0
192,128,212196,1,0
288,64,212701,5,0
256,96,212953,1,0
288,128,213205,1,0
224,192,213709,5,0
256,224,213962,1,0
224,256,214214,1,0
352,256,214718,5,0
320,224,214970,1,0
352,192,215223,1,0
384,224,215475,1,0
256,192,215979,1,0
128,192,216484,5,0
128,64,216988,1,0
128,64,217240,1,0
288,64,218501,6,0,B|224:128,1,50
224,128,219006,2,0,B|288:192,1,50
288,160,219510,2,0,B|352:96,1,50
288,96,220015,2,0,B|224:96,1,50
256,192,220771,5,0
224,224,221023,1,0
192,192,221276,1,0
160,160,221528,2,0,B|160:64,2,50
128,192,222284,1,0
96,224,222537,1,0
128,256,222789,2,0,B|128:352,2,50
128,128,223798,5,0
160,160,224050,1,0
192,128,224302,1,0
224,96,224554,1,0
256,128,224806,5,0
288,160,225059,1,0
256,192,225311,1,0
224,224,225563,2,0,B|288:224,2,50
256,256,226320,1,0
288,288,226572,1,0
320,288,226824,2,0,B|384:288,2,50
32,256,227833,5,0
64,224,228085,1,0
96,192,228337,1,0
128,160,228590,1,0
160,128,228842,5,0
192,160,229094,1,0
224,192,229346,1,0
256,160,229598,2,0,B|256:64,2,50
288,96,230355,1,0
320,128,230607,1,0
352,160,230859,2,0,B|352:224,2,50
352,288,231868,5,0
320,320,232120,1,0
288,352,232373,1,0
256,320,232625,1,0
288,256,232877,5,0
288,224,233129,1,0
256,192,233381,1,0
224,224,233634,2,0,B|224:288,2,50
256,192,234390,1,0
288,160,234642,1,0
320,128,234895,2,0,B|384:64,2,50
288,32,235904,5,0
256,64,236156,1,0
224,96,236408,1,0
192,128,236660,1,0
160,160,236912,5,0
192,192,237165,1,0
224,224,237417,1,0
256,192,237669,2,0,B|320:256,2,50
288,160,238426,1,0
320,128,238678,1,0
352,96,238930,2,0,B|288:32,2,50
224,128,239939,5,0
192,160,240191,1,0
160,192,240443,1,0
192,224,240695,1,0
256,256,240948,5,0
288,224,241200,1,0
320,192,241452,1,0
352,160,241704,2,0,B|448:160,2,50
320,128,242461,1,0
288,96,242713,1,0
256,64,242965,2,0,B|192:64,2,50
128,192,243974,6,0,B|192:192,1,50
224,192,244479,1,0
256,192,244731,1,0
