osu file format v5

[General]
AudioFilename: Little Non - Hanamaru Sensation.mp3
AudioLeadIn: 1996
PreviewTime: 60771
Countdown: 1
SampleSet: Normal
StackLeniency: 0.7
Mode: 0

[Metadata]
Title:Hanamaru Sensation
Artist:Little Non
Creator:silasw
Version:Normal
Source:
Tags:

[Difficulty]
HPDrainRate:3
CircleSize:3
OverallDifficulty:2
SliderMultiplier:1.4
SliderTickRate:1

[Events]
//Background and Video events
0,0,"Kodomo no Jikan - ED - Large 01.jpg"
//Break Periods
2,10918,20120
2,40918,50331
//Storyboard Layer 0 (Background)
//Storyboard Layer 1 (Failing)
//Storyboard Layer 2 (Passing)
//Storyboard Layer 3 (Foreground)
//Storyboard Sound Samples
//Background Colour Transformations
3,100,163,162,255

[TimingPoints]
1234,315.723005683014,4,1,0,100

[HitObjects]
160,192,602,2,0,L|312:192,1,140
408,192,1233,1,0
408,80,1549,1,0
296,80,1865,1,0
72,80,2496,5,0
72,192,2812,1,0
72,304,3128,1,0
280,304,3759,5,0
280,192,4075,1,0
280,80,4391,1,0
168,80,4706,1,0
168,192,5022,2,0,B|296:312|392:128,1,280
256,344,6285,5,0
256,232,6601,1,0
368,232,6917,1,0
368,344,7232,1,0
480,344,7548,5,0
480,232,7864,1,0
480,120,8179,1,0
264,192,8811,6,0,B|120:232|65:452|398:440|408:192|399:60|352:72,1,560
264,88,10389,1,0
152,88,10705,1,0
40,80,21440,6,0,B|392:29|516:216|418:338|45:362|4:177|448:56,1,980
184,48,24281,6,0,B|72:176|80:320|448:328|480:48|256:136|48:136|136:368,1,700
240,336,26176,1,0
408,336,26649,6,0,B|483:135|72:72,1,490
80,184,28070,1,0
248,184,28701,5,0
248,72,29017,1,0
472,72,29649,1,0
472,296,30280,2,0,B|320:296,1,140
256,56,31859,5,0
168,128,32174,1,0
168,296,32648,1,0
464,192,34384,5,0
352,192,34700,1,0
240,192,35016,1,0
128,192,35332,1,0
128,80,35647,1,4
64,328,36910,5,0
152,264,37226,1,0
240,200,37542,1,0
328,136,37857,1,0
416,72,38173,1,0
80,72,39120,5,0
432,72,39752,1,0
256,192,40383,2,0,B|256:32,1,140
72,192,51749,5,0
296,192,52381,2,0,B|112:64|64:296|152:352|464:344|488:240|416:48,1,700
304,56,54275,1,0
192,56,54591,1,0
80,56,54906,1,0
384,192,55854,6,0,B|216:192,5,140
72,192,57906,1,0
72,192,58064,1,0
472,192,59327,6,0,B|256:32|64:48|24:152|32:296|152:352|472:352|192:160,1,840
424,80,61852,2,0,B|256:80,1,140
192,80,62484,5,0
192,192,62799,1,0
192,304,63115,1,0
392,312,63747,5,0
392,200,64062,1,0
392,88,64378,1,0
280,88,64694,1,0
168,88,65010,2,2,B|107:149|37:363|440:357|464:112,1,560
352,120,66588,1,2
240,120,66904,1,2
256,192,67535,12,0,70061
256,192,71324,1,2
256,192,71640,1,2
256,192,71955,1,2
80,56,72587,5,0
304,56,73218,1,0
472,208,73850,1,0
360,208,74166,1,0
248,208,74481,1,0
64,336,75113,5,2
176,336,75428,1,2
288,336,75744,1,2
400,336,76060,1,2
400,240,76376,2,2,C|256:168|136:208,1,280
344,80,77638,5,0
232,80,77954,1,0
120,80,78270,1,0
120,304,78901,5,0
232,304,79217,1,0
344,304,79533,1,0
344,80,80164,5,0
344,192,80480,1,0
232,192,80796,1,0
232,80,81111,1,0
120,80,81427,2,0,C|120:232,2,140
