osu file format v5

[General]
AudioFilename: Little Non - Hanamaru Sensation.mp3
AudioLeadIn: 1985
PreviewTime: 60771
Countdown: 1
SampleSet: Normal
StackLeniency: 0.7
Mode: 0

[Metadata]
Title:Hanamaru Sensation
Artist:Little Non
Creator:silasw
Version:Insane
Source:
Tags:

[Difficulty]
HPDrainRate:7
CircleSize:5
OverallDifficulty:7
SliderMultiplier:1.4
SliderTickRate:1

[Events]
//Background and Video events
0,0,"Kodomo no Jikan - ED - Large 01.jpg"
//Break Periods
2,10918,20120
2,40918,50331
//Storyboard Layer 0 (Background)
//Storyboard Layer 1 (Failing)
//Storyboard Layer 2 (Passing)
//Storyboard Layer 3 (Foreground)
//Storyboard Sound Samples
//Background Colour Transformations
3,100,163,162,255

[TimingPoints]
1234,315.723005683014,4,1,0,100

[HitObjects]
168,192,602,1,0
280,192,918,1,0
392,192,1233,1,0
392,80,1549,1,0
336,80,1707,1,0
280,80,1865,1,0
168,80,2181,5,0
112,80,2339,1,0
56,80,2496,1,0
56,192,2812,1,0
56,248,2970,1,0
56,304,3128,1,0
392,320,3759,5,0
272,192,4075,1,0
272,136,4233,1,0
272,104,4312,1,0
272,72,4391,1,0
216,72,4549,1,0
160,72,4706,1,0
160,184,5022,1,0
160,296,5338,1,0
216,296,5496,1,0
272,296,5654,1,0
400,304,5969,5,0
400,248,6127,1,0
400,192,6285,1,0
288,192,6601,1,0
232,192,6759,1,0
176,192,6917,1,0
176,136,7074,1,0
176,80,7232,1,0
232,80,7390,1,0
288,80,7548,5,0
400,80,7864,1,0
400,136,8022,1,0
400,192,8179,1,0
400,304,8495,5,0
344,304,8653,1,0
288,304,8811,1,0
240,272,8969,1,0
288,240,9127,1,0
344,240,9284,1,0
400,240,9442,1,0
448,208,9600,1,0
400,176,9758,1,0
344,176,9916,1,0
344,120,10074,1,0
232,120,10389,1,0
120,120,10705,1,0
96,56,21598,5,0
152,56,21755,1,0
208,56,21913,1,0
264,56,22071,1,0
320,56,22229,1,0
264,56,22387,1,0
320,56,22545,1,0
392,56,22703,2,0,C|392:152,3,70
392,184,23334,1,0
392,296,23650,1,0
224,296,24123,5,0
168,296,24281,1,0
168,184,24597,1,0
224,184,24755,1,0
280,184,24913,1,0
320,144,25071,1,0
320,88,25228,1,0
360,48,25386,1,0
416,48,25544,1,0
456,88,25702,1,0
456,144,25860,1,0
456,256,26176,1,0
288,256,26649,6,0,B|204:340|168:248,1,140
120,264,27123,1,0
64,264,27281,1,0
64,208,27439,1,0
64,152,27596,1,0
64,96,27754,1,0
176,96,28070,1,0
248,248,28544,5,0
288,208,28701,1,0
248,168,28859,1,0
208,208,29017,1,0
208,320,29333,1,0
320,320,29649,1,0
432,320,29964,1,0
432,208,30280,2,0,B|400:108|304:136,1,140
256,48,31701,6,0,C|256:136,1,70
200,120,32016,2,0,C|200:200,1,70
144,192,32332,2,0,C|144:280,1,70
88,264,32648,1,0
200,264,32964,5,0
312,264,33279,1,0
368,264,33437,1,0
424,264,33595,1,0
480,264,33753,1,0
264,328,34227,5,0
264,328,34384,1,0
208,232,34700,1,0
320,232,35016,1,0
264,136,35332,1,0
152,136,35647,1,4
256,48,36752,5,0
256,48,36910,1,0
144,48,37226,1,0
168,96,37384,1,0
200,144,37542,1,0
256,144,37700,1,0
312,144,37857,1,0
368,48,38173,1,0
80,72,39120,5,0
152,152,39436,1,0
232,232,39752,1,0
312,152,40067,1,0
392,72,40383,2,0,B|466:148|384:200,1,140
440,192,51749,5,0
216,192,52381,2,0,B|400:320|448:88|360:32|48:40|24:144|96:336,1,700
208,328,54275,1,0
320,328,54591,1,0
432,328,54906,2,0,C|432:208|312:80,1,280
208,96,55854,5,0
96,96,56169,1,0
96,208,56485,1,0
208,208,56801,1,0
208,96,57116,1,0
96,96,57432,1,0
152,256,57906,1,0
152,256,58064,1,0
56,336,59327,5,0
56,168,59800,2,0,B|272:8|464:24|504:128|496:272|320:232,1,630
192,80,61852,2,0,B|24:80,1,140
56,192,62484,5,0
168,192,62799,1,0
224,192,62957,1,0
280,192,63115,1,0
336,192,63273,1,0
392,192,63431,1,0
448,192,63589,1,0
448,152,63747,5,0
336,152,64062,1,0
280,152,64220,1,0
224,152,64378,1,0
224,40,64694,1,0
112,40,65010,5,0
112,152,65325,1,0
112,208,65483,1,0
112,232,65562,1,0
112,256,65641,1,0
168,256,65799,1,0
192,256,65878,1,0
216,256,65957,1,0
216,200,66115,1,0
216,144,66272,1,0
328,144,66588,1,0
384,144,66746,1,0
440,144,66904,1,0
256,192,67535,12,0,70061
256,192,71324,1,0
312,96,71640,1,0
200,96,71955,1,0
72,280,72587,5,0
184,280,72903,1,0
240,280,73060,1,0
296,280,73218,1,0
296,168,73534,1,0
296,112,73692,1,0
296,56,73850,1,0
408,56,74166,1,0
408,112,74323,1,0
408,168,74481,1,0
64,336,75113,5,0
176,336,75428,1,0
288,336,75744,1,0
344,336,75902,1,0
400,336,76060,1,0
400,224,76376,2,0,C|256:152|112:192,1,280
344,80,77638,5,0
232,80,77954,1,0
176,80,78112,1,0
120,80,78270,1,0
120,192,78586,5,0
120,248,78743,1,0
120,304,78901,1,0
232,304,79217,1,0
288,304,79375,1,0
344,304,79533,1,0
344,80,80164,5,0
344,136,80322,1,0
344,192,80480,1,0
400,192,80638,1,0
400,136,80796,1,0
344,136,80954,1,0
288,136,81111,1,0
232,136,81269,1,0
176,136,81427,2,0,C|24:136,2,140
