osu file format v5

[General]
AudioFilename: Little Non - Hanamaru Sensation.mp3
AudioLeadIn: 1996
PreviewTime: 60771
Countdown: 1
SampleSet: Normal
StackLeniency: 0.7
Mode: 0

[Metadata]
Title:Hanamaru Sensation
Artist:Little Non
Creator:silasw
Version:Easy
Source:
Tags:

[Difficulty]
HPDrainRate:2
CircleSize:2
OverallDifficulty:2
SliderMultiplier:1.4
SliderTickRate:1

[Events]
//Background and Video events
0,0,"Kodomo no Jikan - ED - Large 01.jpg"
//Break Periods
2,10918,20120
2,40918,50331
//Storyboard Layer 0 (Background)
//Storyboard Layer 1 (Failing)
//Storyboard Layer 2 (Passing)
//Storyboard Layer 3 (Foreground)
//Storyboard Sound Samples
//Background Colour Transformations
3,100,163,162,255

[TimingPoints]
1234,315.723005683014,4,1,0,100

[HitObjects]
264,56,602,2,0,L|416:56,1,140
408,168,1233,1,0
184,168,1865,1,0
384,64,2496,5,0
384,176,2812,1,0
384,288,3128,1,0
176,288,3759,5,0
176,64,4391,1,0
400,64,5022,2,0,B|520:192|320:304,1,280
256,72,6285,5,0
256,296,6917,1,0
40,344,7548,5,0
40,232,7864,1,0
40,120,8179,1,0
256,184,8811,6,0,B|112:224|57:444|390:432|400:184|391:52|344:64,1,560
264,88,10389,1,0
152,88,10705,1,0
40,80,21440,6,0,B|392:29|516:216|418:338|45:362|4:177|448:56,1,980
184,48,24281,6,0,B|72:176|80:320|448:328|480:48|256:136|48:136|136:368,1,700
240,336,26176,1,0
408,336,26649,6,0,B|523:104|353:29|234:351|31:245|72:72,1,630
248,72,29017,5,0
472,72,29649,2,0,C|472:224|400:344|272:336,1,420
168,128,32174,5,0
168,296,32648,1,0
392,128,33437,1,0
392,240,33753,1,0
176,296,34384,5,0
400,296,35016,1,0
400,72,35647,1,4
64,328,36910,5,0
240,200,37542,1,0
328,136,37857,1,0
416,72,38173,1,0
80,72,39120,5,0
80,296,39752,2,0,C|376:296|400:168,1,420
72,192,51749,5,0
296,192,52381,2,0,B|112:64|64:296|152:352|464:344|488:240|416:48,1,700
304,56,54275,1,0
80,56,54906,1,0
416,88,55854,6,0,B|248:88,5,140
48,88,58064,1,0
472,192,59327,6,0,B|256:32|64:48|24:152|32:296|152:352|472:352|192:160,1,840
424,80,61852,2,0,B|256:80,1,140
192,80,62484,5,0
192,192,62799,1,0
192,304,63115,1,0
392,312,63747,5,0
392,200,64062,1,0
392,88,64378,1,0
168,88,65010,2,2,B|107:149|37:363|440:357|464:104,1,560
352,120,66588,1,2
240,120,66904,1,2
256,192,67535,12,0,70061
144,232,71324,1,0
256,232,71640,1,0
368,232,71955,1,0
184,96,72587,5,0
408,96,73218,1,0
456,312,73850,1,0
344,312,74166,1,0
232,312,74481,1,0
64,336,75113,5,0
288,336,75744,1,0
424,160,76376,2,0,C|280:232|136:192,1,280
352,80,77638,5,2
240,80,77954,1,2
128,80,78270,1,2
128,304,78901,5,2
240,304,79217,1,2
352,304,79533,1,2
464,104,80164,5,0
240,104,80796,1,0
240,328,81427,2,0,C|88:328,2,140
