osu file format v6

[General]
AudioFilename: Aijou Education.mp3
AudioLeadIn: 0
PreviewTime: 15965
Countdown: 1
SampleSet: Normal
StackLeniency: 0.7
Mode: 0
LetterboxInBreaks: 1

[Editor]
DistanceSpacing: 1
BeatDivisor: 4
GridSize: 8

[Metadata]
Title:Aijou Education
Artist:Little Non
Creator:DJPop
Version:Hard
Source:
Tags:

[Difficulty]
HPDrainRate:5
CircleSize:5
OverallDifficulty:8
SliderMultiplier:1.5
SliderTickRate:2

[Events]
//Background and Video events
0,0,"Aijou Education.png"
//Break Periods
2,83189,84573
2,141855,147406
2,160522,170073
//Storyboard Layer 0 (Background)
//Storyboard Layer 1 (Fail)
//Storyboard Layer 2 (Pass)
//Storyboard Layer 3 (Foreground)
//Storyboard Sound Samples
//Background Colour Transformations
3,48,255,255,128

[TimingPoints]
-10,333.333333333333,4,1,0,100,1,0
25655,333.333333333333,4,1,1,100,1,0
29654,333.333333333333,4,1,0,100,1,0
30987,333.333333333333,4,1,1,100,1,0
80321,333.333333333333,4,1,0,100,1,0
94986,333.333333333333,4,1,1,100,1,0
98985,333.333333333333,4,1,0,100,1,0
106984,333.333333333333,4,1,1,100,1,0
138986,333.333333333333,4,1,0,100,1,0
152818,166.666666666667,4,1,0,100,1,0
154651,333.333333333333,4,1,0,100,1,0
158151,166.666666666667,4,1,0,100,1,0
160317,333.333333333333,4,1,0,100,1,0
170983,333.333333333333,4,1,1,100,1,0
224313,333.333333333333,4,1,0,100,1,0

[HitObjects]
256,192,15989,5,2
32,192,16323,5,4
32,128,16489,1,0
32,64,16656,1,0
96,64,16823,1,0
160,64,16989,1,0
224,64,17156,1,0
288,64,17323,1,0
352,64,17489,1,0
416,64,17656,1,0
480,64,17823,1,0
480,128,17989,1,0
480,192,18156,1,0
416,192,18323,5,2
256,192,18656,1,2
96,192,18989,2,0,C|128:256|255:334|384:256|416:192,1,450
416,192,20323,2,0,C|384:128|257:50|128:128|96:192,1,450
32,192,21656,5,0
32,256,21823,1,0
32,320,21989,1,0
96,320,22156,1,0
160,320,22323,1,0
224,320,22489,1,0
288,320,22656,1,0
352,320,22823,1,0
416,320,22990,1,0
480,320,23156,1,0
480,256,23323,1,0
480,192,23490,1,0
416,192,23656,5,2
256,192,23990,1,2
96,192,24323,2,0,C|128:128|255:50|384:128|416:192,1,450
416,192,25656,5,0
416,256,25823,2,0,C|320:256,1,75
288,256,26156,1,0
224,256,26323,2,0,C|147:242|96:192,1,150
64,64,26990,5,6
64,192,27323,1,2
64,320,27656,1,2
192,320,27990,1,0
192,256,28156,2,0,C|192:160,1,75
192,128,28490,1,0
192,64,28656,1,0
256,64,28823,1,0
320,64,28990,1,0
448,64,29323,1,0
448,192,29656,5,0
448,256,29820,2,0,C|384:320|320:256|256:320|192:256|192:256,1,375
64,320,30990,1,0
64,256,31156,2,2,C|64:192,1,75
64,128,31490,1,0
64,64,31653,2,2,C|224:64,1,150
320,64,32323,5,0
448,64,32656,1,0
448,192,32990,1,0
320,192,33323,1,0
320,256,33490,2,0,C|416:256,1,75
448,256,33823,1,0
448,320,33990,1,0
384,320,34156,1,0
320,320,34323,1,2
192,320,34653,1,2
64,320,34990,5,0
64,256,35153,2,0,C|64:96,1,150
64,64,35653,2,2,C|224:64,1,150
192,192,36323,1,0
192,256,36490,2,0,C|192:352,1,75
256,320,36823,1,0
320,320,36990,2,0,C|480:320,1,150
448,192,37656,5,4
384,192,37823,2,0,C|320:192,1,75
256,192,38156,1,0
192,192,38323,2,0,C|160:192,1,75
64,192,38656,2,0,C|64:128,1,75
192,128,39156,2,0,C|256:128,1,75
320,128,39489,1,0
384,128,39656,1,0
448,128,39823,2,0,L|448:96,1,75
384,64,40156,1,0
256,64,40489,6,0,C|256:128,1,75
256,192,40823,1,0
256,256,40989,2,0,C|256:320,1,75
192,320,41323,1,0
128,320,41489,1,0
64,320,41656,1,0
64,192,41989,1,0
64,64,42323,1,2
192,64,42656,1,2
64,192,43156,6,0,C|160:192,1,75
192,192,43489,1,0
256,192,43656,1,0
320,192,43823,1,0
384,192,43989,1,0
448,192,44156,1,0
448,64,44489,1,0
384,64,44656,2,0,C|320:64,1,75
256,64,44989,1,0
192,64,45156,1,0
128,64,45323,1,0
64,64,45489,1,0
64,128,45656,5,0
64,192,45823,1,0
128,192,45989,1,0
128,256,46156,1,0
192,256,46323,1,0
192,320,46489,1,0
256,320,46656,2,0,C|320:320,1,75
384,320,46989,1,2
384,192,47323,1,2
256,192,47656,5,0
256,192,47823,1,0
256,192,47989,1,0
64,64,48323,5,4
96,128,48489,1,0
128,64,48656,1,0
160,128,48823,1,0
192,64,48989,1,0
224,128,49156,1,0
256,64,49323,1,0
288,128,49489,1,0
448,192,49823,2,0,C|416:256,1,75
384,192,50156,1,0
352,256,50323,1,0
320,192,50489,1,0
288,256,50656,1,0
256,192,50823,1,0
64,192,51156,5,0
64,256,51323,2,0,C|64:320,1,75
128,320,51656,2,0,C|224:320,1,75
256,320,51989,1,0
320,320,52156,1,0
384,320,52323,1,0
384,192,52656,1,0
384,64,52989,1,0
320,64,53156,1,0
256,64,53323,1,2
192,64,53489,1,2
128,64,53656,5,4
128,128,53823,1,0
128,192,53989,1,2
256,192,54323,1,0
256,256,54489,1,0
256,320,54656,1,2
384,320,54989,5,4
384,256,55156,1,0
384,192,55323,1,2
384,128,55489,1,0
384,64,55656,1,0
320,64,55823,1,0
256,64,55989,1,2
192,64,56156,1,0
128,64,56323,5,0
64,96,56489,1,0
128,128,56656,1,2
64,160,56823,1,0
128,192,56989,1,0
64,224,57156,1,0
128,256,57323,1,2
64,288,57489,1,0
256,192,57656,12,4,58323
448,256,58823,5,0
448,320,58989,1,4
320,320,59323,1,0
192,320,59656,1,0
64,320,59989,1,0
64,192,60323,2,0,C|224:192,1,150
256,192,60823,1,0
320,192,60989,1,0
448,192,61323,1,0
448,64,61656,5,0
320,64,61989,1,0
192,64,62323,1,0
64,64,62656,1,0
64,192,62989,2,0,C|256:192,1,150
320,192,63656,1,0
448,192,63989,1,0
448,320,64323,5,4
320,320,64656,1,0
192,320,64989,2,0,C|32:320,2,150
128,192,65989,1,0
64,64,66323,1,0
192,64,66656,1,0
320,64,66989,5,0
448,64,67323,1,0
448,192,67656,1,0
320,192,67989,1,0
192,192,68323,2,0,C|32:192,1,150
64,320,68989,1,0
192,320,69323,1,0
320,320,69656,5,4
448,320,69989,1,0
448,192,70323,1,0
448,64,70656,1,0
320,64,70989,2,0,C|320:224,1,150
192,208,71656,2,0,C|192:48,1,150
64,64,72323,6,0,C|64:224,1,150
64,320,72989,1,0
192,320,73323,1,0
320,320,73656,1,0
448,320,73989,1,0
448,192,74323,1,0
448,64,74656,1,0
320,64,74989,6,0,C|320:224,2,150
192,64,75989,1,0
192,192,76323,2,0,C|192:352,2,150
64,192,77323,1,0
64,64,77656,6,0,C|224:64,1,150
320,64,78323,1,0
448,64,78656,1,0
448,192,78989,1,0
448,320,79323,1,0
320,320,79656,1,0
192,320,79990,1,0
64,320,80323,6,4,C|64:160,1,150
64,128,80823,1,0
64,64,80990,2,4,C|384:96|452:192|384:288|64:320,1,900
256,192,85323,5,2
480,192,85656,5,4
480,256,85823,1,0
480,320,85990,1,0
416,320,86156,1,0
352,320,86323,1,0
288,320,86490,1,0
224,320,86656,1,0
160,320,86823,2,0,C|96:320,1,75
32,320,87156,1,0
32,256,87323,1,0
32,192,87490,1,0
96,192,87656,5,2
256,192,87990,1,2
416,192,88323,2,0,C|384:128|257:50|128:128|96:192,1,450
96,192,89656,2,0,C|128:256|255:334|384:256|416:192,1,450
480,192,90990,5,0
480,128,91156,1,0
480,64,91323,1,0
416,64,91490,1,0
352,64,91656,1,0
288,64,91823,1,0
224,64,91990,1,0
160,64,92156,2,0,C|96:64,1,75
32,64,92490,1,0
32,128,92656,1,0
32,192,92823,1,0
96,192,92990,5,2
256,192,93323,1,2
416,192,93656,2,0,C|384:256|257:334|128:256|96:192,1,450
96,192,94990,5,0
96,128,95156,2,0,C|192:128,1,75
224,128,95490,1,0
288,128,95656,2,0,C|365:142|416:192,1,150
448,320,96323,5,4
448,192,96656,1,0
448,64,96990,1,0
320,64,97323,1,0
320,128,97490,2,0,C|256:192,1,75
224,128,97823,2,0,C|160:64,1,75
128,128,98156,2,0,C|64:192,1,75
32,224,98490,1,0
32,288,98656,2,0,C|96:352,1,75
160,320,98990,5,0
224,320,99151,2,0,C|288:256|352:320|416:256|480:320,1,375
480,192,100323,1,0
480,128,100490,2,0,C|480:32,1,75
416,64,100823,1,0
416,128,100990,2,0,C|416:192,1,75
416,256,101323,1,2
256,256,101656,5,0
256,128,101990,1,0
128,128,102323,2,0,C|64:128,1,75
64,256,102823,2,0,C|64:320,1,75
128,320,103156,1,0
192,320,103323,1,0
256,320,103490,1,0
320,320,103656,2,0,C|416:320,1,75
448,320,103990,1,0
448,192,104323,5,0
448,128,104485,2,0,C|384:64|320:128|256:64|192:128,1,375
128,64,105656,1,0
64,64,105823,2,0,C|64:128,1,75
128,128,106156,1,0
128,192,106323,2,0,C|64:192,1,75
64,256,106656,1,2
192,320,106990,5,4
224,256,107156,1,0
256,320,107323,1,0
288,256,107490,1,0
320,320,107656,1,0
352,256,107823,1,0
384,320,107990,1,0
416,256,108156,1,0
448,128,108490,1,0
416,64,108656,1,0
384,128,108823,1,0
352,64,108990,1,0
320,128,109156,1,0
288,64,109323,1,0
256,128,109490,1,0
128,64,109823,6,0,C|32:96,1,75
128,128,110156,1,0
64,160,110323,1,0
128,192,110490,1,0
64,224,110656,1,0
128,256,110823,1,0
64,288,110990,1,0
192,224,111323,1,0
320,192,111654,2,0,L|384:192,1,75
448,192,111990,1,2
448,64,112323,5,0
384,64,112490,1,4
320,64,112656,1,2
256,64,112823,1,0
256,192,113156,1,0
256,256,113323,1,2
256,320,113490,1,0
320,320,113650,5,4
384,288,113823,1,4
320,256,113990,1,2
384,224,114156,1,0
320,192,114323,1,0
384,160,114490,1,0
320,128,114656,1,2
256,160,114823,1,0
192,128,114990,5,0
128,160,115156,1,0
192,192,115323,1,2
128,224,115490,1,0
192,256,115656,1,0
128,288,115823,1,0
192,320,115990,1,2
256,288,116156,1,0
256,192,116323,12,4,116990
64,256,117490,5,0
64,320,117656,1,4
192,320,117990,1,0
320,320,118323,1,0
448,320,118656,1,0
448,192,118990,2,0,C|288:192,1,150
192,192,119656,1,0
64,192,119990,1,0
64,64,120323,5,0
192,64,120656,1,0
320,64,120990,1,0
448,64,121323,1,0
448,192,121656,2,0,C|256:192,1,150
192,192,122323,1,0
64,192,122656,1,0
64,320,122990,5,4
192,320,123323,1,0
320,320,123656,2,0,C|480:320,2,150
384,192,124653,1,0
448,64,124990,1,0
320,64,125323,1,0
192,64,125656,5,0
64,64,125990,1,0
64,192,126323,1,0
192,192,126656,1,0
320,192,126990,2,0,C|480:192,1,150
448,320,127656,1,0
320,320,127990,1,0
192,320,128323,5,4
64,320,128656,1,0
64,192,128990,1,0
64,64,129323,1,0
192,64,129656,2,0,C|192:224,1,150
320,208,130323,2,0,C|320:48,1,150
448,64,130990,6,0,C|448:224,1,150
448,320,131656,1,0
320,320,131990,1,0
192,320,132323,1,0
64,320,132656,1,0
64,192,132990,1,0
64,64,133323,1,0
192,64,133656,6,0,C|192:224,2,150
320,64,134656,1,0
320,192,134990,2,0,C|320:352,2,150
448,192,135990,1,0
448,64,136323,6,0,C|288:64,1,150
192,64,136990,1,0
64,64,137323,1,0
64,192,137656,1,0
64,320,137990,1,0
192,320,138323,1,0
320,320,138656,1,0
384,320,138823,1,0
448,320,138990,6,4,C|448:160,1,150
448,128,139490,1,0
448,64,139656,2,4,C|128:96|60:192|128:288|448:320,1,900
256,192,148156,5,6
256,64,148490,2,0,C|160:96,1,75
128,128,148823,1,0
96,192,148990,1,0
128,256,149156,2,0,C|192:320,1,75
256,320,149490,1,0
320,288,149656,5,4
384,256,149823,1,0
320,224,149990,1,0
384,192,150156,2,0,C|320:160,1,75
384,128,150490,1,0
320,96,150656,1,0
384,64,150823,1,0
320,32,150990,2,0,C|256:64,1,75
192,32,151323,2,0,C|128:64,1,75
192,96,151656,1,0
256,128,151823,1,0
192,160,151990,1,0
256,192,152156,1,0
192,224,152323,6,0,C|128:192,1,75
64,160,152656,1,0
64,224,152823,2,2,C|192:320|320:320|448:224,1,450
448,64,153656,2,4,C|167:64|64:134|64:320,1,600
192,320,154656,1,0
256,288,154823,1,0
192,256,154990,5,4
256,224,155156,1,0
192,192,155323,1,0
256,160,155490,1,0
192,128,155656,2,0,C|256:96,1,75
192,64,155990,1,0
256,32,156156,1,0
320,64,156323,1,0
384,32,156490,1,0
448,64,156656,1,0
384,96,156823,2,0,C|384:160,1,75
320,160,157156,1,0
256,192,157323,1,0
320,224,157489,1,0
256,256,157656,6,0,C|320:288,1,75
256,320,157989,1,0
192,320,158156,2,2,C|96:288|24:192|96:96|192:64,1,450
448,64,158989,2,4,C|384:192|255:276|128:192|64:64,2,600
64,256,170823,5,0
64,320,170989,1,4
192,320,171323,1,0
320,320,171656,1,0
448,320,171989,1,0
448,192,172323,2,0,C|288:192,1,150
192,192,172989,1,0
64,192,173323,1,0
64,64,173656,5,0
192,64,173989,1,0
320,64,174323,1,0
448,64,174656,1,0
448,192,174989,2,0,C|256:192,1,150
192,192,175656,1,0
64,192,175989,1,0
64,320,176323,5,4
192,320,176656,1,0
320,320,176989,2,0,C|480:320,2,150
384,192,177983,1,0
448,64,178323,1,0
320,64,178656,1,0
192,64,178989,5,0
64,64,179323,1,0
64,192,179656,1,0
192,192,179989,1,0
320,192,180323,2,0,C|480:192,1,150
448,320,180989,1,0
320,320,181323,1,0
192,320,181656,5,4
64,320,181989,1,0
64,192,182323,1,0
64,64,182656,1,0
192,64,182989,2,0,C|192:224,1,150
320,208,183656,2,0,C|320:48,1,150
448,64,184323,6,0,C|448:224,1,150
448,320,184989,1,0
320,320,185323,1,0
192,320,185656,1,0
64,320,185989,1,0
64,192,186323,1,0
64,64,186656,1,0
192,64,186989,6,0,C|192:224,2,150
320,64,187989,1,0
320,192,188323,2,0,C|320:352,2,150
448,192,189323,1,0
448,64,189656,6,0,C|288:64,1,150
192,64,190323,1,0
64,64,190656,1,0
64,192,190989,2,0,C|200:288,1,150
256,288,191489,1,0
328,280,191656,2,0,C|456:184,1,150
448,64,192323,5,4
320,64,192656,1,0
192,64,192989,1,0
64,64,193323,1,0
64,192,193656,2,0,C|64:352,1,150
192,336,194323,2,0,C|192:176,1,150
320,192,194989,6,0,C|320:352,1,150
448,320,195656,1,0
448,192,195989,1,0
448,64,196323,1,0
320,64,196656,1,0
192,64,196989,1,0
64,64,197323,1,0
64,192,197656,6,4,C|96:288|127:323|160:288|192:192,1,300
320,192,198656,1,0
320,256,198823,1,0
320,320,198989,1,4
384,320,199156,1,0
448,240,199489,1,0
448,144,199823,1,0
384,64,200156,1,0
320,96,200323,6,4,C|160:96|67:192|160:288|320:288,1,600
256,192,201823,1,0
256,192,201989,1,0
256,192,202156,1,0
256,192,202323,1,0
256,192,202656,1,0
256,192,204316,5,0
256,192,204399,1,0
256,192,204483,1,0
256,192,204566,1,0
256,192,204649,1,0
256,192,204733,1,0
256,192,204816,1,0
256,192,204899,1,0
256,192,204983,1,0
256,192,205066,1,0
256,192,205149,1,0
256,192,205233,1,0
256,192,205316,1,0
256,192,205399,1,0
256,192,205483,1,0
256,192,205566,1,0
256,192,205656,5,4
256,256,205823,1,0
160,320,206156,1,0
64,256,206489,1,0
160,192,206823,1,0
64,128,207156,1,0
160,64,207489,1,0
224,64,207656,2,0,C|384:64,1,150
448,192,208323,5,4
384,192,208489,1,0
288,256,208823,1,0
192,320,209156,1,0
96,256,209489,2,0,C|96:160,1,75
96,128,209823,1,0
128,64,209989,1,0
160,128,210156,1,0
192,64,210323,1,0
224,128,210489,1,0
256,64,210656,1,0
448,64,210989,5,4
448,128,211156,1,0
448,256,211489,1,0
352,320,211823,1,0
256,256,212156,1,0
160,320,212489,1,0
64,256,212823,1,0
64,192,212989,2,0,C|64:32,1,150
160,128,213656,5,0
224,160,213823,1,0
352,224,214156,1,0
480,160,214489,1,0
352,96,214815,2,0,C|320:32|288:96|256:32|224:96|192:32|160:96|128:32,1,525
32,192,216323,5,4
96,192,216489,1,0
96,320,216823,1,0
224,320,217156,1,0
224,192,217489,1,0
352,192,217823,1,0
352,320,218156,1,0
416,320,218315,2,0,C|448:320|480:288|480:192,1,150
480,64,218989,5,0
416,64,219156,1,0
416,192,219489,1,0
288,192,219823,1,0
288,64,220156,2,0,C|192:64,1,75
160,96,220489,1,0
96,128,220656,1,0
32,160,220823,1,0
96,192,220989,1,0
160,224,221156,1,0
224,256,221323,1,0
384,320,221656,5,4
448,320,221823,1,0
448,192,222156,1,0
448,64,222489,1,0
320,64,222823,1,0
320,192,223156,1,0
192,192,223489,1,0
192,64,223648,2,0,C|224:64|256:96|256:192,1,150
128,64,224323,6,0,L|128:320|416:320,1,525
