osu file format v4

[General]
AudioFilename: Aijou Education.mp3
AudioLeadIn: 0
AudioHash: c4be56827fb7360d6b809d12a6a088db
PreviewTime: 15965
SampleSet: Normal

[Metadata]
Title:Aijou Education
Artist:Little Non
Creator:DJPop
Version:Easy

[Difficulty]
HPDrainRate:2
CircleSize:5
OverallDifficulty:2
SliderMultiplier: 0.5
SliderTickRate: 2

[Events]
0,0,"Aijou Education.png"
2,83166,83738
2,141831,146572
2,160499,169617
3,0,255,255,128

[TimingPoints]
-34,333.333333333333,4,1,0
57632,333.333333333333,4,1,1
85630,333.333333333333,4,1,0
117630,333.333333333333,4,1,1
153629,333.333333333333,4,1,0
154961,333.333333333333,4,1,1
158960,333.333333333333,4,1,0
170960,333.333333333333,4,1,1

[HitObjects]
256,192,15965,5,6,
32,96,16632,5,0,
96,96,17299,1,0,
160,96,17965,1,0,
224,96,18632,1,0,
288,96,18965,2,0,L|288:96|512:96,2,200
288,160,21965,5,0,
352,160,22632,1,0,
416,160,23299,1,0,
480,160,23965,1,0,
480,224,24299,2,0,L|480:224|288:224,1,150
256,224,25799,1,0,
256,224,26132,1,0,
256,224,26299,1,0,
32,288,26966,5,2,
32,288,27299,1,2,
32,288,27632,1,2,
32,288,27966,1,0,
96,288,28632,1,0,
160,288,29299,1,0,
224,288,29632,2,0,L|224:288|448:288,2,200
224,224,32632,5,0,
288,224,33299,1,0,
352,224,33965,1,0,
416,224,34632,1,0,
480,224,34966,2,0,L|480:224|480:160,1,50
480,96,35632,1,2,
352,160,36466,1,0,
352,160,36799,1,0,
352,160,36966,1,0,
224,160,37799,5,0,
160,160,38299,1,0,
96,160,38799,1,0,
32,160,39132,2,0,L|32:160|32:96,3,50
32,64,40466,1,0,
96,64,40966,1,0,
160,64,41632,1,0,
224,64,42299,1,2,
352,64,43132,5,0,
352,128,43632,1,0,
352,192,44132,1,0,
352,256,44466,2,0,L|352:256|224:256,1,125
160,256,45632,2,0,L|160:256|160:96,1,150
160,32,46966,1,2,
160,32,47299,1,2,
288,32,48299,5,0,
288,96,48966,1,0,
288,160,49632,1,0,
288,224,50299,1,0,
288,288,50966,1,0,
288,352,51632,1,0,
352,352,52299,2,0,L|352:352|416:352,1,50
480,352,52966,2,0,L|480:352|480:320,3,25
416,288,53965,5,2,
352,288,54632,1,2,
288,288,55299,1,2,
224,288,55965,1,2,
160,288,56632,1,2,
96,288,57299,1,2,
256,192,57632,12,4,58299
32,224,58966,5,4,
96,224,59632,1,0,
160,224,60299,2,0,L|160:224|288:224,1,100
224,288,61632,1,0,
288,288,62298,1,0,
352,288,62965,2,0,L|352:288|480:288,1,100
480,224,64298,5,4,
480,160,64965,1,0,
480,96,65632,2,0,L|480:96|352:96,1,100
416,32,66965,1,0,
352,32,67632,1,0,
288,32,68298,2,0,L|288:32|160:32,1,100
224,96,69632,5,4,
160,96,70298,1,0,
96,96,70965,2,0,L|96:96|96:224,2,100
32,96,72965,1,0,
32,160,73632,1,0,
32,224,74298,1,0,
32,288,74965,5,4,
96,288,75632,1,0,
160,288,76298,1,0,
224,288,76965,1,0,
288,288,77632,1,4,
352,288,78298,1,0,
416,288,78965,1,4,
480,288,79632,1,0,
256,192,80299,12,0,82966
256,192,85298,5,6,
480,288,85965,5,0,
416,288,86632,1,0,
352,288,87298,1,0,
288,288,87965,1,0,
224,288,88298,2,0,L|224:288|0:288,2,200
224,224,91298,5,0,
160,224,91965,1,0,
96,224,92632,1,0,
32,224,93298,1,0,
32,160,93632,2,0,L|32:160|224:160,1,150
256,160,95132,1,0,
256,160,95465,1,0,
256,160,95632,1,0,
480,96,96299,5,0,
480,96,96632,1,0,
480,96,96965,1,0,
480,96,97299,1,0,
416,96,97965,1,0,
352,96,98632,1,0,
288,96,98965,2,0,L|288:96|64:96,1,200
96,160,100965,1,0,
160,160,101298,1,2,
224,224,101965,5,0,
160,224,102632,1,0,
96,224,103298,1,0,
32,224,103965,1,0,
32,288,104298,2,0,L|32:288|192:288,1,150
224,288,105799,1,0,
224,288,106132,1,0,
224,288,106299,1,0,
224,288,106632,1,2,
352,352,107132,5,0,
352,288,107632,1,0,
352,224,108132,1,0,
352,160,108465,2,0,L|352:160|352:96,3,50
352,32,109798,1,0,
288,32,110298,1,0,
224,32,110965,1,0,
224,96,111632,1,0,
224,96,111965,1,2,
96,224,112632,5,2,
160,224,113299,1,2,
224,224,113966,1,2,
288,224,114632,1,2,
352,224,115299,1,2,
416,224,115966,1,2,
256,192,116299,12,4,116966
480,160,117631,5,4,
416,160,118297,1,0,
352,160,118964,2,0,L|352:160|224:160,1,100
288,96,120297,1,0,
224,96,120963,1,0,
160,96,121630,2,0,L|160:96|32:96,1,100
32,160,122963,5,4,
32,224,123630,1,0,
32,288,124297,2,0,L|32:288|160:288,1,100
96,352,125630,1,0,
160,352,126297,1,0,
224,352,126963,2,0,L|224:352|352:352,1,100
288,288,128297,5,4,
352,288,128963,1,0,
416,288,129630,2,0,L|416:288|416:160,2,100
480,288,131630,1,0,
480,224,132297,1,0,
480,160,132963,1,0,
480,96,133630,5,4,
416,96,134297,1,0,
352,96,134963,1,0,
288,96,135630,1,0,
224,96,136297,1,4,
160,96,136963,1,0,
96,96,137630,1,4,
32,96,138297,1,0,
256,192,138964,12,0,141631
256,192,148132,1,6,
32,32,149632,5,4,
32,96,150299,1,0,
32,160,150965,1,0,
32,224,151632,1,0,
32,288,152299,1,0,
32,352,152797,2,2,L|32:352|128:352,1,75
256,192,153632,12,4,154299
480,32,154965,5,4,
480,96,155632,1,0,
480,160,156299,1,0,
480,224,156965,1,0,
480,288,157632,1,0,
480,352,158131,2,2,L|480:352|384:352,1,75
256,192,158965,12,4,160299
256,192,170960,1,4,
192,192,171626,1,0,
128,192,172293,2,0,L|128:192|0:192,1,100
32,128,173626,1,0,
32,64,174293,1,0,
96,64,174960,2,0,L|96:64|224:64,1,100
256,64,176293,5,4,
320,64,176960,1,0,
384,64,177626,2,0,L|384:64|512:64,1,100
480,128,178960,1,0,
480,192,179626,1,0,
480,256,180293,2,0,L|480:256|480:384,1,100
416,352,181626,5,4,
352,352,182293,1,0,
288,352,182960,2,0,L|288:352|288:224,2,100
224,352,184960,1,0,
160,352,185626,1,0,
96,352,186293,1,0,
32,352,186959,6,0,L|32:352|32:224,1,100
32,192,188293,2,0,L|32:192|160:192,1,100
192,192,189626,2,0,L|192:192|320:192,1,100
352,192,190959,2,0,L|352:192|480:192,1,100
448,128,192293,5,0,
448,64,192959,1,0,
384,64,193626,2,0,L|384:64|384:192,2,100
320,64,195626,1,0,
256,64,196293,1,0,
256,128,196959,1,0,
256,192,197630,12,4,202630
160,192,204293,2,4,L|160:192|384:192,1,200
384,128,206297,5,0,
320,128,206964,1,0,
256,128,207630,1,0,
256,128,207964,1,0,
256,128,208297,1,4,
192,128,208964,1,0,
128,128,209630,1,0,
128,192,210297,1,0,
192,192,210964,5,4,
256,192,211630,1,0,
320,192,212297,1,0,
320,192,212630,1,0,
320,192,212964,1,0,
384,192,213630,1,0,
384,256,214297,1,0,
320,256,214964,1,0,
256,256,215630,1,0,
192,256,216297,5,4,
128,256,216964,1,0,
128,192,217630,1,0,
128,192,217964,1,0,
128,192,218297,1,0,
192,192,218964,1,0,
256,192,219630,1,0,
320,192,220297,1,0,
384,192,220964,1,0,
384,128,221630,5,4,
320,128,222297,1,0,
256,128,222964,1,0,
256,128,223297,1,0,
256,128,223630,1,0,
256,192,224297,12,4,225464
