osu file format v5

[General]
AudioFilename: Little Non - 1 2 3 Day.mp3
AudioLeadIn: 1000
PreviewTime: -1
Countdown: 0
SampleSet: Normal
StackLeniency: 0.7
Mode: 0
LetterboxInBreaks: 1
EditorBookmarks: 6011,17987,23419,29345,32121,32401,38604,53604,60456,61011,66937,73049,73789,74530,75271,76011,78049
EditorDistanceSpacing: 0.800000011920929

[Metadata]
Title:1, 2, 3 Day
Artist:Little Non
Creator:Zero Eiyuu
Version:Grade 8
Source:Kodomo no Jikan Term 2
Tags:Kodomo no Jikan

[Difficulty]
HPDrainRate:6
CircleSize:5
OverallDifficulty:6
SliderMultiplier:1.6
SliderTickRate:3

[Events]
//Background and Video events
0,0,"kodomo no jikan term2.png"
Video,-1089,"Little Non - 1 2 3 Day.avi"
//Break Periods
2,2570,4811
2,8495,10737
2,23310,25182
2,41952,46602
2,60656,66223
//Storyboard Layer 0 (Background)
//Storyboard Layer 1 (Fail)
//Storyboard Layer 2 (Pass)
//Storyboard Layer 3 (Foreground)
//Storyboard Sound Samples
//Background Colour Transformations
3,100,163,162,255

[TimingPoints]
72,372.670807453416,4,1,0,58,1,0
72726,260.869565217391,4,1,0,100,1,0
74971,372.670807453416,4,1,0,100,1,0

[HitObjects]
440,152,74,5,0
344,152,506,1,0
264,152,876,1,0
200,152,1185,1,0
144,184,1432,1,0
120,240,1802,1,0
144,296,2111,1,0
200,320,2296,1,0
72,232,6034,5,0
168,232,6466,1,0
248,232,6836,1,0
312,232,7145,1,0
368,200,7392,1,0
392,144,7762,1,0
368,88,8071,1,0
312,64,8256,1,0
24,200,11935,5,0
32,144,12121,1,0
48,96,12370,1,0
72,56,12557,1,0
96,32,12619,1,0
120,24,12681,1,0
144,40,12742,1,0
152,80,13053,1,0
192,80,13232,5,8
232,80,13417,2,8,B|296:80,1,53.3333333333333
320,80,13726,1,0
360,80,13911,1,0
400,80,14096,1,0
424,80,14219,2,2,B|456:144|408:192,1,106.666666666667
496,352,14775,5,0
472,320,14960,1,0
440,296,15145,1,0
400,288,15330,1,0
360,288,15516,1,0
360,288,15631,1,0
360,288,15724,1,0
328,288,15886,1,0
312,288,15973,1,0
248,280,16257,1,8
248,280,16380,1,8
248,280,16469,1,8
216,280,16627,1,0
176,280,16812,1,0
136,280,16997,1,0
112,280,17121,1,8
16,24,17985,5,0
40,56,18170,1,0
56,80,18332,1,0
88,104,18540,1,0
88,104,18612,1,0
88,104,18726,1,0
120,88,18911,1,0
152,64,19096,1,0
184,88,19281,1,8
184,88,19357,1,8
184,88,19450,1,8
216,112,19637,1,0
248,88,19823,1,0
272,56,20009,1,0
312,56,20196,1,8
376,56,20506,1,8
416,96,20763,5,8
488,192,20948,1,8
416,288,21133,1,8
320,192,21256,5,8
320,192,21442,1,8
320,192,21627,1,8
320,192,21750,1,8
320,192,21935,1,8
256,128,22244,5,8
256,128,22306,1,8
256,128,22432,1,8
192,192,22619,1,8
192,192,22805,1,8
256,256,22985,1,8
256,256,23053,1,8
256,192,26318,5,8
256,192,26750,1,8
256,192,26812,12,4,29158
0,240,29775,5,0
32,200,30022,1,0
64,160,30269,1,0
88,128,30454,1,0
128,136,30639,1,0
128,136,30763,1,0
128,136,30886,1,0
144,96,31096,5,8
144,96,31190,1,8
144,96,31314,1,8
144,96,31380,1,0
184,96,31565,1,0
216,128,31750,1,0
184,168,31937,1,8
136,176,32121,2,8,B|88:168|64:184|40:200|40:256,1,120
32,320,32676,5,0
88,288,32861,1,0
144,256,33047,1,0
200,232,33232,1,0
256,200,33417,1,0
312,168,33602,1,8
312,168,33726,1,8
368,136,33911,1,8
456,112,34096,5,8
456,112,34158,1,8
456,112,34234,1,8
480,32,34343,1,0
480,32,34528,1,0
480,32,34713,1,0
480,32,34898,1,0
480,32,35022,1,0
120,136,35824,5,0
88,192,36009,1,0
136,248,36195,1,0
208,256,36380,1,8
264,216,36565,1,8
264,216,36689,1,8
296,160,36874,1,8
320,64,37091,5,0
280,72,37214,1,0
280,72,37276,1,0
280,72,37339,1,8
216,80,37523,1,0
176,88,37650,1,8
96,104,37898,1,8
96,104,37965,1,8
416,80,38787,5,8
96,128,39158,5,8
256,272,39528,5,8
256,192,39960,12,4,41750
32,32,47800,5,8
256,32,48519,5,0
480,32,49590,5,0
480,192,50022,5,8
480,352,50392,5,0
256,352,50763,5,8
32,352,51503,5,8
32,192,52244,5,8
80,192,53664,5,8
104,192,53788,1,8
192,192,53985,1,8
320,192,54171,1,8
408,192,54358,1,8
432,192,54466,1,8
16,192,55207,5,8
96,32,55577,1,8
160,320,55948,1,8
112,192,56318,5,0
208,192,56503,1,0
304,192,56874,1,0
400,192,57182,1,0
400,192,57429,1,0
448,240,57960,6,0,B|480:192|448:144,1,80
416,112,58540,2,0,B|416:64|352:48|304:64|288:128,1,160
208,112,59281,2,0,B|208:128|176:144|160:144|144:128|128:112,1,80
69,155,59775,2,0,B|37:203|69:267|117:283|149:267|181:251,1,186.666666666667
240,192,60383,2,8,B|272:192,3,26.6666666666667
496,192,67121,5,8
416,32,67491,1,8
352,320,67862,1,8
416,192,68232,5,0
320,192,68417,1,0
192,192,68787,1,0
96,192,69096,1,0
96,192,69343,1,0
48,240,69947,6,0,B|16:192|48:144,1,80
128,112,70506,2,0,B|128:80|176:48|208:64|224:128,1,133.333333333333
288,112,71190,2,0,B|288:128|320:144|336:144|352:128|368:112,1,80
416,144,71750,2,0,B|448:176|432:240|400:256|352:256|336:240,1,160
240,192,72308,2,8,B|272:192,3,26.6666666666667
16,144,73047,2,6,B|88:88|176:40|256:16|328:16|448:32,1,453.333333333333
40,208,74528,6,6,B|144:128|256:72|368:72|480:104|480:104,1,453.333333333333
256,192,76009,12,4,77491
32,32,78479,5,0
32,112,78664,1,0
32,192,78849,1,0
32,272,79096,1,0
32,352,79466,1,0
144,272,79775,1,0
256,192,80145,1,0
368,112,80330,1,0
480,32,80701,5,0
480,112,81071,1,0
480,192,81442,1,0
480,272,81874,1,0
480,344,82059,1,0
368,272,82368,1,0
256,192,82738,1,0
144,112,83108,1,0
32,32,83293,1,0
480,192,84466,5,0
432,112,84775,1,0
352,48,85022,1,0
256,16,85392,1,0
160,48,85763,1,0
80,112,86133,1,0
48,192,86345,1,0
80,272,86656,1,0
160,336,86997,1,0
256,368,87215,1,0
352,336,87403,1,0
432,272,87588,1,0
448,192,87774,1,0
256,192,87923,12,0,90639
