osu file format v5

[General]
AudioFilename: Little Non - 1 2 3 Day.mp3
AudioLeadIn: 1000
PreviewTime: -1
Countdown: 0
SampleSet: Normal
StackLeniency: 0.7
Mode: 0
LetterboxInBreaks: 1
EditorBookmarks: 14980,16480,23230,24708,26417,27969,29833,35855,46603,50703,53605,53684,55641,67100,73049,73789,74530,75271,78234,78604,88105,89345,90579,90951
EditorDistanceSpacing: 0.800000011920929

[Metadata]
Title:1, 2, 3 Day
Artist:Little Non
Creator:Zero Eiyuu
Version:Grade 2
Source:Kodomo no Jikan Term 2
Tags:Kodomo no Jikan

[Difficulty]
HPDrainRate:2
CircleSize:4
OverallDifficulty:3
SliderMultiplier:1.4
SliderTickRate:1

[Events]
//Background and Video events
0,0,"kodomo no jikan term2.png"
1,-1089,"Little Non - 1 2 3 Day.avi"
//Break Periods
2,18179,21790
2,27137,28352
2,36055,37415
2,41305,46290
2,84360,86670
//Storyboard Layer 0 (Background)
//Storyboard Layer 1 (Failing)
//Storyboard Layer 2 (Passing)
//Storyboard Layer 3 (Foreground)
//Storyboard Sound Samples
//Background Colour Transformations
3,100,163,162,255

[TimingPoints]
12,372.670807453416,4,1,0,58,1,0

[HitObjects]
192,16,12000,1,0
96,64,12355,1,0
0,128,12730,1,0
96,64,13105,1,0
192,16,13480,1,0
96,64,13855,1,0
0,128,14173,2,0,B|-32:192|16:272,1,140,0|8
16,304,14981,6,4,B|48:240|80:272|96:304|128:304|128:304|160:208|192:320|208:416|240:240|256:192|288:272|304:336|320:368|352:352|352:192|400:304|400:304|432:336|496:272,2,560
176,160,23326,6,8,B|208:128|240:112|288:112|320:144|352:176,1,175
368,224,23974,2,0,B|336:256|288:272|240:272|176:256|128:208,1,245
256,192,26382,5,8
256,192,26752,1,8
256,192,26937,1,8
480,32,29826,5,0
256,32,30571,1,0
32,32,31312,1,0
32,192,32062,1,0
32,352,32812,1,0
256,352,33562,1,0
480,352,34312,1,0
480,192,35850,1,0
16,320,38820,5,0
94,324,39195,1,0
173,323,39570,1,0
251,322,39945,1,0
331,321,40320,1,0
407,321,40695,1,0
483,320,41070,1,0
32,192,47730,5,0
256,32,48481,1,0
480,192,49592,1,0
410,245,49962,1,0
331,301,50332,1,0
256,352,50703,2,0,B|256:64,1,280
256,32,52184,1,0
256,192,53605,12,0,55230
176,80,55602,5,0
112,80,55913,1,0
48,80,56382,6,0,B|48:160,1,70
48,176,56876,1,0
48,208,57184,2,0,B|48:320,1,93.3333333333333
64,304,58234,1,8
144,304,58604,1,8
224,304,58974,1,8
304,304,59345,1,8
384,304,59715,1,8
464,304,60086,1,8
448,96,61073,6,8,B|336:48|224:16|128:16|96:32|96:32,1,350
352,144,62678,2,8,B|272:112|224:112|160:80|96:96|64:96,1,280
112,304,64160,5,8
256,304,64857,1,8
400,304,65602,1,8
336,80,67123,5,0
400,80,67493,1,0
464,80,67863,1,0
464,80,68234,6,0,B|464:160,1,70
464,176,68770,1,0
464,208,69142,2,0,B|464:320,1,93.3333333333333
448,304,70074,1,8
368,304,70456,1,8
288,304,70826,1,8
208,304,71197,1,8
128,304,71567,1,8
48,304,71937,1,8
128,112,73049,6,0,B|192:80|240:80|288:64|336:64|384:64|416:64,3,280,0|0|0|0
256,192,76037,12,0,77527
16,32,78974,5,0
176,32,79715,1,0
336,32,80456,5,0
496,32,81197,1,0
496,352,81937,1,0
336,352,82678,1,0
176,352,83419,1,0
16,352,84160,1,0
256,192,88110,12,6,90579
