osu file format v7

[General]
AudioFilename: 1, 2, 3 Day (TV Size).mp3
AudioLeadIn: 1500
PreviewTime: 56650
Countdown: 0
SampleSet: Normal
StackLeniency: 0.4
Mode: 0
LetterboxInBreaks: 0

[Editor]
Bookmarks: 1150,7150,13150,19150,25150,31150,37150,43150,49150,56650,62650,68650,74650,80650,86650,92650
DistanceSpacing: 1
BeatDivisor: 4
GridSize: 16

[Metadata]
Title:1, 2, 3 Day (TV Size)
Artist:Little Non
Creator:DJPop
Version:Insane
Source:Kodomo no Jikan 2 Gakki
Tags:Kokonoe Rin Kuro Kagami Usa Mimi Kitamura Eri Shindou Kei Kadowaki Mai

[Difficulty]
HPDrainRate:5
CircleSize:5
OverallDifficulty:8
SliderMultiplier:1.92
SliderTickRate:2

[Events]
//Background and Video events
Video,0,"1 2 3 Day (TV Size).avi"
0,0,"1 2 3 Day (TV Size).png"
//Break Periods
//Storyboard Layer 0 (Background)
//Storyboard Layer 1 (Fail)
//Storyboard Layer 2 (Pass)
//Storyboard Layer 3 (Foreground)
//Storyboard Sound Samples
//Background Colour Transformations
3,100,0,0,0

[TimingPoints]
1150,375,4,1,1,80,1,0
56650,-100,4,1,1,80,0,1
68649,-100,4,1,1,80,0,0
68650,-100,4,1,1,80,0,1
80556,-100,4,1,1,80,0,0
92181,-300,4,1,1,80,0,0
92650,-100,4,2,1,0,0,0

[Colours]
Combo1 : 0,255,0
Combo2 : 0,255,255
Combo3 : 255,0,255
Combo4 : 255,255,0

[HitObjects]
96,192,1150,5,6
256,32,1525,1,2
416,192,1900,1,2
256,352,2275,1,2
256,288,2462,1,2
256,96,2837,1,2
352,192,3212,1,2
288,192,3400,1,2
224,192,3587,1,8
160,192,3775,1,8
256,32,4150,5,4
416,192,4525,1,0
256,352,4900,1,0
96,192,5275,1,0
160,192,5462,1,0
352,192,5837,1,8
224,128,6212,1,0
256,112,6306,1,8
288,128,6400,1,0
256,192,6587,1,8
224,256,6775,1,8
256,272,6868,1,8
288,256,6962,1,0
256,192,7150,5,6
448,192,7525,1,10
352,32,7900,2,0,C|160:32,1,192,2|10
96,32,8462,2,0,C|96:128,1,96,2|0
32,32,8837,2,0,C|32:128,1,96,2|8
64,192,9212,1,2
32,256,9400,2,2,C|32:352,1,96,2|2
96,256,9775,2,2,C|96:352,1,96,8|2
160,352,10150,5,4
352,352,10525,1,8
256,192,10900,1,0
160,32,11275,1,8
176,32,11368,1,8
192,32,11462,1,8
208,32,11556,1,8
352,32,11837,1,8
256,192,12212,1,8
320,192,12400,2,2,B|311:244|256:256,1,96,0|2
192,192,12775,2,2,B|203:246|256:256,1,96,0|2
256,320,13150,5,4
320,352,13337,1,0
384,320,13525,1,8
448,288,13712,1,0
464,256,13806,1,0
480,224,13900,1,0
464,192,13993,1,0
416,144,14181,1,0
464,96,14368,1,0
416,48,14556,1,0
384,32,14650,5,0
320,64,14837,1,0
256,32,15025,1,8
192,32,15212,1,0
160,96,15400,1,0
32,32,15681,1,0
32,176,15962,1,0
80,224,16150,5,0
80,288,16337,1,0
128,336,16525,1,8
176,288,16712,1,0
208,304,16806,1,0
240,320,16900,1,0
272,304,16993,1,0
336,336,17181,1,0
384,288,17368,1,0
416,352,17556,1,0
448,336,17650,5,0
464,272,17837,1,0
480,208,18025,1,8
464,144,18212,1,0
448,112,18306,1,0
416,96,18400,2,0,C|320:96,1,96
416,32,18775,2,0,C|320:32,1,96,8|0
256,64,19150,5,4
192,32,19337,1,0
128,64,19525,1,8
64,96,19712,1,0
48,128,19806,1,0
32,160,19900,1,0
64,224,20087,1,0
128,224,20275,1,8
160,160,20462,1,0
192,144,20556,1,0
224,160,20650,5,0
256,224,20837,1,0
320,224,21025,1,8
336,160,21212,1,0
400,160,21400,1,0
480,280,21681,1,0
352,352,21962,1,0
288,320,22150,5,0
224,352,22337,1,0
160,320,22525,1,8
96,352,22712,1,0
32,320,22900,1,0
32,288,22993,1,0
80,240,23181,1,0
32,192,23368,1,0
32,160,23462,1,0
32,128,23556,1,0
32,96,23650,5,0
64,32,23837,1,0
128,32,24025,1,8
160,96,24212,1,0
192,112,24306,1,8
320,48,24587,1,8
384,32,24775,1,8
448,48,24962,1,8
464,72,25056,1,8
480,96,25150,6,0,C|480:288,1,192,4|8
480,352,25712,1,0
480,352,25806,1,0
480,352,25900,1,0
480,288,26087,1,0
480,288,26181,1,0
480,288,26275,1,8
288,352,26650,6,0,C|288:160,1,192,0|8
288,96,27212,1,0
288,96,27306,1,8
288,96,27400,1,0
288,160,27587,1,8
288,160,27681,1,0
288,160,27775,1,8
224,160,27962,1,8
224,160,28056,1,8
224,160,28150,6,0,C|32:160,1,192,4|8
32,96,28712,1,0
32,96,28806,1,0
32,96,28900,1,0
32,160,29087,1,0
32,160,29181,1,0
32,160,29275,1,8
32,352,29650,6,0,C|224:352,1,192,0|8
304,352,30212,1,0
304,352,30306,1,0
304,352,30400,1,0
304,352,30493,1,8
304,352,30587,1,0
304,352,30681,1,8
304,352,30775,1,0
480,352,31150,5,6
416,320,31337,1,0
480,288,31525,1,8
416,256,31712,1,0
480,224,31900,1,0
464,192,31993,1,0
432,128,32181,1,0
464,64,32368,1,0
432,48,32462,1,0
400,32,32556,1,0
368,48,32650,5,2
320,96,32837,1,0
272,48,33025,1,8
224,96,33212,1,0
176,48,33400,1,2
32,32,33681,1,0
80,80,33868,1,0
96,112,33962,1,0
32,144,34150,5,2
64,208,34337,1,2
128,208,34525,1,8
160,272,34712,1,0
224,272,34900,1,0
240,304,34993,1,0
288,352,35181,1,0
352,352,35368,1,0
384,336,35462,1,0
416,320,35556,1,0
448,336,35650,5,2
480,272,35837,1,0
448,208,36025,1,8
384,240,36212,1,0
352,224,36306,1,0
336,192,36400,2,0,C|336:96,1,96
272,192,36775,2,0,C|272:96,1,96,8|0
336,32,37150,5,10
320,32,37243,1,8
304,32,37337,1,8
288,32,37431,1,8
272,32,37525,1,4
208,32,37712,1,0
160,80,37900,1,2
128,80,37993,1,0
80,32,38181,1,0
32,80,38368,1,0
32,112,38462,1,0
32,144,38556,1,0
32,176,38650,5,0
96,208,38837,1,0
160,176,39025,1,8
160,240,39212,1,0
176,272,39306,1,0
208,288,39400,2,0,C|304:288,1,96
208,352,39775,2,0,C|304:352,1,96,8|0
368,320,40150,5,2
368,64,40525,1,10
144,192,40900,2,0,C|336:192,1,192,2|8
400,192,41462,1,2
256,320,41837,6,0,C|160:320,1,96,2|8
96,320,42212,1,2
64,304,42306,1,8
48,272,42400,1,2
32,208,42587,1,8
48,144,42775,1,8
64,112,42868,1,0
96,96,42962,1,0
128,80,43056,1,0
160,64,43150,6,0,C|352:64,1,192,4|8
400,112,43712,1,0
352,160,43900,2,0,C|160:160,2,192,0|8|0
448,320,45025,5,8
256,336,45400,1,0
192,352,45587,1,0
160,336,45681,1,8
144,304,45775,1,0
80,320,45962,1,8
48,304,46056,1,8
32,272,46150,6,0,C|32:80,1,192,4|8
80,32,46712,1,0
128,80,46900,2,0,C|320:80,1,192,0|8
320,272,47650,6,0,C|128:272,1,192,0|8
128,208,48212,1,0
144,176,48306,1,8
176,160,48400,1,8
208,176,48493,1,8
224,208,48587,1,0
288,208,48775,1,8
304,176,48868,1,8
320,144,48962,1,0
384,112,49150,6,0,C|384:304,1,192,4|8
432,352,49712,1,0
480,304,49900,2,0,C|480:112,2,192,0|8|0
288,320,51025,5,8
96,304,51400,1,0
64,240,51587,1,0
48,208,51681,1,8
64,176,51775,1,0
96,112,51962,1,8
112,80,52056,1,8
144,64,52150,6,0,C|336:64,1,192,4|8
368,160,52712,1,0
368,160,52806,1,8
368,160,52900,2,0,C|176:160,1,192,0|8
144,256,53462,1,0
144,256,53556,1,8
144,256,53650,6,0,C|336:256,2,192,4|8|0
80,288,54587,1,8
144,320,54775,1,8
168,336,54868,1,8
192,352,54962,1,0
256,336,55150,5,2
256,312,55243,1,2
256,232,55431,1,2
256,152,55618,1,2
256,72,55806,1,2
256,48,55900,1,2
256,192,56275,5,8
480,192,56650,5,6
256,352,57025,1,10
32,192,57400,1,2
256,32,57775,1,8
256,32,57962,1,0
144,176,58337,6,0,C|144:272,1,96,0|8
192,320,58712,1,0
208,256,58900,2,0,B|208:224|208:176|256:170|304:176|304:224|304:256,1,192,0|8
320,320,59462,1,0
256,352,59650,5,4
32,192,60025,1,8
256,32,60400,1,0
480,192,60775,1,8
480,192,60962,1,0
336,96,61337,6,0,C|240:96,1,96,0|8
176,96,61712,1,0
176,160,61900,2,0,B|200:192|216:208|256:216|296:208|312:192|336:160,1,192,0|8
352,352,62650,6,0,C|160:352,1,192,4|8
96,320,63212,1,0
160,288,63400,2,0,C|352:288,1,192,0|8
480,144,64150,5,0
288,96,64525,1,8
224,288,64900,1,0
32,240,65275,1,8
32,32,65650,6,0,C|224:32,1,192,0|12
480,32,66400,2,0,C|288:32,1,192,0|12
256,352,67150,6,0,C|256:160,1,192,0|8
192,160,67712,1,0
192,128,67806,1,8
192,96,67900,1,0
256,96,68087,1,8
320,96,68275,1,8
320,112,68368,1,8
320,128,68462,1,8
320,144,68556,1,8
320,160,68650,5,6
256,352,69025,1,10
192,160,69400,1,2
384,160,69775,1,8
384,160,69962,1,0
240,32,70337,6,0,C|144:32,1,96,0|8
80,64,70712,1,0
48,128,70900,2,0,B|16:160|16:192|10:217|16:240|16:272|48:304,1,192,0|8
96,352,71462,1,0
160,352,71650,5,4
352,352,72025,1,8
256,192,72400,1,0
160,32,72775,1,8
160,32,72962,1,0
352,32,73337,6,0,C|448:32,1,96,0|8
480,96,73712,1,0
480,160,73900,2,0,C|480:352,1,192,0|8
160,352,74650,6,0,C|352:352,1,192,4|8
96,96,75400,6,0,C|96:288,1,192,0|8
352,32,76150,6,0,C|160:32,1,192,0|8
416,288,76900,6,0,C|416:96,1,192,0|8
160,192,77650,6,0,C|352:192,3,192,4|8|0|8
160,192,79150,6,0,C|64:192,1,96
32,256,79525,1,8
48,288,79618,1,8
64,320,79712,1,8
96,336,79806,1,8
128,352,79900,1,8
192,352,80087,1,8
256,320,80275,1,8
320,288,80462,1,0
384,256,80650,6,0,C|480:256,1,96,4|0
384,192,81025,2,0,C|480:192,1,96,8|0
384,128,81400,2,0,C|480:128,1,96
384,64,81775,1,8
320,64,81962,6,0,C|224:64,1,96
320,128,82337,2,0,C|224:128,1,96,0|8
320,192,82712,2,0,C|224:192,1,96
320,256,83087,2,0,C|224:256,1,96,0|8
160,256,83462,1,0
96,256,83650,6,0,C|96:352,1,96,4|8
32,352,84025,1,0
32,288,84212,1,0
32,272,84306,1,8
32,256,84400,2,0,C|32:160,1,96
32,96,84775,1,8
32,32,84962,1,8
48,32,85056,1,0
64,32,85150,1,0
128,32,85337,5,8
96,96,85525,1,8
160,96,85712,1,0
144,128,85806,1,8
128,160,85900,1,0
192,160,86087,1,0
160,224,86275,1,8
224,224,86462,1,0
192,288,86650,6,0,B|200:328|216:352|256:360|296:352|312:328|320:288,3,192,4|8|0|8
288,224,87962,1,0
256,32,88337,6,0,C|352:32,1,96,0|8
416,48,88712,1,0
448,64,88806,1,0
464,96,88900,1,8
448,128,88993,1,8
416,144,89087,1,8
352,160,89275,1,8
352,224,89462,1,0
288,256,89650,6,0,B|288:316|296:352,2,96,4|0|0
256,192,90212,2,0,C|256:96,2,96
224,256,90775,2,0,B|224:316|216:352,2,96
160,224,91337,5,0
160,160,91525,1,0
96,128,91712,1,0
96,64,91900,1,0
160,32,92087,1,0
224,32,92275,2,0,C|288:32,1,64
