osu file format v7

[General]
AudioFilename: 1, 2, 3 Day (TV Size).mp3
AudioLeadIn: 1500
PreviewTime: 56650
Countdown: 0
SampleSet: Normal
StackLeniency: 0.4
Mode: 0
LetterboxInBreaks: 0

[Editor]
Bookmarks: 1150,7150,13150,19150,25150,31150,37150,43150,49150,56650,62650,68650,74650,80650,86650,92650
DistanceSpacing: 1
BeatDivisor: 4
GridSize: 32

[Metadata]
Title:1, 2, 3 Day (TV Size)
Artist:Little Non
Creator:DJPop
Version:Hard
Source:Kodomo no Jikan 2 Gakki
Tags:Kokonoe Rin Kuro Kagami Usa Mimi Kitamura Eri Shindou Kei Kadowaki Mai

[Difficulty]
HPDrainRate:4
CircleSize:4
OverallDifficulty:6
SliderMultiplier:1.6
SliderTickRate:2

[Events]
//Background and Video events
Video,0,"1 2 3 Day (TV Size).avi"
0,0,"1 2 3 Day (TV Size).png"
//Break Periods
//Storyboard Layer 0 (Background)
//Storyboard Layer 1 (Fail)
//Storyboard Layer 2 (Pass)
//Storyboard Layer 3 (Foreground)
//Storyboard Sound Samples
//Background Colour Transformations
3,100,0,0,0

[TimingPoints]
1150,375,4,1,1,80,1,0
56650,-100,4,1,1,80,0,1
58525,-100,4,1,2,80,0,1
58618,-100,4,1,1,80,0,1
61525,-100,4,1,2,80,0,1
61618,-100,4,1,1,80,0,1
68649,-100,4,1,1,80,0,0
68650,-100,4,1,1,80,0,1
70525,-100,4,1,2,80,0,1
70618,-100,4,1,1,80,0,1
73525,-100,4,1,2,80,0,1
73618,-100,4,1,1,80,0,1
80556,-100,4,1,1,80,0,0
92181,-200,4,1,1,80,0,0
92650,-100,4,2,1,0,0,0

[Colours]
Combo1 : 0,255,0
Combo2 : 0,255,255
Combo3 : 255,0,255
Combo4 : 255,255,0

[HitObjects]
128,192,1150,5,6
256,64,1525,1,2
384,192,1900,1,2
256,320,2275,1,2
256,320,2462,1,2
256,192,2837,1,2
256,64,3212,1,2
256,64,3400,1,2
96,352,4150,5,4
256,352,4525,1,0
416,352,4900,1,0
416,192,5275,1,0
416,192,5462,1,0
256,192,5837,1,0
96,192,6212,1,0
96,192,6400,1,0
384,192,7150,5,6
256,320,7525,1,2
128,192,7900,1,2
256,64,8275,1,2
256,64,8462,1,2
256,192,8837,1,2
256,320,9212,1,2
256,320,9400,1,2
416,32,10150,5,4
256,32,10525,1,0
96,32,10900,1,0
96,192,11275,1,0
96,192,11462,1,0
256,192,11837,1,0
416,192,12212,1,0
416,192,12400,2,2,C|416:272,3,80,0|2|0|2
416,288,13150,5,4
256,352,13525,1,0
96,288,13900,1,0
96,128,14275,1,0
96,128,14462,1,0
256,64,14837,5,0
416,128,15212,1,0
416,128,15400,1,0
416,288,15775,1,0
256,352,16150,5,0
256,192,16525,1,0
256,32,16900,1,0
96,96,17275,1,0
96,96,17462,1,0
96,256,17837,5,0
256,320,18212,1,0
320,352,18400,1,0
352,288,18587,1,0
416,320,18775,1,0
448,256,18962,1,0
480,192,19150,5,4
384,64,19525,1,0
288,192,19900,1,0
192,64,20275,1,0
192,64,20462,1,0
96,192,20837,5,0
192,320,21212,1,0
192,320,21400,1,0
32,320,21775,1,0
32,160,22150,5,0
128,32,22525,1,0
224,160,22900,1,0
320,32,23275,1,0
320,32,23462,1,0
416,160,23837,5,0
320,288,24212,1,0
288,352,24400,1,0
224,320,24587,1,0
160,352,24775,1,0
128,288,24962,1,0
96,224,25150,6,0,C|96:64,1,160,4|8
96,64,25712,1,0
96,64,25806,1,0
96,64,25900,1,0
96,64,26087,1,0
96,64,26181,1,0
96,64,26275,1,8
203,224,26650,6,0,C|203:64,1,160,0|8
203,64,27212,1,0
203,64,27306,1,8
203,64,27400,1,0
203,64,27587,1,8
203,64,27681,1,0
203,64,27775,1,8
309,224,28150,6,0,C|309:64,1,160,4|8
309,64,28712,1,0
309,64,28806,1,0
309,64,28900,1,0
309,64,29087,1,0
309,64,29181,1,0
309,64,29275,1,8
416,224,29650,6,0,C|416:64,1,160,0|8
416,64,30212,1,0
416,64,30306,1,0
416,64,30400,1,0
416,64,30587,1,0
416,64,30681,1,8
416,64,30775,1,0
416,288,31150,5,6
256,352,31525,1,0
96,288,31900,1,0
32,128,32275,1,0
64,64,32462,1,0
128,32,32650,5,2
192,64,32837,1,0
224,224,33212,1,0
288,224,33400,1,2
320,64,33775,1,0
480,32,34150,5,2
480,96,34337,1,2
480,160,34525,1,0
384,288,34900,1,0
224,352,35275,1,0
160,320,35462,1,0
96,352,35650,5,2
32,320,35837,1,0
32,160,36212,1,0
96,128,36400,1,0
160,160,36587,1,0
224,192,36775,1,0
288,160,36962,1,0
352,128,37150,5,2
416,272,37525,1,4
480,128,37900,1,2
352,32,38275,1,0
352,32,38462,1,0
192,32,38837,5,0
64,128,39212,1,0
64,128,39400,1,0
64,288,39775,1,0
192,192,40150,5,2
352,192,40525,1,2
256,320,40900,1,2
416,320,41275,1,2
416,320,41462,1,2
448,160,41837,5,2
352,32,42212,1,2
320,96,42400,1,2
256,128,42587,1,0
192,96,42775,1,0
160,32,42962,1,0
96,32,43150,6,0,B|64:48|56:64|46:95|56:128|64:144|96:160,1,160,4|8
160,192,43712,1,0
95,224,43900,2,0,B|64:240|56:256|46:289|56:320|64:336|96:352,2,160,0|8|0
192,96,45025,5,8
320,192,45400,1,0
192,288,45775,1,8
352,352,46150,6,0,C|480:256,1,160,4|8
448,192,46712,1,0
480,128,46900,2,0,C|351:32,1,160,0|8
192,32,47650,6,0,C|32:32,1,160,0|8
32,96,48212,1,0
32,160,48400,2,0,C|192:160,1,160,0|8
320,224,49150,6,0,C|480:224,1,160,4|8
480,288,49712,1,0
480,352,49900,2,0,C|320:352,2,160,0|8|0
480,160,51025,5,8
336,80,51400,1,0
176,80,51775,1,8
32,160,52150,6,0,C|32:320,1,160,4|8
192,320,52900,2,0,C|192:160,1,160,0|8
352,160,53650,6,0,C|352:320,2,160,4|8|0
352,160,54587,1,8
352,160,54775,1,8
160,32,55150,5,2
160,32,55243,1,2
224,32,55431,1,2
288,32,55618,1,2
352,32,55806,1,2
352,32,55900,1,2
256,192,56275,1,8
96,192,56650,5,6
256,352,57025,1,10
416,192,57400,1,2
256,192,57775,1,8
256,192,57962,1,0
176,32,58337,6,0,C|336:32,1,160
336,96,58900,2,0,C|176:96,1,160,0|8
112,64,59462,1,0
48,32,59650,5,4
32,192,60025,1,8
48,352,60400,1,0
192,288,60775,1,8
192,288,60962,1,0
336,352,61337,6,0,C|336:192,1,160
400,192,61900,2,0,C|400:352,1,160,0|8
480,192,62650,6,0,C|480:32,1,160,4|8
416,32,63212,1,0
352,32,63400,2,0,C|192:32,1,160,0|8
32,32,64150,5,0
32,192,64525,1,8
192,192,64900,1,0
352,192,65275,1,8
480,288,65650,6,0,B|456:312|432:320|409:323|384:320|360:312|336:288,1,160,0|12
175,288,66400,2,0,B|152:312|128:320|103:323|80:320|56:312|32:288,1,160,0|12
160,192,67150,6,0,C|160:32,2,160,0|8|0
160,192,68087,1,8
160,192,68275,1,8
256,352,68650,5,6
416,192,69025,1,10
256,32,69400,1,2
256,192,69775,1,8
256,192,69962,1,0
352,64,70337,6,0,C|480:160,1,160
480,224,70900,2,0,C|351:320,1,160,0|8
288,352,71462,1,0
224,352,71650,5,4
64,192,72025,1,8
224,32,72400,1,0
224,192,72775,1,8
224,192,72962,1,0
96,96,73337,6,0,B|112:128|128:136|160:146|192:136|208:128|224:96,1,160
288,96,73900,2,8,B|304:128|320:136|352:146|384:136|400:128|416:96,1,160,0|8
480,256,74650,6,0,C|320:256,1,160,4|8
480,352,75400,2,0,C|320:352,1,160,0|8
192,256,76150,6,0,C|32:256,1,160,0|8
192,352,76900,2,0,C|0:352,1,160,0|8
256,352,77650,6,0,C|256:192,3,160,4|8|0|8
96,160,79150,6,0,C|31:112,1,80
32,112,79525,2,0,C|96:63,1,80,8|0
96,64,79900,2,0,C|160:114,1,80,0|8
160,112,80275,2,0,C|96:161,1,80,8|0
96,224,80650,5,4
32,256,80837,1,0
96,288,81025,1,8
32,320,81212,1,0
96,352,81400,1,0
256,320,81775,5,8
256,256,81962,1,0
256,192,82150,1,0
256,128,82337,1,0
256,64,82525,1,8
416,32,82900,5,0
480,64,83087,1,0
416,96,83275,1,8
352,128,83462,1,0
416,160,83650,1,0
480,192,83837,1,0
416,224,84025,1,8
352,256,84212,1,0
416,288,84400,1,0
288,352,84775,5,8
224,320,84962,1,0
160,288,85150,1,0
96,256,85337,1,0
32,224,85525,1,8
32,64,85900,5,0
96,96,86087,1,0
160,128,86275,1,8
224,160,86462,1,0
288,192,86650,6,0,B|304:224|320:232|352:242|384:232|400:224|416:192,3,160,4|8|0|8
448,128,87962,1,0
304,64,88337,2,0,C|224:64,1,80,0|8
160,64,88712,1,0
96,96,88900,1,8
64,160,89087,1,8
64,224,89275,1,8
96,288,89462,1,0
160,320,89650,6,0,B|208:352|240:360|272:367|304:360|336:352|384:320,3,240,4|0|0|0
448,288,91525,1,0
416,224,91712,1,0
384,160,91900,1,0
320,136,92087,1,0
256,112,92275,2,0,C|256:32,1,80
