osu file format v7

[General]
AudioFilename: 1, 2, 3 Day (TV Size).mp3
AudioLeadIn: 1500
PreviewTime: 56650
Countdown: 0
SampleSet: Normal
StackLeniency: 0.4
Mode: 0
LetterboxInBreaks: 0

[Editor]
Bookmarks: 1150,7150,13150,19150,25150,31150,37150,43150,49150,56650,62650,68650,74650,80650,86650,92650
DistanceSpacing: 0.670000016689301
BeatDivisor: 4
GridSize: 16

[Metadata]
Title:1, 2, 3 Day (TV Size)
Artist:Little Non
Creator:DJPop
Version:Easy
Source:Kodomo no Jikan 2 Gakki
Tags:Kokonoe Rin Kuro Kagami Usa Mimi Kitamura Eri Shindou Kei Kadowaki Mai

[Difficulty]
HPDrainRate:1
CircleSize:3
OverallDifficulty:2
SliderMultiplier:0.96
SliderTickRate:2

[Events]
//Background and Video events
Video,0,"1 2 3 Day (TV Size).avi"
0,0,"1 2 3 Day (TV Size).png"
//Break Periods
//Storyboard Layer 0 (Background)
//Storyboard Layer 1 (Fail)
//Storyboard Layer 2 (Pass)
//Storyboard Layer 3 (Foreground)
//Storyboard Sound Samples
//Background Colour Transformations
3,100,0,0,0

[TimingPoints]
1150,375,4,1,1,80,1,0
55150,-100,4,2,1,0,0,0
55525,-100,4,1,1,80,0,0
56650,-100,4,1,1,80,0,1
68649,-100,4,1,1,80,0,0
68650,-100,4,1,1,80,0,1
80275,-100,4,1,1,80,0,0

[Colours]
Combo1 : 0,255,0
Combo2 : 0,255,255
Combo3 : 255,0,255
Combo4 : 255,255,0

[HitObjects]
352,32,1150,6,2,C|160:32,3,192,6|2|2|2
48,96,4150,6,0,C|48:288,3,192,4|0|0|0
160,352,7150,6,2,C|352:352,3,192,6|2|2|2
464,288,10150,6,0,C|464:96,3,192,4|0|0|0
352,192,13150,5,4
224,192,13900,1,0
96,192,14650,1,0
32,304,15400,1,0
160,304,16150,5,0
288,304,16900,1,0
416,304,17650,1,0
480,192,18400,1,0
416,80,19150,5,4
288,80,19900,1,0
160,80,20650,1,0
32,80,21400,1,0
96,192,22150,5,0
224,192,22900,1,0
352,192,23650,1,0
480,192,24400,1,0
480,320,25150,6,0,C|192:320,1,288,4|8
128,320,26650,2,0,B|80:272|64:224|64:192|64:160|80:112|128:64,1,288,0|8
192,64,28150,6,0,C|480:64,1,288,4|8
480,128,29650,2,0,B|416:128|368:128|329:192|368:256|416:256|480:256,1,288,0|8
480,320,31150,5,6
352,320,31900,1,0
224,320,32650,1,2
96,320,33400,1,2
64,192,34150,5,2
96,64,34900,1,0
224,64,35650,1,2
352,64,36400,1,0
480,64,37150,5,2
448,192,37900,1,2
320,192,38650,1,0
192,192,39400,1,0
96,96,40150,6,2,C|96:288,3,192
208,352,43150,6,0,C|400:352,3,192,4|0|0|0
480,256,46150,6,0,C|480:64,3,192,4|0|0|0
352,32,49150,6,0,C|160:32,3,192,4|0|0|0
48,96,52150,6,0,C|48:288,2,192,4|0|4
256,192,53743,12,0,55150
480,128,56650,5,6
480,192,57025,1,2
480,256,57400,1,2
351,256,58150,1,0
352,128,58900,1,0
224,128,59650,6,0,C|32:128,1,192,4|0
32,256,61150,1,0
160,256,61900,1,0
256,336,62650,6,0,C|448:336,1,192,4|0
448,192,64150,2,0,C|256:192,1,192
256,48,65650,6,0,C|448:48,1,192
448,192,67150,2,0,C|256:192,1,192
144,256,68650,5,6
144,192,69025,1,2
144,128,69400,1,2
32,64,70150,1,0
32,192,70900,1,0
32,320,71650,6,0,B|48:352|80:368|112:371|144:368|176:352|192:320,1,192,4|0
320,320,73150,1,0
448,320,73900,1,0
448,191,74650,6,0,B|448:160|478:64|384:64|352:64,1,192,4|0
224,64,76150,2,0,B|192:64|101:64|128:160|128:192,1,192
160,320,77650,6,0,C|352:320,3,192,4|0|0|0
448,224,80650,5,4
320,192,81400,1,0
192,224,82150,1,0
64,192,82900,1,0
32,64,83650,6,0,B|48:32|80:16|112:13|144:16|176:32|192:64,1,192
320,63,85150,2,0,B|336:32|368:16|400:13|432:16|464:32|480:64,1,192
416,176,86650,5,4
320,264,87400,1,0
192,264,88150,1,0
96,176,88900,1,0
256,176,89650,6,0,C|256:32,4,144,4|0|0|0|0
256,176,92275,1,0
