osu file format v6

[General]
AudioFilename: Brooklyn Rage.mp3
AudioLeadIn: 0
PreviewTime: -1
Countdown: 1
SampleSet: Normal
StackLeniency: 0.7
Mode: 0
LetterboxInBreaks: 1

[Editor]
DistanceSpacing: 1
BeatDivisor: 1
GridSize: 32

[Metadata]
Title:Brooklyn Rage
Artist:Little Kuriboh
Creator:TheFormidibleDan
Version:Insane
Source:
Tags:

[Difficulty]
HPDrainRate:8
CircleSize:5
OverallDifficulty:7
SliderMultiplier:1.8
SliderTickRate:2

[Events]
//Background and Video events
Video,0,"Brooklyn Rage.avi"
//Break Periods
2,40618,43804
2,48685,51871
2,72886,76072
2,97088,100273
2,129356,132542
2,161625,164558
//Storyboard Layer 0 (Background)
//Storyboard Layer 1 (Failing)
//Storyboard Layer 2 (Passing)
//Storyboard Layer 3 (Foreground)
//Storyboard Sound Samples
//Background Colour Transformations
3,100,163,162,255

[TimingPoints]
16230,504.195704697988,4,1,0,100,1,0
55166,-200,4,1,0,100,0,0
56552,-100,4,1,0,100,0,0
80754,-100,4,1,0,77,0,0
161173,-100,4,2,0,100,0,0
169366,-100,4,1,0,100,0,0

[Colours]
Combo1 : 255,255,255
Combo2 : 0,128,0
Combo3 : 255,255,0
Combo4 : 80,61,22
Combo5 : 0,64,128

[HitObjects]
216,88,24549,1,0
296,88,24801,1,8
184,128,25053,5,0
336,128,25305,1,0
152,168,25557,5,0
368,168,25809,1,8
184,216,26061,5,0
336,216,26313,1,0
224,256,26566,5,0
304,256,26818,1,8
264,336,27070,5,0
264,336,27322,2,0,B|264:112,2,180,0|8|0
352,336,28582,1,0
440,336,28834,1,8
440,248,29086,1,0
352,248,29339,1,0
352,160,29591,1,0
440,160,29843,6,0,B|440:48,1,90,8|0
352,64,30347,2,0,B|304:32|256:80,1,90
232,152,30851,2,0,B|184:120|136:168,1,90,8|0
112,240,31355,2,0,B|64:208|16:256,3,90
32,336,32364,5,0
72,336,32490,1,0
112,336,32616,1,0
200,336,32868,1,8
288,336,33120,2,0,B|288:240,2,90
376,336,33876,2,0,B|376:224,2,90,8|0|0
464,336,34633,2,0,B|464:224,1,90,0|8
464,152,35137,2,0,B|360:152,1,90
280,152,35641,1,0
280,152,35767,1,0
232,152,35893,1,0
232,152,36019,1,0
232,152,36145,1,0
104,152,36397,6,0,B|104:264,1,90
104,242,36902,2,0,B|104:351,1,90,8|0
104,332,37406,2,0,B|236:333,1,90
194,333,37910,2,0,B|305:334,1,90
284,333,38414,2,0,B|376:331,1,90
374,332,38918,2,0,B|375:234,1,90
375,242,39423,2,0,B|374:146,1,90
374,152,39927,2,0,B|374:38,1,90
374,62,40431,1,4
336,64,44717,5,0
256,112,44969,1,0
176,160,45221,1,0
256,208,45473,1,0
16,168,45977,5,8
256,208,46229,5,0
336,256,46481,1,0
416,304,46733,1,0
336,352,46985,1,0
416,304,47238,2,0,B|472:304|496:232,1,90
486,255,47742,2,0,B|499:176|428:154,1,90
463,172,48246,2,4,B|429:126|389:123,1,90,0|4
256,48,52784,6,0,B|256:152,1,90
256,227,53288,2,0,B|256:123,1,90
40,136,54044,5,8
256,138,54296,5,0
344,136,54548,1,0
432,136,54800,1,0
432,224,55053,1,0
432,224,55305,2,0,B|280:224,1,135
56,96,56817,5,8
56,96,56943,1,0
56,96,57069,1,8
112,160,57321,2,0,B|168:192|224:136,1,90
264,96,57826,1,8
264,96,57952,1,0
264,96,58078,1,8
320,160,58330,2,0,B|384:192|336:256,1,90
264,272,58834,1,0
176,272,59086,1,0
296,232,59338,5,0
144,232,59590,1,0
220,184,59842,5,0
221,93,60095,1,0
256,192,60599,12,0,62111
40,104,62616,5,0
104,168,62868,1,0
168,104,63120,1,0
256,104,63372,1,8
256,104,63498,1,0
256,104,63624,1,8
344,104,63876,1,0
408,168,64128,1,0
472,104,64380,1,0
408,168,64632,1,0
464,232,64884,5,8
464,232,65010,1,0
464,232,65136,1,8
408,304,65389,2,0,B|352:336|296:280,1,90
256,232,65893,1,8
256,232,66019,1,0
256,232,66145,1,8
200,168,66397,2,0,B|136:136|184:72,1,90
256,56,66901,1,0
344,56,67153,1,0
224,96,67405,5,0
376,96,67657,1,0
304,144,67910,5,0
304,232,68162,1,0
256,192,68666,12,0,70178
480,224,70683,5,0
416,160,70935,1,0
352,224,71187,1,0
264,224,71439,1,8
264,224,71565,1,0
264,224,71691,1,8
176,224,71943,1,0
112,160,72195,1,0
48,224,72447,1,0
112,288,72699,1,4
256,88,76985,5,0
256,176,77237,1,8
256,88,77489,1,0
176,136,77741,1,8
256,88,77993,1,0
328,136,78246,1,8
256,88,78498,1,0
256,176,78750,1,8
256,264,79002,1,0
256,352,79254,1,8
256,352,79506,1,0
344,352,79758,5,8
432,352,80010,1,0
432,304,80136,1,0
432,256,80262,1,0
432,168,80514,1,0
432,80,80767,1,4
344,80,81019,6,0,B|336:128|264:112,1,90
272,24,81523,2,0,B|232:0|192:56,1,90
192,136,82027,2,0,B|184:184|112:168,1,90
120,80,82531,2,0,B|80:56|40:112,1,90
40,192,83035,6,0,B|49:158|140:174,1,90
40,216,83540,2,0,B|49:250|140:234,1,90
200,200,84044,1,8
288,200,84296,1,8
328,200,84422,1,8
368,200,84548,1,12
464,48,85052,5,0
376,48,85304,1,0
376,136,85556,1,0
464,136,85809,2,0,B|464:232,1,90
464,315,86313,2,0,B|464:219,1,90
464,225,86817,2,0,B|352:224,2,90
464,152,87573,1,0
464,225,87825,1,0
376,136,88077,5,8
296,96,88329,1,8
248,96,88456,1,8
200,96,88582,1,8
56,96,89086,6,0,B|56:224,2,90
144,96,89842,1,0
144,96,90094,1,0
144,96,90346,2,0,B|144:192,1,90
144,186,90850,2,0,B|144:280,1,90
232,272,91355,1,0
320,272,91607,1,0
408,272,91859,2,0,B|408:168,1,90
256,80,92615,5,0
256,168,92867,1,0
256,80,93119,1,0
344,80,93371,1,0
256,80,93624,1,0
168,80,93876,1,0
256,80,94128,1,0
256,168,94380,1,0
256,256,94632,5,0
256,256,94758,1,0
256,256,94884,1,0
256,344,95136,1,0
256,256,95388,1,0
344,256,95640,1,0
256,256,95892,1,0
168,256,96145,1,0
256,256,96397,1,0
256,168,96649,1,0
256,256,96901,1,4
256,192,101186,6,0,B|256:128|320:96,1,90
256,192,101691,1,0
256,192,101943,2,0,B|256:128|192:96,1,90,8|0
256,192,102447,1,0
256,192,102699,6,0,B|248:272|176:288,1,90,0|8
256,192,103203,1,0
256,192,103455,2,0,B|264:272|336:288,1,90
295,270,103960,1,8
376,240,104212,1,0
440,176,104464,1,0
472,88,104716,1,0
400,40,104968,6,0,B|376:0|400:104|312:64,1,90
400,40,105472,1,8
400,40,105724,2,0,B|376:80|400:-24|312:16,3,90,0|0|0|8
112,40,106985,6,0,B|136:0|112:104|200:64,1,90
112,40,107489,1,8
112,40,107741,2,0,B|136:80|112:-24|200:16,5,90,0|0|0|8|0|0
256,40,109254,5,0
256,128,109506,1,8
336,168,109758,1,0
336,256,110010,2,0,B|320:296|240:256,1,90
168,288,110514,1,8
80,264,110766,1,0
80,176,111018,1,0
80,264,111270,1,0
256,192,111522,12,0,112531
256,40,113287,6,0,B|408:120|152:152|344:288,1,270
256,40,114296,6,0,B|104:120|360:152|168:288,1,270,0|0
112,264,115304,1,0
40,216,115556,1,8
112,168,115808,1,0
40,112,116060,1,0
112,64,116312,1,0
40,112,116564,1,8
216,120,117069,6,0,B|312:120,2,90
306,120,117825,2,0,B|305:227,2,90
310,30,118581,1,8
384,192,119085,5,0
384,192,119211,1,0
384,192,119338,2,0,B|280:192,1,90
256,304,119842,5,8
128,192,120094,5,0
128,192,120220,1,0
128,192,120346,2,0,B|232:192,2,90
256,344,121354,2,0,B|104:264|360:232|168:96,1,270
256,344,122363,6,0,B|408:264|152:232|344:96,1,270,0|0
400,120,123371,1,0
472,168,123623,1,8
400,216,123875,1,0
472,272,124127,1,0
400,320,124379,1,0
472,272,124632,1,8
296,264,125136,6,0,B|200:264,2,90
206,264,125892,2,0,B|207:157,2,90
202,354,126648,1,8
128,192,127153,5,0
128,192,127279,1,0
128,192,127405,2,0,B|232:192,1,90
256,80,127909,5,8
384,192,128161,5,0
384,192,128287,1,0
384,192,128413,2,0,B|280:192,2,90
472,192,129169,1,4
256,192,133455,5,8
120,192,133707,1,0
256,192,133959,1,8
392,192,134211,1,0
256,192,134463,1,8
256,56,134715,1,0
256,192,134968,1,8
256,328,135220,1,0
256,192,135472,1,8
256,192,135724,1,0
256,192,135976,1,12
48,192,136480,5,0
184,192,136732,1,0
320,192,136984,1,0
456,192,137236,2,0,B|480:336|472:336|288:312|360:-48|-32:48|208:264,1,630,0|0
193,251,139127,5,0
193,251,139253,6,0,B|169:395|177:395|361:371|289:11|681:107|441:323,1,630
456,309,141144,5,0
456,311,141270,6,0,B|254:298|206:175|298:9|238:-39|179:56|153:192,2,540
456,224,144547,1,0
456,136,144799,1,0
456,48,145052,1,0
368,48,145304,1,0
368,136,145556,1,0
368,224,145808,1,0
456,224,146060,1,0
456,136,146312,1,0
368,136,146564,2,0,B|248:136,1,90
278,136,147068,5,0
184,136,147320,1,0
96,136,147572,1,0
184,136,147825,1,0
184,224,148077,1,0
184,312,148329,1,0
184,312,148455,2,0,B|40:312,1,135,0|8
48,224,149085,5,0
48,136,149337,1,0
48,48,149589,1,0
48,136,149841,1,8
136,136,150093,1,0
224,136,150346,2,0,B|344:136,1,90
400,128,150850,5,8
456,200,151102,1,0
400,272,151354,1,0
344,200,151606,1,0
400,128,151858,1,8
456,200,152110,1,0
400,272,152362,1,0
344,200,152614,1,0
256,200,152867,2,0,B|208:152|208:264|152:176,1,90,8|0
184,24,153623,5,0
112,80,153875,1,8
40,128,154127,1,0
40,128,154379,1,0
112,184,154631,1,8
184,232,154883,1,0
184,232,155135,1,0
256,184,155388,5,8
336,232,155640,5,0
336,232,155892,1,0
408,184,156144,1,8
480,128,156396,1,0
480,128,156648,1,0
408,80,156900,5,8
320,80,157152,1,0
232,80,157404,1,8
144,80,157656,1,0
144,168,157908,1,8
144,80,158161,5,0
232,80,158413,1,8
320,80,158665,1,0
408,80,158917,1,8
408,80,159169,2,0,B|368:136|464:136|400:200,1,90
256,192,159673,12,4,161438
256,192,165471,12,0,166480
72,152,167488,5,2
72,240,167740,1,8
104,152,167992,1,2
104,240,168245,1,8
136,152,168497,1,2
136,240,168749,1,8
168,152,169001,1,2
168,240,169253,1,8
256,200,169505,5,4
336,152,169757,5,0
336,240,170009,1,0
368,152,170261,1,0
368,240,170513,1,8
400,152,170765,1,0
400,240,171018,1,0
432,152,171270,1,0
432,240,171522,5,8
432,328,171774,1,0
400,240,172026,1,0
400,328,172278,1,8
368,240,172530,2,0,B|368:352,1,90
336,240,173034,2,0,B|336:352,1,90
256,288,173539,6,0,B|128:152|128:32|272:40|256:152,1,360
256,192,174673,1,0
256,192,174925,1,0
256,192,175051,1,0
96,112,175555,5,8
56,32,175807,1,8
144,32,176060,1,8
96,112,176312,1,8
96,200,176564,1,8
96,288,176816,1,8
96,200,177068,1,8
96,112,177320,1,8
256,200,177824,5,4
176,152,178076,1,0
176,240,178328,1,0
144,152,178581,1,0
144,240,178833,1,8
112,152,179085,1,0
112,240,179337,1,0
80,152,179589,1,0
80,240,179841,5,8
80,328,180093,1,0
112,240,180345,1,0
112,328,180597,1,8
144,240,180849,2,0,B|144:352,1,90
176,240,181354,1,0
256,280,181606,6,0,B|384:144|374:0|242:41|256:149,1,360
256,184,182740,1,0
256,184,182992,1,0
256,184,183118,1,0
416,112,183622,5,8
456,32,183875,1,8
368,32,184127,1,8
416,112,184379,1,8
416,200,184631,1,8
416,288,184883,1,8
416,200,185135,1,8
416,112,185387,1,8
232,112,185891,5,0
184,112,186017,1,0
136,112,186143,2,0,B|80:128|168:152|120:208,1,90
184,264,186648,1,0
280,112,186900,5,0
328,112,187026,1,0
376,112,187152,2,0,B|432:128|344:152|392:208,1,90
328,264,187656,1,0
256,320,187908,6,0,B|256:128,1,180
256,48,188664,1,0
168,48,188917,5,0
344,48,189169,1,0
440,200,189673,6,0,B|320:200,1,90
256,200,190177,1,8
72,200,190681,2,0,B|192:200,1,90
256,200,191185,1,8
256,16,191690,5,0
256,56,191816,1,0
256,96,191942,1,0
256,16,192194,1,0
344,16,192446,1,0
432,16,192698,1,0
432,96,192950,1,0
432,136,193076,1,0
432,176,193202,1,0
432,216,193328,1,0
432,256,193454,1,0
248,256,193958,6,0,B|208:280|152:248,2,90
248,256,194715,1,0
248,256,194967,2,0,B|288:280|344:248,2,90
248,256,195723,1,0
248,168,195975,1,0
248,80,196227,1,0
160,80,196479,1,0
248,80,196732,1,0
336,80,196984,1,0
248,80,197236,1,0
256,192,197740,12,0,199253
144,160,199757,6,0,B|144:208,1,45
144,248,200009,1,0
232,248,200261,1,0
320,248,200513,1,0
360,248,200639,1,0
400,248,200765,1,0
400,160,201017,2,0,B|400:88,1,45
400,72,201269,1,0
400,72,201395,1,0
400,72,201521,1,0
256,192,202026,12,8,202782
256,192,203034,12,8,203790
256,200,204042,5,0
392,200,204294,1,0
256,200,204547,1,0
120,200,204799,1,0
256,200,205051,1,0
256,64,205303,1,0
256,64,205807,5,0
256,64,205933,1,0
168,64,206185,1,0
168,64,206311,1,0
352,64,206815,1,0
352,112,206942,1,0
352,152,207068,1,0
352,192,207194,1,0
352,232,207320,1,0
168,232,207824,6,0,B|88:232,2,45
256,232,208328,1,8
256,144,208580,2,0,B|256:64,2,45
256,232,209084,1,8
256,320,209336,2,0,B|256:368,2,45
256,232,209841,1,4
