osu file format v6

[General]
AudioFilename: Brooklyn Rage.mp3
AudioLeadIn: 0
PreviewTime: -1
Countdown: 1
SampleSet: Normal
StackLeniency: 0.7
Mode: 0
LetterboxInBreaks: 1

[Editor]
DistanceSpacing: 1
BeatDivisor: 1
GridSize: 32

[Metadata]
Title:Brooklyn Rage
Artist:Little Kuriboh
Creator:TheFormidibleDan
Version:Hard
Source:
Tags:

[Difficulty]
HPDrainRate:7
CircleSize:5
OverallDifficulty:6
SliderMultiplier:1.6
SliderTickRate:2

[Events]
//Background and Video events
Video,0,"Brooklyn Rage.avi"
2,40379,43265
2,48446,51319
2,72648,75773
2,96598,100137
2,104917,108055
2,129118,132256
//Storyboard Layer 0 (Background)
//Storyboard Layer 1 (Failing)
//Storyboard Layer 2 (Passing)
//Storyboard Layer 3 (Foreground)
//Storyboard Sound Samples
//Background Colour Transformations
3,100,0,0,0

[TimingPoints]
16230,504.201680672269,4,1,0,50,1,0
55305,-200,4,1,0,50,0,0
56065,-100,4,1,0,50,0,0
56314,-100,4,1,0,50,0,1
72448,-100,4,1,0,50,0,0
112784,-100,4,1,0,50,0,1
128919,-100,4,1,0,50,0,0
161566,-100,4,1,0,50,0,1
173793,-200,4,1,0,50,0,1
175305,-100,4,1,0,40,0,0
185890,-100,4,1,0,61,0,0

[Colours]
Combo1 : 255,255,255
Combo2 : 0,128,0
Combo3 : 255,255,0
Combo4 : 80,61,22
Combo5 : 0,64,128

[HitObjects]
68,77,24297,1,0
68,141,24549,1,0
67,141,24675,1,0
66,141,24801,1,8
68,202,25053,1,0
68,202,25179,1,0
68,203,25305,1,0
67,266,25557,1,0
130,266,25809,1,8
131,202,26061,1,0
195,203,26314,5,0
196,266,26566,1,0
259,266,26818,1,8
260,202,27070,1,0
323,201,27322,1,0
325,264,27574,2,0,C|325:334,2,40,8|8|8
386,265,28078,1,0
449,264,28330,5,0
452,200,28582,2,0,C|452:134,2,40,0|0|8
411,249,29087,2,0,C|412:306,2,40,0|0|0
371,200,29591,2,0,C|371:151,2,40,0|0|8
331,245,30095,1,0
284,201,30347,1,0
237,244,30599,1,0
192,198,30851,1,8
147,244,31103,1,0
105,198,31356,1,0
61,244,31608,2,8,C|61:293,2,40
60,180,32112,1,0
61,52,32364,5,0
124,52,32616,2,0,C|203:132,1,80,0|8
292,50,33120,2,0,C|223:126,1,80,0|0
294,225,33624,2,0,C|228:156,1,80,0|8
125,225,34129,2,0,C|202:147,1,80
211,111,34633,1,0
256,160,34885,1,8
297,111,35137,1,0
339,158,35389,1,0
402,160,35641,2,8,C|402:225,2,40
437,72,36145,5,0
386,32,36398,1,0
334,69,36650,1,0
334,69,36776,1,0
334,69,36902,1,8
386,105,37154,2,0,C|432:107,4,40
384,168,37910,1,8
383,231,38162,5,0
383,231,38288,1,0
383,231,38414,1,0
319,231,38666,1,0
319,231,38793,1,0
319,231,38919,1,8
255,231,39171,1,0
191,231,39423,2,0,C|87:231,1,80,0|0
153,183,39927,2,0,C|153:289,1,80,0|0
95,191,44465,5,4
148,156,44717,2,0,C|200:104,2,40
147,220,45221,2,0,C|194:260,2,40,0|0|0
203,190,45725,1,0
239,137,45977,1,8
285,92,46229,1,0
348,81,46482,1,0
411,91,46734,2,0,C|459:45,2,40,0|0|8
406,151,47238,1,0
469,151,47490,2,0,C|494:184|488:217|475:247,1,80,0|2
422,225,47994,2,0,C|400:265|428:312,1,80,0|2
423,76,52532,5,0
372,114,52784,1,0
348,135,52910,1,0
323,155,53036,1,8
277,200,53288,1,0
323,243,53540,5,0
387,242,53793,1,0
409,264,53919,1,0
431,286,54045,1,8
473,334,54297,1,0
409,335,54549,5,0
345,336,54801,1,0
313,336,54927,1,0
281,337,55053,1,0
217,337,55305,2,0,C|177:316|132:343|94:333,1,120,0|8
60,203,56566,5,0
61,139,56818,2,0,C|169:139,1,80,0|0
141,75,57322,1,0
268,75,57826,2,0,C|380:75,1,80
348,138,58330,1,0
476,136,58835,1,8
476,199,59087,1,8
476,262,59339,1,8
412,265,59591,2,0,C|383:290|337:291,2,80,0|0|8
282,292,60599,5,0
281,164,61103,1,0
282,164,61356,2,0,C|245:198|197:176|163:228,1,160
109,193,62112,1,0
109,193,62238,1,0
109,193,62364,1,8
56,156,62616,6,0,C|30:124|45:67,1,80,0|0
102,88,63120,2,0,C|135:115|182:116,1,80
235,121,63624,2,8,C|235:173,2,40,8|8|8
299,119,64129,1,0
235,121,64381,1,0
402,253,64885,6,0,C|364:282|296:275,2,80
402,253,65641,1,2
401,252,65893,2,0,C|411:210|446:196,2,80
444,196,66650,1,2
445,132,66902,1,0
403,82,67154,1,0
340,68,67406,1,0
283,97,67658,1,0
255,154,67910,1,0
280,212,68162,5,0
280,212,68288,1,0
280,212,68414,1,8
337,239,68666,2,0,C|370:216|416:241,1,80
468,238,69171,2,0,C|468:329,1,80
404,318,69675,2,0,C|322:318,1,80
324,254,70179,2,0,C|418:254,1,80,8|0
405,190,70683,5,0
405,126,70935,1,0
341,126,71187,2,8,C|295:126,2,40
339,190,71692,1,2
341,126,71944,1,8
339,189,72196,1,2
403,190,72448,1,8
51,66,76986,6,0,C|137:66,3,80,0|8|8|0
132,129,77994,2,0,C|132:212,1,80,0|8
195,212,78498,2,0,C|302:212,1,80,0|0
339,214,79003,2,0,C|339:318,2,80,0|8|8
256,192,79759,12,0,80767
89,164,81019,5,0
108,225,81272,1,8
156,266,81524,1,0
220,280,81776,1,0
219,280,81902,1,0
220,281,82028,1,8
280,258,82280,1,0
320,208,82532,1,8
320,144,82784,1,0
271,101,83036,1,8
208,89,83288,1,0
209,89,83414,1,0
208,89,83540,1,8
147,110,83793,6,8,C|104:144|95:192|129:247,1,160,0|8
408,212,84801,5,0
357,251,85053,1,0
301,219,85305,1,0
244,249,85557,1,0
189,216,85809,2,8,C|190:163,2,40
134,249,86314,1,0
82,210,86566,2,0,C|94:170|126:144,1,80
168,100,87070,1,0
209,148,87322,2,0,C|209:199,2,40
250,99,87826,1,0
294,145,88078,2,0,C|305:189|359:216,2,80
388,60,88835,6,0,C|391:107|362:145,1,80
323,91,89339,2,0,C|286:112|270:168,1,80,8|0
332,173,89843,2,0,C|338:216|316:255,1,80
265,215,90347,2,0,C|242:251|249:304,1,80,8|0
307,303,90851,2,2,C|351:303,2,40
305,367,91356,1,8
241,366,91608,1,0
242,302,91860,2,0,C|207:274|146:291,1,80
174,345,92364,2,0,C|135:358|87:328,1,80,8|0
85,219,92868,5,0
85,219,93120,1,0
85,219,93372,2,0,C|191:219,1,80,8|0
229,220,93877,1,0
229,220,94129,1,0
229,220,94381,2,0,C|264:245|331:222,2,80,8|0|0
270,171,95137,1,0
333,168,95389,1,8
334,104,95641,1,0
397,104,95893,1,0
256,191,96398,5,8
107,99,101187,6,0,C|79:132|92:197,1,80,0|8
148,167,101692,2,0,C|240:167,1,80
289,167,102196,1,8
289,167,102322,1,8
289,167,102448,1,8
352,168,102700,2,0,C|353:267,1,80
416,246,103204,2,0,C|416:135,2,80,0|8|0
480,247,103961,2,0,C|483:293|458:341,1,80
404,322,104465,2,0,C|318:322,1,80,8|0
433,296,109255,5,0
371,268,109507,1,0
401,211,109759,1,0
347,176,110011,2,0,C|298:256,1,80
250,211,110515,2,0,C|177:155,1,80
145,211,111019,6,0,C|190:246,2,40
95,169,111524,1,0
95,169,111650,1,0
95,169,111776,1,0
43,249,112154,1,0
43,249,112280,1,0
44,312,112532,1,0
412,117,113036,5,0
367,71,113288,1,0
304,84,113540,1,8
272,139,113793,1,0
252,265,114297,1,0
202,305,114549,1,8
139,289,114801,1,0
52,194,115305,5,0
58,130,115557,1,8
105,87,115809,1,0
168,77,116061,1,0
222,111,116314,1,0
246,170,116566,1,8
246,170,116692,1,0
246,170,116818,1,0
358,230,117070,5,0
476,278,117574,1,0
477,341,117826,1,0
381,340,118204,1,0
381,340,118330,1,0
317,340,118582,1,8
273,107,119087,5,0
218,139,119339,1,0
267,179,119591,1,8
211,210,119843,1,0
259,251,120095,1,0
202,281,120347,1,0
254,318,120599,1,0
195,344,120851,1,0
104,144,121103,5,0
137,87,121356,1,0
200,79,121608,1,8
248,120,121860,1,0
150,202,122364,2,0,C|172:242|210:258,1,80,0|8
216,193,122868,1,0
343,196,123372,1,0
406,197,123624,2,0,C|393:238|350:261,1,80,8|0
297,254,124129,2,8,C|213:254,2,80
256,192,125137,12,0,125893
319,195,126145,6,0,C|318:152|262:124,2,80,0|0|8
306,257,126902,1,0
367,272,127154,1,0
419,235,127406,1,0
429,171,127658,1,8
380,129,127910,1,0
316,124,128162,2,0,C|271:117|213:152,1,80
242,196,128666,2,0,C|242:284,1,80,8|0
257,98,133456,5,0
355,191,133708,1,8
258,289,133961,1,0
161,194,134213,1,0
96,194,134465,2,0,C|79:235|122:288,2,80,0|8|0
98,262,135221,2,0,C|146:265|171:314,2,80,0|0|8
98,325,135977,2,0,C|209:340|338:316,1,240,0|8
163,92,137238,6,0,C|249:53|257:155|357:109|378:198|460:217,1,480
76,332,139255,6,0,C|68:287|123:291|110:246|161:249|172:201,1,240,0|0
234,213,140263,2,0,C|234:116,3,80
359,39,141272,6,0,C|423:86|314:136|432:177|384:241|460:282,1,480
309,282,143288,6,0,C|240:327|246:260|169:262|168:209|93:207|75:139,1,400,0|0
81,110,144801,5,0
129,68,145053,1,0
180,105,145305,1,0
163,166,145557,1,0
99,167,145809,2,0,C|44:167,2,40
59,217,146314,2,0,C|35:258|45:318,1,80
93,321,146818,2,0,C|125:292|184:313,1,80
222,301,147322,1,0
223,237,147574,1,0
223,173,147826,2,0,C|264:169|319:205,1,80
296,188,148330,1,0
296,188,148456,1,0
400,304,148835,5,0
442,256,149087,1,0
399,207,149339,1,0
441,159,149591,1,0
402,110,149843,1,0
402,110,149969,1,0
402,109,150095,1,0
351,69,150347,5,0
304,112,150599,1,0
260,158,150851,1,0
302,206,151103,1,0
352,247,151356,1,0
351,247,151482,1,0
352,247,151608,1,0
401,206,151860,5,0
444,158,152112,1,0
444,94,152364,2,0,C|413:65|347:72,1,80
343,121,152868,2,8,C|329:157|368:179,1,80,8|0
92,87,153372,5,0
28,87,153624,2,0,C|13:128|51:164,1,80,0|8
20,214,154129,2,0,C|66:220|107:166,1,80
99,133,154633,2,0,C|137:113|194:156,1,80,0|8
151,194,155137,2,0,C|188:212|243:185,1,80
225,132,155641,2,0,C|262:145|300:199,1,80,0|8
272,239,156145,2,0,C|311:256|355:227,2,80
306,184,156902,5,8
358,147,157154,1,0
343,84,157406,1,0
285,55,157658,1,0
223,70,157910,1,8
196,128,158162,1,0
172,187,158414,5,0
172,187,158540,1,0
172,187,158666,1,0
113,159,158919,1,8
93,98,159171,1,0
156,96,159423,2,0,C|199:96,1,40,0|0
339,312,159927,5,8
381,359,160179,1,0
444,359,160431,1,0
484,309,160683,1,0
468,246,160935,1,8
410,218,161187,2,0,C|367:224|338:271,1,80
257,323,161692,6,0,C|224:366,1,40
208,333,161944,2,0,C|150:284,1,40
158,333,162196,1,0
94,333,162448,1,0
54,283,162700,5,0
94,332,162952,1,0
132,280,163204,1,0
93,228,163456,1,0
134,179,163708,1,0
179,133,163961,1,0
222,180,164213,1,0
178,132,164465,1,0
135,180,164717,1,0
135,180,164969,2,0,C|75:252,1,80
33,202,165473,6,0,C|95:129,2,80
97,204,166230,2,0,C|152:204,1,40
200,202,166608,1,0
200,202,166734,1,0
200,265,166986,1,0
263,263,167238,1,0
326,265,167490,6,0,C|302:307|317:350,1,80
374,336,167994,1,0
437,334,168246,1,0
436,270,168498,1,0
371,270,168751,1,0
374,336,169003,1,0
371,269,169255,1,0
111,126,169507,5,0
111,126,169759,1,0
111,126,170011,1,0
111,126,170263,2,0,C|138:95|204:104,1,80
239,102,170767,1,0
302,103,171019,2,0,C|310:145|260:183,1,80
218,164,171524,1,0
220,227,171776,1,0
283,226,172028,1,0
346,225,172280,1,0
346,161,172532,2,0,C|262:160,2,80
409,163,173288,1,0
345,161,173540,1,0
345,161,174045,6,0,C|287:151|247:166|202:217,1,160
256,192,175557,12,0,177574
85,74,177826,6,0,C|119:49|184:70,1,80
153,122,178330,1,0
215,123,178582,1,0
216,187,178835,2,0,C|260:202|313:179,1,80
288,126,179339,1,0
215,123,179591,1,0
215,186,179843,6,0,C|215:274,1,80
278,266,180347,1,0
214,266,180599,2,8,C|130:266,3,80
256,192,181608,12,8,183120
410,301,183624,6,0,C|433:261|416:202,3,80
361,230,184633,2,0,C|277:231,1,80
280,169,185137,2,0,C|236:181|216:243,2,80
109,127,185893,5,0
109,127,186145,1,0
109,127,186398,2,0,C|79:162|107:212,1,80
156,190,186902,1,0
157,126,187154,1,0
157,62,187406,2,0,C|194:45|251:89,1,80
288,65,187910,5,0
350,78,188162,1,0
378,135,188414,1,0
337,184,188666,1,0
273,174,188919,1,0
245,116,189171,1,0
256,192,189675,12,0,191187
138,170,191692,6,0,C|100:154|109:118|142:100|182:121,3,160
197,179,193456,1,0
260,177,193708,1,0
324,175,193961,2,0,C|338:217|284:261,2,80
260,177,194717,1,0
196,177,194969,2,0,C|175:140|203:94,2,80
179,238,195725,5,0
133,282,195977,1,0
140,345,196229,1,0
199,367,196482,1,0
259,345,196734,1,0
270,282,196986,1,0
206,292,197238,2,0,C|206:196,1,80
208,148,197742,2,0,C|234:93|283:128|325:94,3,160
375,109,199507,5,0
375,109,199759,2,0,C|472:109,3,80
453,174,200767,2,0,C|453:216,2,40
388,175,201272,1,0
388,238,201524,1,0
324,238,201776,1,0
