osu file format v9

[General]
AudioFilename: Little Boots - Tune Into My Heart.mp3
AudioLeadIn: 0
PreviewTime: 155893
Countdown: 1
SampleSet: Soft
StackLeniency: 0.7
Mode: 0
LetterboxInBreaks: 0

[Editor]
Bookmarks: 68977,178727,189727
DistanceSpacing: 0.9
BeatDivisor: 4
GridSize: 4

[Metadata]
Title:Tune Into My Heart
Artist:Little Boots
Creator:Tony
Version:Soft Tune
Source:
Tags:Hands Victoria Christina Hesketh wherever you are

[Difficulty]
HPDrainRate:4
CircleSize:4
OverallDifficulty:4
ApproachRate:5
SliderMultiplier:1.2
SliderTickRate:2

[Events]
//Background and Video events
0,0,"bg.jpg"
//Break Periods
2,76176,88777
2,140177,146777
//Storyboard Layer 0 (Background)
//Storyboard Layer 1 (Fail)
//Storyboard Layer 2 (Pass)
//Storyboard Layer 3 (Foreground)
//Storyboard Sound Samples
//Background Colour Transformations
3,100,163,162,255

[TimingPoints]
7977,500,4,2,1,80,1,0
11477,-100,4,2,2,80,0,0
11977,-100,4,2,1,80,0,0
43477,-100,4,2,2,80,0,0
43977,-100,4,2,1,90,0,0
89977,-100,4,2,1,80,0,0
107477,-100,4,2,2,80,0,0
107977,-100,4,2,1,90,0,0
147977,-100,4,2,1,80,0,0
155477,-100,4,2,2,80,0,0
155977,-100,4,2,1,90,0,1
187477,-100,4,2,2,90,0,1
187977,-100,4,2,1,80,0,0
203477,-100,4,2,2,80,0,0
203977,-100,4,2,1,70,0,0
205477,-100,4,2,1,50,0,0
206477,-100,4,2,1,30,0,0
207977,-100,4,2,1,15,0,0

[Colours]
Combo1 : 228,132,90
Combo2 : 215,38,34
Combo3 : 163,220,78
Combo4 : 237,225,82

[HitObjects]
40,60,11477,5,4
148,80,11977,6,0,B|206:110|264:80,1,120,4|8
368,60,12977,2,0,B|427:31|485:60,1,120,2|8
483,59,13727,1,2
428,152,14227,1,0
428,152,14477,2,0,B|457:211|428:269,2,120,8|2|8
336,212,15977,5,2
256,140,16477,1,8
176,212,16977,1,2
84,152,17477,1,8
84,152,17727,2,0,B|55:211|84:269,2,120,2|0|2
164,80,19227,1,0
164,80,19477,1,8
244,152,19977,6,0,B|329:209|413:152,1,180,2|0
384,48,21227,1,0
384,48,21477,2,0,B|326:78|268:48,1,120,8|2
164,80,22477,1,8
84,156,22977,1,2
24,248,23477,2,0,B|83:277|141:248,1,120,8|2
140,356,24477,2,0,B|81:386|24:356,2,120,8|2|8
208,272,25977,5,2
272,184,26477,1,2
324,92,26977,2,0,B|448:92,2,120,2|0|0
216,92,28477,6,0,B|36:92,1,180,8|0
36,92,29477,1,8
36,200,29977,1,2
144,200,30477,2,0,B|264:200,2,120,8|2|8
148,308,31977,6,0,B|203:345|259:308,1,120,2|8
360,272,32977,1,2
448,208,33477,1,8
448,208,33727,1,2
388,116,34227,2,0,B|447:87|505:116,2,120,0|2|0
388,116,35477,1,8
448,208,35977,6,0,B|363:265|279:208,1,180,2|2
208,128,37227,1,0
208,128,37477,1,8
152,36,37977,1,2
60,92,38477,1,8
116,184,38977,1,2
208,128,39477,1,8
300,68,39977,6,0,B|394:28|465:100,2,180,2|2|8
256,192,41977,12,4,43477
340,280,43977,6,0,B|255:337|171:280,1,180,4|0
171,280,44977,1,2
80,220,45477,1,8
80,220,45727,2,0,B|120:160|188:176,1,120,2|0
182,174,46477,1,8
164,68,46977,6,0,B|230:46|265:107,1,120,2|8
265,108,47727,1,2
360,164,48227,1,0
360,164,48477,2,0,B|425:173|471:127,2,120,8|2|8
260,200,49977,6,0,B|199:283|101:258,1,180,4|2
20,188,51227,1,0
16,296,51727,1,0
16,296,51977,1,2
120,328,52477,6,0,B|184:352|228:300,1,120,8|2
332,324,53477,2,0,B|356:260|304:216,1,120,8|2
200,196,54477,1,8
200,196,54727,1,2
172,92,55227,1,0
104,176,55727,22,0,B|79:274|161:334,2,180,2|8|0
104,176,57477,1,8
172,92,57977,1,2
224,192,58477,2,0,B|268:244|332:220,2,120,8|2|8
304,120,59977,38,0,B|352:80|432:96|452:160,1,180,4|0
451,159,60977,1,2
432,264,61477,1,8
432,264,61727,2,0,B|404:326|335:320,1,120,2|0
335,320,62477,1,8
256,248,62977,5,2
176,176,63477,1,8
176,176,63727,1,2
100,100,64227,1,0
100,100,64477,2,0,B|32:110|19:176,2,120,8|2|8
176,176,65977,5,4
256,248,66477,1,8
256,248,66727,2,0,B|323:237|336:171,2,120,2|0|0
256,248,67977,1,2
176,176,68477,5,8
148,280,68977,2,0,B|159:347|225:360,2,120,2|8|2
176,176,70477,1,8
176,176,70727,1,2
256,104,71227,1,0
320,192,71727,22,0,B|418:217|478:135,2,180,2|8|0
320,192,73477,1,8
236,260,73977,2,0,B|276:308|344:296,2,120,2|8|2
132,284,75477,2,0,B|119:215|167:175,1,120,8|4
256,192,89977,12,2,91977
256,56,92477,37,8
344,120,92977,1,2
424,192,93477,1,8
256,328,94477,1,8
164,272,94977,1,2
88,192,95477,1,8
196,192,95977,6,0,B|256:204|316:192,1,120,2|8
424,192,96977,1,2
372,100,97477,1,8
372,100,97727,2,0,B|316:76|256:100,2,120,2|0|2
424,192,99227,1,0
324,232,99727,1,0
324,232,99977,2,0,B|307:298|207:298|191:232,2,180,2|0|8
312,124,101977,6,0,B|256:88|200:124,1,120,2|8
199,124,102727,1,2
108,180,103227,1,0
20,244,103727,1,0
20,244,103977,6,0,B|34:309|99:323,1,120,2|8
99,323,104727,1,2
200,288,105227,1,0
312,288,105727,1,0
312,288,105977,21,2
344,184,106477,1,2
256,120,106977,1,2
168,184,107477,1,4
200,288,107977,38,0,B|145:371|45:356,1,180,4|0
45,356,108977,1,2
8,256,109477,1,8
8,256,109727,2,0,B|66:222|59:155,1,120,2|0
59,155,110477,1,8
36,48,110977,6,0,B|102:23|140:82,1,120,2|8
139,82,111727,1,2
204,168,112227,1,0
204,168,112477,2,0,B|252:212|316:200,2,120,8|2|8
284,96,113977,6,0,B|340:68|414:103|417:170,1,180,4|2
408,276,115227,1,0
324,344,115727,1,0
324,344,115977,1,2
256,260,116477,6,0,B|144:304,1,120,8|2
80,216,117477,2,0,B|192:172,1,120,8|2
292,132,118477,1,8
292,132,118727,1,2
392,92,119227,1,0
436,192,119727,22,0,B|464:248|429:322|362:325,2,180,2|8|0
436,192,121477,1,8
332,224,121977,2,0,B|264:236|224:188,2,120,2|8|2
304,120,123477,1,8
204,84,123977,38,0,B|137:87|102:161|130:217,1,180,4|0
129,216,124977,1,2
44,284,125477,1,8
44,284,125727,2,0,B|84:332|152:320,1,120,2|0
152,319,126477,1,8
256,300,126977,5,2
324,216,127477,1,8
324,216,127727,2,0,B|365:163|446:178|475:234,1,180,2|8
484,340,128977,1,2
388,288,129477,1,8
312,364,129977,6,0,B|273:382|254:364|235:344|197:364,1,120,4|8
196,364,130727,1,2
112,296,131227,2,0,B|156:248|220:260,1,120
220,260,131977,1,2
324,284,132477,5,8
348,180,132977,1,2
244,156,133477,1,8
244,156,133727,1,2
148,28,134477,5,8
148,28,134727,1,2
256,40,135227,1,0
364,28,135727,2,0,B|427:6|486:64|479:127,2,180,2|8|0
364,28,137477,1,8
328,132,137977,1,2
256,212,138477,6,0,B|256:332,2,120,8|2|8
184,132,139977,1,4
24,240,147977,38,0,B|43:279|102:279|122:240,1,120,4|8
156,140,148977,1,0
156,140,149227,1,0
156,140,149477,1,8
196,240,149977,6,0,B|215:279|274:279|294:240,1,120,2|0
332,140,150977,1,0
332,140,151227,1,0
332,140,151477,1,8
368,240,151977,6,0,B|387:279|446:279|466:240,1,120,2|0
508,140,152977,1,0
508,140,153227,1,0
508,140,153477,1,8
400,144,153977,6,0,B|367:63|255:15|142:63|110:144,1,360,2|4
172,232,155977,6,0,B|257:289|341:232,1,180,4|0
340,232,156977,1,2
404,320,157477,1,8
404,320,157727,2,0,B|464:280|448:212,1,120,2|0
449,217,158477,1,8
440,108,158977,6,0,B|400:48|332:64,1,120,2|8
337,62,159727,1,2
240,104,160227,1,0
240,104,160477,2,0,B|180:144|196:212,2,120,8|2|8
304,192,161977,6,0,B|329:290|246:351,1,180,4|2
140,344,163227,1,0
88,248,163727,1,0
88,248,163977,1,2
64,144,164477,6,0,B|128:120|172:172,1,120,8|2
232,260,165477,2,0,B|296:284|340:232,1,120,8|2
264,156,166477,1,8
264,156,166727,1,2
352,92,167227,1,0
412,180,167727,22,0,B|437:278|355:338,2,180,2|8|0
412,180,169477,1,8
320,244,169977,1,2
252,160,170477,2,0,B|200:204|224:268,2,120,8|2|8
320,244,171977,38,0,B|368:284|448:268|468:204,1,180,4|0
467,204,172977,1,2
460,96,173477,1,8
460,96,173727,2,0,B|432:34|363:40,1,120,2|0
363,40,174477,1,8
360,148,174977,5,2
280,220,175477,1,8
280,220,175727,1,2
204,296,176227,1,0
204,296,176477,2,0,B|136:286|123:220,2,120,8|2|8
280,220,177977,5,4
360,148,178477,1,8
360,148,178727,2,0,B|427:159|440:225,2,120,2|0|0
360,148,179977,1,2
252,132,180477,5,8
148,104,180977,2,0,B|159:37|225:24,2,120,2|8|2
176,208,182477,1,8
176,208,182727,1,2
256,280,183227,1,0
320,192,183727,22,0,B|418:167|478:249,2,180,2|8|0
320,192,185477,1,8
236,124,185977,2,0,B|276:76|344:88,2,120,2|8|2
216,228,187477,1,4
164,324,187977,38,0,B|212:364|292:348|312:284,1,180,4|0
311,284,188977,1,2
408,336,189477,1,8
408,336,189727,2,0,B|444:280|408:224,1,120,2|0
407,223,190477,1,8
304,196,190977,5,2
304,196,191227,1,0
304,196,191477,1,8
308,88,191977,6,0,B|260:48|180:64|160:128,1,180,4|0
160,128,192977,1,2
64,76,193477,1,8
64,76,193727,2,0,B|28:132|64:188,1,120,2|0
64,189,194477,1,8
176,304,195227,5,0
176,304,195477,1,8
268,248,195977,6,0,B|316:208|396:224|416:288,1,180,4|0
415,287,196977,1,2
320,340,197477,1,8
320,340,197727,1,2
268,248,198227,1,0
268,248,198477,6,0,B|220:208|140:224|120:288,1,180,8|2
120,287,199477,1,8
68,192,199977,5,4
148,120,200477,1,8
256,132,200977,2,0,B|256:72,2,60,2|0|8
364,120,201977,1,2
444,192,202477,1,8
384,344,203227,5,0
384,344,203477,1,4
340,244,203977,6,0,B|255:187|171:244,1,180,4|0
171,243,204977,1,2
128,344,205477,1,8
128,344,205727,1,2
104,184,206477,5,8
200,132,206977,1,2
312,132,207477,1,8
408,184,207977,1,4
256,192,208227,12,8,211477
