osu file format v9

[General]
AudioFilename: Little Boots - No Brakes [Official song].mp3
AudioLeadIn: 0
PreviewTime: 52210
Countdown: 1
SampleSet: Soft
StackLeniency: 0.7
Mode: 0
LetterboxInBreaks: 1

[Editor]
Bookmarks: 17983,35574,52210,70210,78938,104574,122029,140029,166210,174938,183665,201120,218029,236029
DistanceSpacing: 0.9
BeatDivisor: 1
GridSize: 4

[Metadata]
Title:No Brakes
Artist:Little Boots
Creator:Xgor
Version:Hard
Source:
Tags:Hands Victoria Christina Hesketh

[Difficulty]
HPDrainRate:6
CircleSize:4
OverallDifficulty:6
ApproachRate:6
SliderMultiplier:2
SliderTickRate:2

[Events]
//Background and Video events
0,0,"abstracto.jpg"
//Break Periods
2,70407,77885
2,175135,182612
//Storyboard Layer 0 (Background)
//Storyboard Layer 1 (Fail)
//Storyboard Layer 2 (Pass)
//Storyboard Layer 3 (Foreground)
//Storyboard Sound Samples
//Background Colour Transformations
3,100,163,162,255

[TimingPoints]
9117,545.454545454546,4,2,0,90,1,0
18935,-100,4,2,1,90,0,0
19207,-100,4,2,0,90,0,0
21117,-100,4,2,1,90,0,0
21389,-100,4,2,0,90,0,0
23298,-100,4,2,1,90,0,0
23571,-100,4,2,0,90,0,0
23844,-100,4,2,1,90,0,0
24117,-100,4,2,0,90,0,0
27662,-100,4,2,1,90,0,0
27935,-100,4,2,0,90,0,0
29844,-100,4,2,1,90,0,0
30117,-100,4,2,0,90,0,0
32026,-100,4,2,1,90,0,0
32298,-100,4,2,0,90,0,0
32571,-100,4,2,1,90,0,0
32844,-100,4,2,0,90,0,0
36117,-100,4,2,1,90,0,0
36389,-100,4,2,0,90,0,0
38298,-100,4,2,1,90,0,0
39117,-100,4,2,0,90,0,0
40753,-100,4,2,1,90,0,0
41026,-100,4,2,0,90,0,0
41298,-100,4,2,1,90,0,0
41571,-125,4,2,0,90,0,0
44298,-100,4,2,0,90,0,0
44844,-100,4,2,1,90,0,0
45117,-100,4,2,0,90,0,0
47026,-100,4,2,1,90,0,0
47844,-100,4,2,0,90,0,0
49480,-100,4,2,1,90,0,0
49753,-100,4,2,0,90,0,0
50026,-100,4,2,1,90,0,0
50298,-83.3333333333333,4,2,0,90,0,0
50844,-83.3333333333333,4,2,1,90,0,0
51117,-83.3333333333333,4,2,0,90,0,0
52207,-100,4,2,0,90,0,0
52753,-100,4,2,1,90,0,0
53298,-100,4,2,0,90,0,0
54935,-100,4,2,1,90,0,0
55480,-83.3333333333333,4,2,0,90,0,0
56435,-100,4,2,1,90,0,0
56571,-100,4,2,0,90,0,0
57117,-100,4,2,1,90,0,0
57253,-125,4,2,0,90,0,0
58480,-100,4,2,1,90,0,0
58753,-125,4,2,0,90,0,0
59298,-100,4,2,1,90,0,0
59435,-125,4,2,0,90,0,0
60662,-100,4,2,1,90,0,0
60935,-100,4,2,0,90,0,0
61480,-100,4,2,1,90,0,0
62026,-100,4,2,0,90,0,0
63662,-100,4,2,1,90,0,0
64207,-100,4,2,0,90,0,0
64753,-83.3333333333333,4,2,0,90,0,0
65162,-100,4,2,1,90,0,0
65298,-100,4,2,0,90,0,0
65844,-100,4,2,1,90,0,0
66389,-125,4,2,0,90,0,0
67207,-100,4,2,1,90,0,0
67480,-100,4,2,0,90,0,0
68026,-125,4,2,1,90,0,0
79071,-100,4,2,0,90,0,0
80026,-100,4,2,1,90,0,0
80298,-100,4,2,0,90,0,0
81117,-125,4,2,1,90,0,0
81253,-100,4,2,0,90,0,0
82207,-100,4,2,1,90,0,0
82480,-100,4,2,0,90,0,0
83298,-100,4,2,1,90,0,0
83435,-100,4,2,0,90,0,0
84389,-100,4,2,1,90,0,0
84526,-100,4,2,0,90,0,0
88480,-100,4,2,1,90,0,0
88753,-100,4,2,0,90,0,0
90662,-100,4,2,1,90,0,0
91480,-100,4,2,0,90,0,0
93117,-100,4,2,1,90,0,0
93389,-100,4,2,0,90,0,0
93662,-100,4,2,1,90,0,0
93935,-100,4,2,0,90,0,0
94753,-125,4,2,0,90,0,0
96662,-100,4,2,0,90,0,0
97207,-100,4,2,1,90,0,0
97480,-100,4,2,0,90,0,0
99389,-100,4,2,1,90,0,0
100207,-100,4,2,0,90,0,0
101844,-100,4,2,1,90,0,0
102117,-100,4,2,0,90,0,0
102389,-100,4,2,1,90,0,0
102662,-83.3333333333333,4,2,0,90,0,0
103207,-83.3333333333333,4,2,1,90,0,0
103480,-83.3333333333333,4,2,0,90,0,0
104571,-100,4,2,0,90,0,0
105117,-100,4,2,1,90,0,0
105662,-100,4,2,0,90,0,0
107298,-100,4,2,1,90,0,0
107844,-83.3333333333333,4,2,0,90,0,0
108798,-100,4,2,1,90,0,0
108935,-100,4,2,0,90,0,0
109480,-100,4,2,1,90,0,0
110026,-125,4,2,0,90,0,0
110844,-125,4,2,1,90,0,0
111117,-125,4,2,0,90,0,0
111662,-125,4,2,1,90,0,0
112207,-125,4,2,0,90,0,0
113026,-125,4,2,1,90,0,0
113298,-125,4,2,0,90,0,0
113844,-100,4,2,1,90,0,0
114389,-100,4,2,0,90,0,0
116026,-100,4,2,1,90,0,0
116571,-83.3333333333333,4,2,0,90,0,0
117526,-83.3333333333333,4,2,1,90,0,0
117626,-83.3333333333333,4,2,0,90,0,0
118207,-100,4,2,1,90,0,0
118753,-125,4,2,0,90,0,0
119571,-125,4,2,1,90,0,0
119844,-125,4,2,0,90,0,0
120389,-100,4,2,1,90,0,0
120935,-125,4,2,0,90,0,0
121753,-100,4,2,1,90,0,0
122026,-100,4,2,0,90,0,0
122571,-100,4,2,1,90,0,0
123389,-100,4,2,0,90,0,0
124753,-100,4,2,1,90,0,0
125026,-100,4,2,0,90,0,0
125844,-83.3333333333333,4,2,0,90,0,0
126253,-100,4,2,1,90,0,0
126662,-100,4,2,0,90,0,0
127207,-125,4,2,1,90,0,0
127480,-125,4,2,0,90,0,0
128298,-100,4,2,1,90,0,0
128571,-100,4,2,0,90,0,0
129117,-125,4,2,1,90,0,0
129662,-125,4,2,0,90,0,0
130480,-125,4,2,1,90,0,0
130753,-125,4,2,0,90,0,0
131298,-100,4,2,1,90,0,0
132117,-100,4,2,0,90,0,0
133480,-100,4,2,1,90,0,0
134026,-100,4,2,0,90,0,0
134435,-83.3333333333333,4,2,0,90,0,0
134980,-100,4,2,1,90,0,0
135117,-100,4,2,0,90,0,0
135935,-100,4,2,1,90,0,0
136207,-125,4,2,0,90,0,0
137026,-100,4,2,1,90,0,0
137298,-100,4,2,0,90,0,0
137844,-100,4,2,1,90,0,0
138389,-125,4,2,0,90,0,0
139207,-125,4,2,1,90,0,0
139480,-125,4,2,0,90,0,0
140026,-100,4,2,0,90,0,0
140571,-100,4,2,1,90,0,0
140844,-100,4,2,0,90,0,0
142753,-100,4,2,1,90,0,0
142853,-100,4,2,0,90,0,0
144935,-100,4,2,1,90,0,0
145071,-100,4,2,0,90,0,0
147117,-100,4,2,1,90,0,0
147253,-100,4,2,0,90,0,0
147935,-100,4,2,1,90,0,0
148035,-100,4,2,0,90,0,0
149298,-100,4,2,1,90,0,0
149435,-100,4,2,0,90,0,0
151480,-100,4,2,1,90,0,0
151580,-100,4,2,0,90,0,0
153117,-100,4,2,0,90,0,0
154480,-100,4,2,1,90,0,0
154617,-100,4,2,0,90,0,0
156662,-100,4,2,1,90,0,0
156798,-100,4,2,0,90,0,0
158026,-100,4,2,1,90,0,0
158162,-100,4,2,0,90,0,0
160207,-100,4,2,1,90,0,0
160344,-100,4,2,0,90,0,0
162389,-100,4,2,1,90,0,0
162526,-100,4,2,0,90,0,0
165389,-100,4,2,1,90,0,0
165662,-100,4,2,0,90,0,0
166207,-125,4,2,0,90,0,0
166753,-125,4,2,1,90,0,0
167026,-125,4,2,0,90,0,0
168389,-100,4,2,1,90,0,0
168662,-100,4,2,0,90,0,0
170571,-125,4,2,0,90,0,0
171117,-125,4,2,1,90,0,0
171389,-125,4,2,0,90,0,0
172753,-100,4,2,1,90,0,0
173026,-100,4,2,0,90,0,0
174935,-100,4,2,1,90,0,0
183662,-125,4,2,1,50,0,0
183935,-125,4,2,0,90,0,0
185844,-125,4,2,1,50,0,0
186117,-125,4,2,0,90,0,0
188026,-125,4,2,1,50,0,0
188298,-125,4,2,0,90,0,0
190071,-125,4,2,1,50,0,0
192117,-100,4,2,0,90,0,0
192662,-125,4,2,0,90,0,0
199207,-100,4,2,0,90,0,0
201117,-100,4,2,1,90,0,0
201935,-100,4,2,0,90,0,0
203298,-100,4,2,1,90,0,0
203844,-83.3333333333333,4,2,0,90,0,0
204798,-100,4,2,1,90,0,0
205207,-100,4,2,0,90,0,0
205753,-100,4,2,1,90,0,0
206026,-125,4,2,0,90,0,0
206844,-100,4,2,1,90,0,0
207117,-100,4,2,0,90,0,0
207662,-100,4,2,1,90,0,0
208207,-125,4,2,0,90,0,0
209026,-125,4,2,1,90,0,0
209298,-125,4,2,0,90,0,0
209844,-100,4,2,1,90,0,0
210662,-100,4,2,0,90,0,0
212026,-100,4,2,1,90,0,0
212571,-83.3333333333333,4,2,0,90,0,0
213526,-100,4,2,1,90,0,0
213935,-100,4,2,0,90,0,0
214480,-100,4,2,1,90,0,0
214753,-125,4,2,0,90,0,0
215571,-100,4,2,1,90,0,0
215844,-100,4,2,0,90,0,0
216389,-100,4,2,1,90,0,0
216935,-125,4,2,0,90,0,0
217753,-100,4,2,1,90,0,0
218026,-100,4,2,0,90,0,0
218571,-100,4,2,1,90,0,0
219389,-100,4,2,0,90,0,0
222662,-100,4,2,1,90,0,0
222798,-100,4,2,0,90,0,0
224298,-100,4,2,1,90,0,0
224571,-100,4,2,0,90,0,0
225117,-100,4,2,1,90,0,0
225253,-100,4,2,0,90,0,0
226480,-100,4,2,1,90,0,0
226753,-100,4,2,0,90,0,0
227298,-100,4,2,1,90,0,0
228117,-100,4,2,0,90,0,0
231389,-100,4,2,1,90,0,0
231526,-100,4,2,0,90,0,0
233026,-100,4,2,1,90,0,0
233298,-100,4,2,0,90,0,0

[HitObjects]
48,368,18116,5,2
124,384,18389,1,8
200,356,18662,1,0
256,300,18935,1,0
312,356,19207,1,8
384,376,19480,1,0
464,368,19753,1,0
464,212,20298,5,2
388,228,20571,1,8
312,200,20844,1,0
256,144,21116,1,0
200,200,21389,1,8
124,228,21662,1,0
48,212,21935,1,0
20,56,22480,5,2
96,36,22753,1,8
176,24,23026,1,0
256,20,23298,1,0
336,24,23571,1,8
416,36,23844,1,0
492,56,24116,2,0,B|492:168|340:224|368:108|420:240|336:296,1,300,2|0
304,128,25207,2,0,B|224:181|276:313|304:197|152:253|152:365,1,300,2|8
440,348,26844,5,2
368,316,27116,1,8
304,360,27389,1,0
256,296,27662,1,0
208,360,27935,1,8
144,316,28207,1,0
72,348,28480,1,0
72,188,29026,5,2
144,156,29298,1,8
208,200,29571,1,0
256,136,29844,1,0
304,200,30116,1,8
368,156,30389,1,0
440,188,30662,1,0
492,56,31207,5,2
416,36,31480,1,8
336,24,31753,1,0
256,20,32026,1,0
176,24,32298,1,8
96,36,32571,1,0
20,56,32844,2,0,B|20:168|172:224|144:108|92:240|176:296,1,300,2|0
208,128,33935,2,0,B|288:181|236:313|208:197|360:253|360:365,1,300,2|8
368,120,35571,5,2
392,44,35844,1,8
446,103,36116,1,0
436,326,36662,1,0
413,251,36935,1,8
358,309,37207,1,2
144,264,37753,5,2
121,339,38026,1,8
66,281,38298,1,0
76,58,38844,1,0
99,133,39116,1,8
152,76,39389,1,2
256,376,39935,5,2
184,344,40207,1,8
196,260,40480,1,0
256,192,40753,1,0
328,128,41026,1,8
364,28,41298,1,0
256,8,41571,2,0,B|230:88|148:102|100:190,1,240,2|2
102,187,43480,1,2
412,339,44298,5,2
435,262,44571,1,8
357,281,44844,1,0
76,326,45389,1,0
99,251,45662,1,8
154,309,45935,1,2
76,58,46480,5,2
99,133,46753,1,8
154,75,47026,1,0
370,120,47571,1,0
392,45,47844,1,8
446,102,48116,1,2
376,368,48662,5,2
292,360,48935,1,8
208,336,49207,1,0
132,284,49480,1,0
84,200,49753,1,8
52,104,50026,1,0
140,48,50298,2,0,B|256:-8|372:48,1,239.999992675781,2|0
312,136,51116,1,2
256,232,51389,1,8
200,136,51662,1,2
256,332,52207,5,2
320,384,52480,1,8
344,308,52753,2,0,B|404:220|368:116,1,200,4|8
172,84,53844,2,0,B|112:172|168:276,1,200,2|8
196,348,54662,1,0
116,336,54935,1,4
396,336,55480,1,8
256,208,56026,2,0,B|280:148|228:100|260:32,2,179.999994506836,2|0|2
224,276,57116,1,0
356,344,57662,5,8
372,272,57935,2,0,B|392:216|348:168|376:116,1,160,2|0
404,48,58753,1,2
256,204,59298,1,0
156,344,59844,1,8
140,272,60116,2,0,B|120:216|164:168|136:116,1,160,2|0
108,48,60935,1,2
272,36,61480,6,0,B|372:64|404:176,1,200,4|8
240,348,62571,2,0,B|140:320|108:208,1,200,2|8
92,120,63389,1,0
120,36,63662,1,4
392,36,64207,1,8
256,212,64753,2,0,B|240:144|272:84|256:32,2,179.999994506836,2|0|2
284,284,65844,1,0
392,184,66389,5,8
332,144,66662,2,0,B|256:100|180:144,1,160,2|0
120,184,67480,1,2
256,192,68026,12,4,70207
182,164,78935,6,0,B|330:220,1,160,0|8
404,256,79753,1,0
336,304,80026,1,0
256,284,80298,1,8
176,304,80571,1,0
108,256,80844,1,0
182,220,81117,6,0,B|330:164,1,160,0|8
404,128,81935,1,0
336,80,82207,1,0
256,100,82480,1,8
176,80,82753,1,0
108,128,83026,1,0
52,192,83298,6,0,B|96:296|204:304,1,200,0|8
256,240,84117,1,0
307,304,84389,2,0,B|416:296|468:200,1,200,0|8
480,120,85207,2,0,B|402:36|286:34|211:116,1,300,2|0
297,270,86298,2,0,B|225:349|109:347|32:264,1,300,2|8
90,86,87935,21,2
160,44,88207,1,8
168,124,88480,2,0,B|257:114|246:37|339:24,1,200,0|0
408,64,89298,1,8
344,104,89571,1,2
92,264,90117,5,2
164,224,90389,1,8
170,304,90662,2,0,B|259:294|249:217|342:204,1,200,0|0
356,288,91480,1,8
412,224,91753,1,2
296,348,92298,5,2
212,340,92571,1,8
136,292,92844,1,0
92,208,93117,1,0
68,112,93389,1,8
64,8,93662,1,0
160,56,93935,2,0,B|256:8|352:56,1,200,2|0
408,124,94753,2,0,B|336:172|256:128|256:128|176:172|104:124,1,320,2|2
95,295,96662,21,2
168,324,96935,1,8
173,244,97207,2,0,B|262:254|251:331|344:344,1,200,0|0
416,312,98026,1,8
352,261,98298,1,2
98,131,98844,5,2
168,172,99117,1,8
175,93,99389,2,0,B|264:103|254:180|347:193,1,200,0|0
352,112,100207,1,8
422,148,100480,1,2
500,352,101026,5,2
456,280,101298,1,8
404,352,101571,1,0
360,268,101844,1,0
308,352,102117,1,8
264,256,102389,1,0
172,352,102662,2,0,B|96:256|128:124,1,239.999992675781,2|0
340,32,103480,2,0,B|416:128|384:260,1,239.999992675781,2|8
240,188,104571,21,2
160,204,104844,1,8
164,284,105117,2,0,B|112:284|72:244|64:184|112:140,1,200,4|8
312,172,106207,2,0,B|364:172|404:212|412:272|364:316,1,200,2|8
316,252,107026,1,0
256,308,107298,1,4
256,20,107844,1,8
164,164,108389,2,0,B|224:140|272:192|340:160,2,179.999994506836,2|0|2
88,180,109480,1,0
116,320,110026,5,8
180,352,110298,2,0,B|256:396|336:352,1,160,2|0
396,320,111117,1,2
256,280,111662,1,0
128,216,112207,1,8
180,164,112480,2,0,B|256:120|332:164,1,160,2|0
384,216,113298,1,2
256,340,113844,6,0,B|148:320|112:216,1,200,4|8
256,44,114935,2,0,B|364:64|400:168,1,200,2|8
424,244,115753,1,0
480,184,116026,1,4
32,184,116571,1,8
256,184,117117,2,0,B|272:252|240:312|256:364,2,179.999994506836,2|0|2
228,108,118207,1,0
108,60,118753,5,8
140,124,119026,2,0,B|184:200|140:276,1,160,2|0
104,340,119844,1,2
76,164,120389,1,0
212,116,120935,1,8
280,96,121207,2,0,B|368:68|440:88,1,160,2|0
508,128,122026,5,2
436,160,122298,1,8
496,212,122571,2,0,B|480:284|380:368|256:360,1,300,4|8
256,280,123662,2,0,B|144:288|80:204,1,200,2|8
40,136,124480,1,0
120,140,124753,1,4
392,140,125298,1,8
432,328,125844,2,0,B|364:344|316:320|252:328,1,179.999994506836,2|0
344,252,126662,2,0,B|284:232|208:264|144:244,1,200,2|0
80,216,127480,5,8
48,152,127753,2,0,B|116:108|208:120,1,160,2|0
176,204,128571,2,0,B|96:136|124:20,1,200,2|0
240,136,129662,1,8
310,119,129935,2,0,B|396:108|464:152,1,160,2|0
512,204,130753,1,2
468,356,131298,6,0,B|316:380|184:280,1,300,4|8
128,336,132389,2,0,B|32:288|16:180,1,200,2|8
4,100,133207,1,0
80,128,133480,1,4
432,128,134026,1,8
460,316,134571,2,0,B|404:308|368:244|300:236,1,179.999994506836,2|0
340,352,135389,2,0,B|248:336|232:264|160:260,1,200,2|0
92,268,136207,5,8
116,200,136480,2,0,B|196:172|268:232,1,160,2|0
324,288,137298,2,0,B|404:356|512:316,1,200,2|0
444,152,138389,1,8
392,100,138662,2,0,B|340:44|244:44,1,160,2|0
176,56,139480,1,2
72,204,140026,6,0,B|54:258|85:307|137:332|192:308,1,200,4|0
154,230,140844,1,8
120,150,141117,2,0,B|171:126|224:152|255:201|236:255,1,200,2|8
56,248,142207,6,0,B|4:144|80:64,1,200,4|0
164,32,143026,1,8
256,24,143298,1,0
348,32,143571,1,2
432,64,143844,1,8
312,196,144389,6,0,B|269:233|212:224|168:186|169:126,1,200,4|0
255,129,145207,1,8
342,129,145480,2,0,B|344:72|299:34|242:24|200:63,1,200,2|8
164,240,146571,6,0,B|212:284|300:284|348:240,1,200,4|0
340,152,147389,2,0,B|308:196|256:220|204:196|172:152,1,200,2|0
256,116,148207,1,8
420,32,148753,6,0,B|220:32,1,200,4|0
132,56,149571,1,8
92,136,149844,2,0,B|292:136,1,200,2|8
372,176,150662,1,0
412,256,150935,6,0,B|212:256,1,200,4|0
124,280,151753,1,8
84,360,152026,2,0,B|292:360,1,200,2|8
464,344,153117,6,0,B|404:284|344:308|289:245,1,200,4|8
376,212,153935,2,0,B|312:144|256:164|204:116,1,200,2|0
152,44,154753,1,8
48,344,155298,6,0,B|108:284|168:308|222:245,1,200,4|8
136,212,156117,2,0,B|200:144|256:164|308:116,1,200,2|0
360,44,156935,1,8
440,204,157480,6,0,B|458:258|427:307|375:332|320:308,1,200,4|0
358,230,158298,1,8
392,150,158571,2,0,B|341:126|288:152|257:201|276:255,1,200,2|8
56,272,159662,6,0,B|8:248|-16:192|8:136|56:112,1,200,4|0
140,80,160480,1,8
200,148,160753,1,2
200,236,161026,1,0
140,304,161298,1,8
316,348,161844,6,0,B|424:344|472:240,1,200,4|0
432,160,162662,1,8
340,160,162935,2,0,B|232:156|184:52,1,200,2|8
160,232,164026,6,0,B|256:280|352:232,1,200,4|8
352,320,164844,2,0,B|292:352|220:352|160:320,1,200,2|0
84,268,165662,1,8
44,80,166207,6,0,B|208:80,1,160,4|0
256,24,167026,1,0
308,80,167298,2,0,B|468:80,1,160,2|8
500,224,168389,1,0
256,156,168935,1,8
12,224,169480,2,0,B|-4:180|24:128|12:72,2,150,2|8|2
44,296,170571,6,0,B|208:296,1,160,4|0
256,352,171389,1,0
308,296,171662,2,0,B|468:296,1,160,2|8
500,160,172753,1,0
256,228,173298,1,8
12,160,173844,2,0,B|-4:116|24:64|12:8,2,150,2|8|2
28,232,174935,1,4
64,44,183662,37,0
64,44,183935,2,0,B|84:88|44:140|68:204,1,160,8|0
220,248,185026,2,0,B|240:204|196:148|224:88,1,160,2|0
288,44,185844,5,0
288,44,186116,2,0,B|312:88|268:132|304:204,1,160,8|0
456,248,187207,2,0,B|476:208|436:152|460:88,1,160,2|0
488,16,188026,5,0
408,28,188298,2,0,B|336:52|296:136,1,160,8|0
215,135,189116,2,0,B|176:52|104:28,1,160,2|8
24,16,189935,1,0
36,96,190207,6,0,B|64:288|256:355|448:288|476:96,1,640
388,48,192662,6,0,B|308:12|232:44,1,160,2|0
172,192,193753,1,0
172,192,194026,1,2
92,176,194298,1,0
124,336,194844,2,0,B|204:372|280:340,1,160,2|0
340,192,195935,1,0
340,192,196207,1,2
420,208,196480,1,0
368,56,197026,6,0,B|256:16|128:56,2,240,2|0|2
312,248,199207,2,0,B|312:352,1,100,0|2
200,248,199753,2,0,B|200:352,1,100,0|2
112,184,200571,37,2
44,144,200844,1,8
112,104,201116,2,0,B|256:28|400:104,1,300,4|8
468,148,202207,2,0,B|384:228|420:332,1,200,2|8
484,376,203026,1,0
496,296,203298,1,4
16,300,203844,1,8
16,112,204389,2,0,B|100:84|192:116,1,179.999994506836,2|0
312,116,205207,2,0,B|408:68|504:116,1,200,2|0
508,188,206026,5,8
464,248,206298,2,0,B|388:248|320:312,1,160,2|0
256,348,207116,2,0,B|196:312|212:232|148:184,1,200,2|0
4,196,208207,1,8
48,136,208480,2,0,B|132:132|192:72,1,160,2|0
260,88,209298,1,2
420,72,209844,6,0,B|500:224|348:336,1,300,4|8
276,360,210935,2,0,B|208:268|96:280,1,200,2|8
28,304,211753,1,0
88,356,212026,1,4
88,28,212571,1,8
184,192,213116,2,0,B|248:216|304:164|360:192,1,179.999994506836,2|0
308,288,213935,2,0,B|260:192|308:96,1,200,2|0
360,44,214753,5,8
381,115,215026,2,0,B|345:192|381:269,1,160,2|0
408,360,215844,2,0,B|208:360,1,200,2|0
64,360,216935,1,8
36,288,217207,2,0,B|-8:212|36:136,1,160,2|0
80,68,218026,5,2
160,56,218298,1,8
140,136,218571,2,0,B|108:204|132:300|228:340|300:312,1,300,4|8
372,248,219662,2,0,B|404:180|380:84|284:44|212:72,1,300,2|8
132,104,220753,2,0,B|28:156|20:260,1,200,2|8
136,360,221844,1,2
104,204,222389,1,8
176,168,222662,6,0,B|264:116|292:176|368:120,1,200
416,60,223480,1,8
340,32,223753,1,2
172,32,224298,1,0
96,60,224571,1,2
8,160,225116,2,0,B|-4:276|96:324,1,200,0|8
172,352,225935,1,2
340,352,226480,1,0
416,324,226753,1,2
372,148,227298,6,0,B|348:76|256:28|164:76|140:148,1,300,4|8
140,236,228389,2,0,B|164:308|256:356|348:308|372:236,1,300,2|8
328,168,229480,2,0,B|284:188|256:236|256:236|232:188|184:168,1,200,2|8
256,24,230571,1,2
396,100,231116,1,8
460,144,231389,6,0,B|476:264|396:328,1,200
320,336,232207,1,8
344,260,232480,1,2
192,336,233026,1,0
168,260,233298,1,2
256,192,233844,12,0,236026
