osu file format v14

[General]
AudioFilename: Lite Show Magic - TRICKL4SH 220.mp3
AudioLeadIn: 0
PreviewTime: 46126
Countdown: 0
SampleSet: Soft
StackLeniency: 0.7
Mode: 0
LetterboxInBreaks: 1
WidescreenStoryboard: 0

[Editor]
DistanceSpacing: 1
BeatDivisor: 4
GridSize: 8
TimelineZoom: 2.4

[Metadata]
Title:TRICKL4SH 220
TitleUnicode:TRICKL4SH 220
Artist:Lite Show Magic
ArtistUnicode:Lite Show Magic
Creator:Fuccho
Version:UNLEASH
Source:
Tags:t+pazolite vs C-Show
BeatmapID:800749
BeatmapSetID:364824

[Difficulty]
HPDrainRate:5.7
CircleSize:4.2
OverallDifficulty:9.1
ApproachRate:9.7
SliderMultiplier:1.98
SliderTickRate:1

[Events]
//Background and Video events
0,0,"TRICKL4SH BG.jpg",0,0
//Break Periods
//Storyboard Layer 0 (Background)
//Storyboard Layer 1 (Fail)
//Storyboard Layer 2 (Pass)
//Storyboard Layer 3 (Foreground)
//Storyboard Sound Samples

[TimingPoints]
376,272.727272727273,4,2,1,70,1,0
376,-111.111111111111,4,2,1,70,0,0
648,-142.857142857143,4,2,1,70,0,0
4330,-90.9090909090909,4,2,1,70,0,0
4739,-90.9090909090909,4,2,1,70,0,0
5285,-100,4,2,1,70,0,0
6921,-83.3333333333333,4,2,1,70,0,0
9103,-71.4285714285714,4,2,1,70,0,0
10739,-83.3333333333333,4,2,1,70,0,0
11285,-71.4285714285714,4,2,1,70,0,0
15103,-83.3333333333333,4,2,1,70,0,0
15376,-71.4285714285714,4,2,1,70,0,0
17557,-50,4,2,1,70,0,0
17830,-90.9090909090909,4,2,1,70,0,0
21921,-71.4285714285714,4,2,1,70,0,0
22194,-90.9090909090909,4,2,1,70,0,0
25466,-142.857142857143,4,2,1,70,0,0
25739,-125,4,2,1,70,0,0
26012,-111.111111111111,4,2,1,70,0,0
26285,-99.9999999999999,4,2,1,70,0,0
26557,-90.9090909090909,4,2,1,70,0,0
27648,-71.4285714285714,4,2,1,70,0,0
28739,-90.9090909090909,4,2,1,70,0,0
29830,-71.4285714285714,4,2,1,70,0,0
30171,-64.5161290322581,4,2,1,70,0,0
30921,-90.9090909090909,4,2,1,70,0,0
34194,-125,4,2,1,70,0,0
35012,-90.9090909090909,4,2,1,70,0,0
35285,-200,4,2,2,50,0,0
39376,-142.857142857143,4,2,1,60,0,0
45648,-66.6666666666667,4,2,1,70,0,0
46194,-76.9230769230769,4,2,1,80,0,1
47557,-66.6666666666667,4,2,1,80,0,1
50557,-76.9230769230769,4,2,1,80,0,1
51921,-66.6666666666667,4,2,1,80,0,1
52739,-58.8235294117647,4,2,1,80,0,1
54376,-66.6666666666667,4,2,1,70,0,0
54921,-76.9230769230769,4,2,1,80,0,1
56285,-62.5,4,2,1,80,0,1
59285,-76.9230769230769,4,2,1,80,0,1
60648,-66.6666666666667,4,2,1,80,0,1
61466,-58.8235294117647,4,2,1,80,0,1
63103,-66.6666666666667,4,2,1,70,0,0
63648,-90.9090909090909,4,2,3,70,0,0
66239,-71.4285714285714,4,2,3,70,0,0
67194,-58.8235294117647,4,2,3,70,0,0
67466,-125,4,2,1,60,0,0
68012,-90.9090909090909,4,2,3,70,0,0
70603,-71.4285714285714,4,2,3,70,0,0
71285,-71.4285714285714,4,2,1,50,0,0
72376,-100,4,2,1,70,0,0
76739,-125,4,2,1,50,0,0
77285,-125,4,2,1,55,0,0
77830,-125,4,2,1,60,0,0
78376,-125,4,2,1,65,0,0
78921,-125,4,2,1,70,0,0
79466,-125,4,2,1,75,0,0
80012,-125,4,2,1,80,0,0
80557,-83.3333333333333,4,2,1,70,0,0
81103,-90.9090909090909,4,2,1,80,0,1
82194,-111.111111111111,4,2,2,70,0,0
83285,-66.6666666666667,4,2,1,80,0,1
84376,-50,4,2,1,100,0,1
85194,-50,4,2,1,80,0,0
85466,-76.9230769230769,4,2,1,80,0,1
86830,-66.6666666666667,4,2,1,80,0,1
89830,-76.9230769230769,4,2,1,80,0,1
91194,-66.6666666666667,4,2,1,80,0,1
92012,-55.5555555555556,4,2,1,80,0,1
93648,-66.6666666666667,4,2,1,70,0,0
94194,-66.6666666666667,4,2,1,90,0,1
100739,-55.5555555555556,4,2,1,90,0,1
102103,-55.5555555555556,4,2,2,90,0,1
102921,-71.4285714285714,4,2,1,70,0,0
104694,-58.8235294117647,4,2,1,70,0,0
105103,-71.4285714285714,4,2,1,70,0,0
108648,-90.9090909090909,4,2,1,70,0,0
110557,-125,4,2,1,70,0,0

[Colours]
Combo1 : 255,94,53
Combo2 : 168,255,89
Combo3 : 255,83,96
Combo4 : 16,254,176

[HitObjects]
40,113,376,6,0,B|84:103|84:103|137:120,1,89.0999972808839,4|0,0:1|0:0,0:0:0:0:
153,309,648,6,0,L|224:305,1,69.2999978851319,8|0,0:0|0:0,0:0:0:0:
259,326,853,1,0,0:0:0:0:
259,326,921,1,0,0:0:0:0:
391,146,1057,1,8,0:0:0:0:
391,146,1330,1,8,0:0:0:0:
278,226,1466,6,0,L|282:156,1,69.2999978851319
285,118,1671,1,0,0:0:0:0:
285,118,1739,1,8,0:0:0:0:
138,262,1876,1,0,0:0:0:0:
140,279,1944,1,0,0:0:0:0:
142,296,2012,2,0,L|149:365,1,69.2999978851319,0|8,0:0|0:0,0:0:0:0:
35,187,2285,6,0,L|39:161,7,17.324999471283,8|8|8|8|8|8|8|8,0:0|0:0|0:0|0:0|0:0|0:0|0:0|0:0,0:0:0:0:
9,162,2557,6,0,L|24:90,1,69.2999978851319
86,45,2762,1,0,0:0:0:0:
109,37,2830,2,0,B|140:50|140:50|178:51,1,69.2999978851319,8|0,0:0|0:0,0:0:0:0:
246,10,3035,1,0,0:0:0:0:
246,10,3103,1,0,0:0:0:0:
196,164,3239,1,8,0:0:0:0:
494,65,3512,1,8,0:0:0:0:
383,58,3648,6,0,L|358:53,4,17.324999471283,8|8|8|8|8,0:0|0:0|0:0|0:0|0:0,0:0:0:0:
494,65,3921,1,8,0:0:0:0:
301,194,4057,2,0,L|288:175,4,17.324999471283,8|8|8|8|8,0:0|0:0|0:0|0:0|0:0,0:0:0:0:
494,65,4330,6,0,L|484:180,1,108.900003323364,0|0,1:0|0:0,0:0:0:0:
472,227,4535,1,0,0:0:0:0:
487,279,4603,1,0,0:0:0:0:
442,248,4671,1,0,0:0:0:0:
387,251,4739,6,0,B|336:269|336:269|306:318,1,108.900003323364,4|0,1:0|0:0,0:0:0:0:
307,315,5012,5,8,0:0:0:0:
75,261,5148,1,0,0:0:0:0:
95,252,5216,1,0,0:0:0:0:
116,250,5285,2,0,P|170:268|196:300,1,99,0|8,0:0|0:0,0:0:0:0:
37,357,5557,1,0,0:0:0:0:
37,357,5694,6,0,L|53:153,1,198,8|0,0:0|0:0,0:0:0:0:
6,100,6035,1,0,0:0:0:0:
6,100,6103,1,8,0:0:0:0:
191,163,6239,1,0,0:0:0:0:
45,14,6376,5,0,0:0:0:0:
269,73,6512,1,8,0:0:0:0:
52,159,6648,1,8,0:0:0:0:
52,159,6785,1,0,0:0:0:0:
254,40,6921,6,0,B|224:36|224:36|194:44,1,59.3999981872559,8|0,1:2|0:0,0:0:0:0:
411,116,7057,5,0,0:0:0:0:
411,116,7126,1,0,0:0:0:0:
411,116,7194,2,0,B|429:92|429:92|437:62,1,59.3999981872559,8|0,1:2|0:0,0:0:0:0:
267,213,7329,5,0,0:0:0:0:
267,213,7398,1,0,0:0:0:0:
267,213,7466,2,0,B|278:240|278:240|300:262,1,59.3999981872559,8|0,1:2|0:0,0:0:0:0:
485,288,7603,5,8,0:0:0:0:
254,356,7739,2,0,B|286:360|316:348|316:348|373:357|373:357|428:344,1,178.199994561768,0|0,1:0|0:0,0:0:0:0:
485,288,8012,5,0,0:0:0:0:
464,191,8148,1,0,0:0:0:0:
444,93,8285,1,0,0:0:0:0:
236,334,8421,1,0,0:0:0:0:
162,283,8694,5,0,1:0:0:0:
160,273,8762,1,0,1:0:0:0:
158,263,8830,1,0,1:0:0:0:
156,253,8898,1,0,1:0:0:0:
154,243,8966,1,0,1:0:0:0:
152,233,9035,1,0,1:0:0:0:
144,194,9103,6,0,B|100:139|100:139|309:185,1,277.199991540528,0|0,1:0|0:0,0:0:0:0:
419,60,9512,2,0,B|335:94|335:94|311:154|327:223|403:264,1,277.199991540528,0|0,1:0|0:0,0:0:0:0:
214,340,9921,2,0,L|230:119,1,207.899993655396,0|0,1:0|0:0,0:0:0:0:
229,132,10194,5,8,0:3:0:0:
14,165,10330,1,8,0:3:0:0:
169,13,10466,1,8,1:0:0:0:
134,227,10603,1,0,0:0:0:0:
36,32,10739,6,0,P|61:28|105:37,1,59.3999981872559,8|0,0:1|0:0,0:0:0:0:
159,300,10876,2,0,P|130:304|101:299,1,59.3999981872559,2|2,0:0|0:0,0:0:0:0:
131,131,11012,1,2,0:0:0:0:
158,122,11081,1,2,0:0:0:0:
182,121,11149,1,2,0:0:0:0:
206,125,11217,1,2,0:0:0:0:
229,132,11285,6,0,P|300:176|429:61,1,277.199991540528,0|0,1:0|0:0,0:0:0:0:
413,335,11694,2,0,B|442:255|442:255|420:166|420:166|437:116|428:67,1,277.199991540528,0|0,1:0|0:0,0:0:0:0:
213,160,12103,2,0,B|187:226|199:299|256:344|256:344|238:264,1,277.199991540528,0|0,1:0|0:0,0:0:0:0:
11,122,12512,2,0,B|214:160|214:160|143:186,1,277.199991540528,0|0,1:0|0:0,0:0:0:0:
351,16,12921,6,0,P|391:83|357:212,1,207.899993655396,0|0,1:0|0:0,0:0:0:0:
148,204,13194,2,0,P|117:107|161:16,1,207.899993655396,0|0,1:0|0:0,0:0:0:0:
256,119,13466,6,0,B|277:213|277:213|234:283|234:283|256:378,1,277.199991540528,0|0,1:0|0:0,0:0:0:0:
465,342,13876,2,0,P|348:286|256:378,1,277.199991540528,0|0,1:0|0:0,0:0:0:0:
46,342,14285,2,0,P|142:307|129:372,1,207.899993655396,0|0,1:0|0:0,0:0:0:0:
136,364,14557,5,8,0:3:0:0:
64,142,14694,1,8,0:3:0:0:
136,364,14830,5,8,1:0:0:0:
198,66,14966,1,0,0:0:0:0:
288,338,15103,6,0,L|229:335,1,59.3999981872559,8|0,0:1|0:0,0:0:0:0:
303,126,15239,2,0,L|362:122,1,59.3999981872559,2|0,0:0|0:0,0:0:0:0:
272,306,15376,6,0,B|236:304|236:304|207:288,1,69.2999978851319,2|0,0:0|0:0,0:0:0:0:
458,102,15512,2,0,B|463:134|463:134|452:169,1,69.2999978851319,2|0,0:0|0:0,0:0:0:0:
145,198,15648,6,0,B|95:113|95:113|256:192,1,277.199991540528,0|0,1:0|0:0,0:0:0:0:
349,252,16057,2,0,B|339:350|339:350|256:192,1,277.199991540528,0|0,1:0|0:0,0:0:0:0:
214,89,16466,2,0,B|280:15|280:15|256:192,1,277.199991540528,0|0,1:0|0:0,0:0:0:0:
227,299,16876,2,0,B|131:320|131:320|256:192,1,277.199991540528,0|0,1:0|0:0,0:0:0:0:
319,139,17285,2,0,B|387:168|387:168|256:192,1,207.899993655396,0|0,1:0|0:0,0:0:0:0:
184,137,17557,6,0,P|204:144|170:137,1,297,8|0,0:1|0:0,0:0:0:0:
152,142,17830,5,4,1:0:0:0:
437,306,17966,1,0,0:0:0:0:
442,262,18035,1,0,0:0:0:0:
448,219,18103,2,0,L|424:102,1,108.900003323364,0|0,1:0|0:0,0:0:0:0:
240,35,18376,5,0,1:0:0:0:
315,287,18512,1,0,0:0:0:0:
45,163,18648,2,0,L|162:139,1,108.900003323364,0|0,1:0|0:0,0:0:0:0:
367,65,18921,5,0,1:0:0:0:
187,256,19057,1,0,0:0:0:0:
187,256,19126,1,0,0:0:0:0:
187,256,19194,5,0,1:0:0:0:
448,219,19330,1,0,0:0:0:0:
240,35,19466,5,0,1:0:0:0:
315,287,19603,1,0,0:0:0:0:
219,47,19739,5,0,1:0:0:0:
294,299,19876,1,0,0:0:0:0:
95,90,20012,6,0,L|153:100,1,54.4500016616822,0|0,1:0|0:0,0:0:0:0:
438,189,20148,1,0,0:0:0:0:
438,189,20216,2,0,L|380:199,1,54.4500016616822,0|0,0:0|1:0,0:0:0:0:
177,310,20353,1,0,0:0:0:0:
177,310,20421,2,0,L|187:252,1,54.4500016616822
324,10,20557,5,0,1:0:0:0:
329,42,20626,1,0,0:0:0:0:
334,74,20694,1,0,0:0:0:0:
339,106,20762,1,0,0:0:0:0:
344,138,20830,1,0,1:0:0:0:
95,90,20966,1,0,0:0:0:0:
261,348,21103,6,0,P|282:293|267:243,1,108.900003323364,0|0,1:0|0:0,0:0:0:0:
200,208,21307,1,0,0:0:0:0:
200,208,21376,2,0,P|196:181|204:144,1,54.4500016616822,0|0,1:0|0:0,0:0:0:0:
433,47,21512,2,0,P|438:74|434:101,1,54.4500016616822
269,246,21648,5,0,1:0:0:0:
365,74,21785,1,0,0:0:0:0:
410,355,21921,6,0,L|377:149,1,207.899993655396,2|0,0:3|0:0,0:0:0:0:
365,74,22194,6,0,P|309:95|257:84,1,108.900003323364,0|0,1:0|0:0,0:0:0:0:
189,13,22398,1,0,0:0:0:0:
233,78,22466,2,0,P|241:136|236:192,1,108.900003323364,0|0,1:0|0:0,0:0:0:0:
14,343,22739,5,0,1:0:0:0:
237,185,22876,1,0,0:0:0:0:
98,366,23012,2,0,L|95:256,1,108.900003323364,0|0,1:0|0:0,0:0:0:0:
17,76,23285,5,0,1:0:0:0:
188,291,23421,1,0,0:0:0:0:
219,298,23489,1,0,0:0:0:0:
251,292,23557,5,0,1:0:0:0:
189,13,23694,1,0,0:0:0:0:
492,178,23830,5,0,1:0:0:0:
223,214,23966,1,0,0:0:0:0:
508,43,24103,5,0,1:0:0:0:
446,322,24240,1,0,0:0:0:0:
408,107,24376,6,0,P|382:98|351:98,1,54.4500016616822,0|0,1:0|0:0,0:0:0:0:
277,63,24512,1,0,0:0:0:0:
277,63,24580,2,0,P|249:68|223:83,1,54.4500016616822,0|0,0:0|1:0,0:0:0:0:
142,94,24716,1,0,0:0:0:0:
142,94,24784,2,0,P|121:112|105:138,1,54.4500016616822
54,231,24921,5,0,1:0:0:0:
85,240,24989,1,0,0:0:0:0:
110,260,25057,1,0,0:0:0:0:
123,290,25126,1,0,0:0:0:0:
123,322,25194,1,0,1:0:0:0:
282,141,25330,1,0,0:0:0:0:
213,355,25466,6,0,L|203:275,1,69.2999978851319,2|0,0:0|0:0,0:0:0:0:
328,291,25739,6,0,L|339:197,1,79.2,10|0,0:0|0:0,0:0:0:0:
153,182,26012,6,0,L|140:85,1,89.0999972808839,2|0,0:0|0:0,0:0:0:0:
397,106,26285,6,0,L|408:5,1,99,10|0,0:0|0:0,0:0:0:0:
85,10,26557,5,4,1:0:0:0:
256,43,26694,1,0,0:0:0:0:
256,64,26762,1,0,0:0:0:0:
256,85,26830,1,0,1:0:0:0:
256,191,26966,1,0,0:0:0:0:
444,360,27103,5,0,1:0:0:0:
256,191,27239,1,0,0:0:0:0:
68,360,27376,2,0,L|178:376,1,108.900003323364,0|0,1:0|0:0,0:0:0:0:
207,130,27648,6,0,P|178:196|215:259,1,138.599995770264,2|0,1:0|0:0,0:0:0:0:
306,251,27853,2,0,P|334:190|305:130,1,138.599995770264,2|0,1:0|0:0,0:0:0:0:
256,191,28057,2,0,L|256:267,1,69.2999978851319,2|0,1:0|0:0,0:0:0:0:
212,343,28194,5,0,1:0:0:0:
306,365,28330,1,0,0:0:0:0:
388,313,28466,1,8,0:1:0:0:
482,335,28602,1,0,0:0:0:0:
409,100,28739,5,0,1:0:0:0:
482,335,28876,1,0,0:0:0:0:
487,307,28944,1,0,0:0:0:0:
493,280,29012,1,0,1:0:0:0:
306,251,29148,1,0,0:0:0:0:
511,69,29285,5,0,1:0:0:0:
306,251,29421,1,0,0:0:0:0:
139,130,29557,2,0,P|125:77|145:20,1,108.900003323364,0|0,1:0|0:0,0:0:0:0:
353,162,29830,6,0,L|283:172,1,69.2999978851319,2|0,1:0|0:0,0:0:0:0:
214,244,29966,2,0,P|149:228|91:281,1,138.599995770264,2|8,1:0|0:3,0:0:0:0:
165,304,30171,6,0,L|126:144,1,153.450001170731,2|0,1:0|0:0,0:0:0:0:
411,44,30444,1,2,1:0:0:0:
411,44,30512,1,2,1:0:0:0:
362,351,30648,6,0,L|381:271,1,76.7250005853653,2|0,1:0|0:0,0:0:0:0:
318,160,30785,2,0,L|337:80,1,76.7250005853653,2|0,1:0|0:0,0:0:0:0:
503,36,30921,5,4,1:0:0:0:
299,245,31057,1,0,0:0:0:0:
256,256,31126,1,0,0:0:0:0:
214,244,31194,2,0,P|186:192|193:135,1,108.900003323364,0|0,1:0|0:0,0:0:0:0:
293,23,31466,5,0,1:0:0:0:
238,354,31603,1,0,0:0:0:0:
82,163,31739,2,0,L|189:143,1,108.900003323364,0|0,1:0|0:0,0:0:0:0:
70,274,32012,5,0,1:0:0:0:
394,196,32148,1,0,0:0:0:0:
394,196,32216,1,0,0:0:0:0:
394,196,32285,5,0,1:0:0:0:
189,47,32421,1,0,0:0:0:0:
257,331,32557,5,0,1:0:0:0:
189,47,32693,1,0,0:0:0:0:
161,368,32830,2,0,L|171:252,1,108.900003323364,0|0,1:0|0:0,0:0:0:0:
415,185,33103,5,0,1:0:0:0:
190,132,33239,1,0,1:0:0:0:
434,178,33376,5,0,1:0:0:0:
140,229,33512,1,0,1:0:0:0:
456,176,33648,5,0,1:0:0:0:
69,92,33785,1,0,1:0:0:0:
477,178,33921,5,0,1:0:0:0:
19,264,34057,1,0,1:0:0:0:
499,183,34194,6,0,L|507:262,1,79.2,2|0,1:2|0:0,0:0:0:0:
355,340,34466,1,8,0:0:0:0:
355,340,34603,2,0,P|348:301|360:246,1,79.2,8|0,0:0|0:0,0:0:0:0:
424,165,34876,1,0,0:0:0:0:
422,10,35012,6,0,P|400:87|423:164,1,163.350004985047,2|0,0:0|0:0,0:0:0:0:
499,183,35285,5,2,0:0:0:0:
182,131,36103,1,2,0:0:0:0:
256,112,36239,1,2,0:0:0:0:
330,93,36376,6,0,L|313:254,1,148.5,2|0,0:0|0:0,0:0:0:0:
247,350,36921,2,0,L|231:202,1,148.5,2|0,0:0|0:0,0:0:0:0:
182,131,37466,6,0,P|110:117|52:166,2,148.5,2|2|2,0:0|0:0|0:0,0:0:0:0:
248,225,38557,5,2,0:0:0:0:
421,324,38966,1,2,0:0:0:0:
442,322,39035,1,2,0:0:0:0:
462,320,39103,1,2,0:0:0:0:
494,192,39376,5,0,1:0:0:0:
494,192,39512,1,8,1:0:0:0:
436,118,39648,2,0,P|399:112|364:122,1,69.2999978851319,0|0,1:0|0:0,0:0:0:0:
369,120,39921,6,0,L|348:12,1,103.949996827698
349,18,40194,1,8,0:1:0:0:
76,118,40466,6,0,P|113:112|148:122,1,69.2999978851319,0|0,1:0|0:0,0:0:0:0:
143,264,40739,2,0,P|109:272|75:265,1,69.2999978851319,0|0,1:0|0:0,0:0:0:0:
76,266,41012,6,0,L|97:374,1,103.949996827698,0|0,1:0|0:0,0:0:0:0:
96,368,41285,1,8,0:1:0:0:
436,266,41557,6,0,P|399:272|364:262,1,69.2999978851319,0|0,1:0|0:0,0:0:0:0:
256,192,41830,2,0,L|242:46,1,138.599995770264,0|0,1:0|1:0,0:0:0:0:
328,65,42239,1,0,0:0:0:0:
173,165,42376,2,0,P|139:173|103:165,1,69.2999978851319,8|0,0:1|0:0,0:0:0:0:
136,26,42648,6,0,L|141:96,1,69.2999978851319,0|0,1:0|0:0,0:0:0:0:
136,357,42921,2,0,L|141:288,1,69.2999978851319,0|0,1:0|0:0,0:0:0:0:
256,192,43194,6,0,L|260:261,1,69.2999978851319,0|0,1:0|0:0,0:0:0:0:
375,357,43466,2,0,L|379:287,1,69.2999978851319,8|0,0:1|0:0,0:0:0:0:
494,192,43739,5,0,1:0:0:0:
494,192,43875,1,0,1:0:0:0:
256,192,44012,12,0,45239,0:0:0:0:
256,192,45376,6,0,P|250:143|256:81,1,103.949996827698
215,211,45648,6,0,P|152:168|63:262,1,222.750008497238,2|0,0:1|0:0,0:0:0:0:
297,211,45921,6,0,P|360:168|449:262,1,222.750008497238,2|0,0:1|0:0,0:0:0:0:
256,370,46194,5,4,1:0:0:0:
110,140,46330,1,0,0:0:0:0:
369,249,46466,2,0,P|390:313|370:382,1,128.699994108582,0|0,1:0|0:0,0:0:0:0:
256,192,46739,1,0,1:0:0:0:
256,192,46807,1,0,0:0:0:0:
256,192,46876,2,0,P|255:154|261:119,1,64.3499970542909
356,41,47012,1,0,1:0:0:0:
40,97,47148,1,0,0:0:0:0:
356,41,47285,6,0,L|487:72,1,128.699994108582,0|0,1:0|0:0,0:0:0:0:
481,70,47557,6,0,P|416:115|428:248,1,222.750008497238,0|0,1:0|0:0,0:0:0:0:
506,250,47830,1,0,1:0:0:0:
455,261,47898,1,0,0:0:0:0:
404,273,47966,1,0,0:0:0:0:
352,285,48035,1,0,0:0:0:0:
301,298,48103,1,0,1:0:0:0:
233,69,48239,1,0,0:0:0:0:
165,351,48376,5,4,1:3:0:0:
233,69,48512,1,0,0:0:0:0:
4,294,48648,1,0,1:0:0:0:
322,152,48785,5,4,0:3:0:0:
33,40,48921,1,0,1:0:0:0:
165,351,49057,1,0,0:0:0:0:
322,152,49194,5,4,1:3:0:0:
25,316,49330,1,0,0:0:0:0:
320,177,49466,5,4,1:3:0:0:
102,10,49603,1,0,0:0:0:0:
419,88,49739,5,4,1:3:0:0:
337,379,49876,1,0,0:0:0:0:
79,251,50012,5,4,1:3:0:0:
418,207,50149,1,4,0:3:0:0:
418,207,50216,1,4,0:3:0:0:
418,207,50285,1,4,1:2:0:0:
431,97,50557,6,0,L|310:142,1,128.699994108582,4|0,1:0|0:0,0:0:0:0:
147,31,50830,1,0,1:0:0:0:
322,250,50966,1,0,0:0:0:0:
91,133,51103,1,0,1:0:0:0:
91,133,51171,1,0,0:0:0:0:
91,133,51239,2,0,P|119:142|166:145,1,64.3499970542909
285,45,51376,1,0,1:0:0:0:
170,319,51512,1,0,0:0:0:0:
441,284,51648,6,0,P|383:260|324:280,1,128.699994108582,0|0,1:0|0:0,0:0:0:0:
324,279,51921,6,0,L|302:57,1,222.750008497238,0|0,1:0|0:0,0:0:0:0:
352,2,52194,1,0,1:0:0:0:
315,38,52262,1,0,0:0:0:0:
265,54,52330,1,0,0:0:0:0:
213,47,52398,1,0,0:0:0:0:
173,13,52466,1,0,1:0:0:0:
85,291,52603,1,0,0:0:0:0:
67,39,52739,6,0,L|128:207,1,168.300003210068,4|0,1:0|0:0,0:0:0:0:
498,38,53012,1,8,0:3:0:0:
374,326,53148,6,0,B|394:243|394:243|354:169,1,168.300003210068,0|0,1:0|0:0,0:0:0:0:
55,62,53421,6,0,L|226:79,1,168.300003210068,0|2,1:0|0:0,0:0:0:0:
498,38,53694,6,0,B|457:120|457:120|477:223|477:223|441:176,1,252.450004815102,4|0,1:0|0:0,0:0:0:0:
375,148,53966,1,0,1:0:0:0:
250,272,54103,1,8,0:3:0:0:
477,223,54239,1,0,0:0:0:0:
215,158,54376,6,0,P|193:110|223:22,1,148.500005664826,2|2,0:1|0:0,0:0:0:0:
220,192,54580,1,2,0:0:0:0:
220,192,54648,6,0,P|145:202|124:344,1,222.750008497238,2|0,0:1|0:0,0:0:0:0:
185,373,54921,5,4,1:0:0:0:
490,252,55057,1,0,0:0:0:0:
379,23,55194,2,0,B|361:82|361:82|375:148,1,128.699994108582,0|0,1:0|0:0,0:0:0:0:
501,352,55466,1,0,1:0:0:0:
488,349,55535,1,0,0:0:0:0:
475,346,55603,2,0,L|407:355,1,64.3499970542909
306,318,55739,1,0,1:0:0:0:
353,41,55876,1,0,0:0:0:0:
103,148,56012,6,0,P|157:166|231:141,1,128.699994108582,0|0,1:0|0:0,0:0:0:0:
223,146,56285,6,0,P|218:53|96:78,1,237.6,0|0,1:0|0:0,0:0:0:0:
71,141,56557,1,0,1:0:0:0:
84,187,56626,1,0,0:0:0:0:
73,233,56694,1,0,0:0:0:0:
87,278,56762,1,0,0:0:0:0:
76,324,56830,1,0,1:0:0:0:
333,360,56966,1,0,0:0:0:0:
415,118,57103,5,4,1:3:0:0:
333,360,57239,1,0,0:0:0:0:
322,41,57376,1,0,1:0:0:0:
288,275,57512,5,4,0:3:0:0:
172,56,57648,1,0,1:0:0:0:
203,371,57785,1,0,0:0:0:0:
35,47,57921,5,4,1:3:0:0:
95,357,58057,1,0,0:0:0:0:
35,47,58194,5,4,1:3:0:0:
188,343,58330,1,0,0:0:0:0:
21,70,58466,5,4,1:3:0:0:
316,259,58602,1,0,0:0:0:0:
7,93,58739,5,4,1:3:0:0:
367,77,58875,1,4,2:3:0:0:
367,77,58944,1,4,0:3:0:0:
367,77,59012,1,4,1:2:0:0:
239,4,59285,6,0,L|228:144,1,128.699994108582,4|0,1:0|0:0,0:0:0:0:
103,230,59557,1,0,1:0:0:0:
395,158,59694,1,0,0:0:0:0:
221,332,59830,1,0,1:0:0:0:
221,332,59898,1,0,0:0:0:0:
221,332,59966,2,0,L|215:267,1,64.3499970542909
252,152,60103,1,0,1:0:0:0:
28,371,60239,1,0,0:0:0:0:
96,107,60376,6,0,B|119:168|119:168|103:230,1,128.699994108582,0|0,1:0|0:0,0:0:0:0:
103,230,60648,6,0,B|37:269|37:269|186:257,1,222.750008497238,0|0,1:0|0:0,0:0:0:0:
242,205,60921,1,0,1:0:0:0:
284,234,60989,1,0,0:0:0:0:
335,238,61057,1,0,0:0:0:0:
385,223,61126,1,0,0:0:0:0:
418,183,61194,1,0,1:0:0:0:
108,87,61330,1,0,0:0:0:0:
325,1,61466,6,0,P|357:76|324:151,1,168.300003210068,4|0,1:0|0:0,0:0:0:0:
25,29,61739,1,8,0:3:0:0:
269,370,61876,6,0,L|242:205,1,168.300003210068,0|0,1:0|0:0,0:0:0:0:
53,17,62148,6,0,L|25:182,1,168.300003210068,0|2,1:0|0:0,0:0:0:0:
357,322,62421,6,0,P|278:271|170:368,1,252.450004815102,4|0,1:0|0:0,0:0:0:0:
170,360,62694,1,0,1:0:0:0:
152,243,62830,1,0,0:0:0:0:
134,126,62966,1,0,0:0:0:0:
282,13,63103,6,0,P|319:76|267:208,1,222.750008497238,2|0,0:1|0:0,0:0:0:0:
336,174,63376,6,0,P|299:237|380:353,1,222.750008497238,2|0,0:1|0:0,0:0:0:0:
461,331,63648,6,0,L|468:223,1,108.900003323364,4|0,1:0|0:0,0:0:0:0:
475,113,63921,1,0,3:0:0:0:
475,113,64057,1,0,0:0:0:0:
252,28,64194,5,0,0:0:0:0:
252,28,64330,1,0,1:0:0:0:
259,138,64467,2,0,L|266:246,1,108.900003323364,0|0,3:0|0:0,0:0:0:0:
92,365,64739,5,0,1:0:0:0:
28,248,64876,1,0,0:0:0:0:
24,226,64944,1,0,0:0:0:0:
29,204,65012,1,0,3:0:0:0:
244,149,65148,1,0,0:0:0:0:
0,55,65285,5,0,0:0:0:0:
211,72,65421,1,0,1:0:0:0:
0,55,65557,2,0,L|120:65,1,108.900003323364,0|0,3:0|0:0,0:0:0:0:
343,178,65830,5,0,1:0:0:0:
451,43,65966,1,0,0:0:0:0:
451,43,66035,1,0,0:0:0:0:
451,43,66103,1,0,3:0:0:0:
502,162,66239,2,0,P|509:196|505:231,1,69.2999978851319
422,274,66376,6,0,P|450:234|440:288,1,138.599995770264,0|0,0:0|1:0,0:0:0:0:
237,312,66648,2,0,P|231:279|239:240,1,69.2999978851319,0|0,3:0|0:0,0:0:0:0:
331,281,66785,2,0,P|337:314|329:353,1,69.2999978851319
161,361,66921,6,0,L|86:351,1,69.2999978851319,0|0,1:0|0:0,0:0:0:0:
18,251,67057,1,0,0:0:0:0:
18,251,67194,2,0,P|9:216|19:163,1,84.1500016050339,0|0,3:0|0:0,0:0:0:0:
223,85,67330,2,0,P|232:50|222:-3,1,84.1500016050339
102,35,67466,6,0,L|112:125,1,79.2,0|2,1:0|0:0,0:0:0:0:
121,207,67739,2,0,L|131:297,1,79.2,0|2,1:0|0:0,0:0:0:0:
382,285,68012,6,0,L|402:102,1,163.350004985047,4|0,1:0|0:0,0:0:0:0:
376,49,68285,1,0,3:0:0:0:
376,49,68421,1,0,0:0:0:0:
147,153,68557,5,0,0:0:0:0:
147,153,68694,1,0,1:0:0:0:
216,240,68830,2,0,P|286:256|363:178,1,163.350004985047,0|0,3:0|0:0,0:0:0:0:
328,122,69103,5,0,1:0:0:0:
129,39,69239,1,0,0:0:0:0:
150,36,69307,1,0,0:0:0:0:
171,33,69376,1,0,3:0:0:0:
216,240,69512,1,0,0:0:0:0:
14,193,69648,5,0,0:0:0:0:
216,240,69785,1,0,1:0:0:0:
62,372,69921,2,0,L|71:248,1,108.900003323364,0|0,3:0|0:0,0:0:0:0:
19,54,70194,5,0,1:0:0:0:
216,240,70330,1,0,0:0:0:0:
257,251,70398,1,0,0:0:0:0:
299,240,70466,1,0,3:0:0:0:
341,31,70603,2,0,L|336:113,1,69.2999978851319
430,233,70739,6,0,L|390:369,1,138.599995770264,0|0,0:0|1:0,0:0:0:0:
154,271,71012,2,0,L|216:240,1,69.2999978851319,0|0,3:0|0:0,0:0:0:0:
290,371,71148,2,0,L|220:376,1,69.2999978851319
86,358,71285,5,0,0:1:0:0:
40,292,71421,1,0,0:0:0:0:
60,214,71557,1,2,0:0:0:0:
132,180,71694,1,0,0:0:0:0:
205,213,71830,1,4,0:1:0:0:
278,246,71966,1,0,0:0:0:0:
350,212,72103,1,0,1:0:0:0:
370,134,72239,1,2,0:0:0:0:
324,68,72376,6,0,P|275:52|222:59,1,99,4|0,1:0|0:0,0:0:0:0:
120,198,72648,2,0,P|168:202|215:186,1,99,2|0,3:0|0:0,0:0:0:0:
156,97,72921,5,0,3:0:0:0:
185,298,73057,1,0,0:0:0:0:
329,207,73194,2,0,P|379:199|426:218,1,99,2|0,3:0|0:0,0:0:0:0:
452,311,73466,5,0,3:0:0:0:
478,154,73603,1,0,0:0:0:0:
470,329,73739,5,2,3:0:0:0:
311,331,73876,1,0,0:0:0:0:
496,172,74012,5,0,3:0:0:0:
470,329,74149,1,0,0:0:0:0:
311,331,74285,2,0,L|209:313,1,99,2|0,3:0|0:0,0:0:0:0:
58,376,74557,6,0,P|62:352|61:321,1,49.5,0|0,3:0|0:0,0:0:0:0:
6,190,74694,1,0,0:0:0:0:
33,201,74762,2,0,L|94:196,1,49.5,0|2,0:0|3:0,0:0:0:0:
187,141,74898,1,0,0:0:0:0:
214,152,74966,2,0,L|275:147,1,49.5
385,28,75103,5,0,3:0:0:0:
383,47,75171,1,0,0:0:0:0:
381,66,75239,1,0,0:0:0:0:
379,85,75307,1,0,0:0:0:0:
378,105,75376,1,2,3:0:0:0:
451,337,75512,1,0,3:0:0:0:
306,237,75648,6,0,L|203:252,1,99,0|0,3:0|0:0,0:0:0:0:
163,313,75853,1,0,0:0:0:0:
163,313,75921,2,0,L|108:304,1,49.5,2|0,3:0|0:0,0:0:0:0:
180,68,76057,2,0,L|187:116,1,49.5
17,117,76194,5,0,3:0:0:0:
187,141,76330,1,0,3:0:0:0:
309,269,76466,1,0,3:0:0:0:
479,245,76602,1,0,3:0:0:0:
271,12,76739,5,4,1:0:0:0:
270,19,76807,1,0,3:0:0:0:
269,26,76875,1,0,3:0:0:0:
268,33,76943,1,0,3:0:0:0:
268,40,77011,1,2,3:0:0:0:
267,47,77079,1,0,3:0:0:0:
266,55,77148,1,0,3:0:0:0:
266,62,77216,1,0,3:0:0:0:
265,69,77284,5,0,3:0:0:0:
264,76,77352,1,0,3:0:0:0:
264,83,77420,1,0,3:0:0:0:
263,91,77489,1,0,3:0:0:0:
262,98,77557,1,2,3:0:0:0:
261,105,77625,1,0,3:0:0:0:
261,112,77693,1,0,3:0:0:0:
260,119,77761,1,0,3:0:0:0:
259,126,77829,5,0,3:0:0:0:
259,134,77898,1,0,3:0:0:0:
258,141,77966,1,0,3:0:0:0:
257,148,78034,1,0,3:0:0:0:
257,155,78102,1,2,3:0:0:0:
256,162,78170,1,0,3:0:0:0:
255,170,78239,1,0,3:0:0:0:
255,177,78307,1,0,3:0:0:0:
254,184,78375,5,0,3:0:0:0:
253,191,78443,1,0,3:0:0:0:
252,198,78511,1,0,3:0:0:0:
252,206,78579,1,0,3:0:0:0:
251,213,78648,1,2,3:0:0:0:
250,220,78716,1,0,3:0:0:0:
250,227,78784,1,0,3:0:0:0:
249,234,78852,1,0,3:0:0:0:
248,241,78920,5,2,3:0:0:0:
248,249,78989,1,0,3:0:0:0:
247,256,79057,1,0,3:0:0:0:
246,263,79125,1,0,3:0:0:0:
246,270,79193,1,2,3:0:0:0:
245,277,79261,1,0,3:0:0:0:
244,285,79329,1,0,3:0:0:0:
243,292,79398,1,0,3:0:0:0:
243,299,79466,5,2,3:0:0:0:
242,306,79534,1,0,3:0:0:0:
241,313,79602,1,0,3:0:0:0:
241,320,79670,1,0,3:0:0:0:
240,328,79739,1,2,3:0:0:0:
239,335,79807,1,0,3:0:0:0:
239,342,79875,1,2,3:0:0:0:
238,349,79943,1,0,3:0:0:0:
237,356,80012,6,0,P|159:376|82:353,1,158.4,0|0,1:0|1:0,0:0:0:0:
60,279,80421,1,0,1:0:0:0:
142,81,80557,6,0,L|159:259,1,178.199994561768,10|0,1:0|0:0,0:0:0:0:
81,202,80830,6,0,P|138:164|237:212,1,178.199994561768,2|0,0:1|0:0,0:0:0:0:
243,292,81103,5,4,1:0:0:0:
471,357,81239,1,0,0:0:0:0:
346,252,81376,2,0,L|360:361,1,108.900003323364,8|0,0:1|0:0,0:0:0:0:
468,214,81648,1,0,0:0:0:0:
468,214,81716,1,0,0:0:0:0:
468,214,81785,1,0,0:0:0:0:
468,214,81853,1,0,0:0:0:0:
468,214,81921,2,0,P|482:158|467:109,1,108.900003323364
388,72,82194,5,0,0:0:0:0:
309,86,82330,1,2,0:0:0:0:
230,100,82466,1,2,0:0:0:0:
151,114,82603,1,2,0:0:0:0:
72,128,82739,1,2,0:0:0:0:
62,147,82807,1,2,0:0:0:0:
84,147,82876,1,2,0:0:0:0:
75,167,82944,1,2,0:0:0:0:
97,167,83012,2,0,L|104:270,1,89.0999972808839,2|2,0:0|0:0,0:0:0:0:
369,350,83285,6,0,P|400:273|365:204,1,148.500005664826,4|0,1:0|0:0,0:0:0:0:
143,34,83557,1,8,0:3:0:0:
397,353,83694,6,0,P|428:276|393:207,1,148.500005664826,0|0,1:0|0:0,0:0:0:0:
115,31,83966,6,0,P|84:108|119:177,1,148.500005664826,0|2,1:0|0:0,0:0:0:0:
475,25,84239,1,4,1:0:0:0:
256,192,84376,6,8,L|263:241,23,49.5
263,241,85194,1,2,0:0:0:0:
375,40,85466,6,0,L|390:168,1,128.699994108582,4|0,1:0|0:0,0:0:0:0:
316,353,85739,1,0,1:0:0:0:
491,141,85876,1,0,0:0:0:0:
316,353,86012,1,0,1:0:0:0:
290,350,86080,1,0,0:0:0:0:
264,348,86148,2,0,L|195:341,1,64.3499970542909
17,366,86285,1,0,1:0:0:0:
291,158,86421,1,0,0:0:0:0:
105,375,86557,6,0,B|126:315|126:315|107:246,1,128.699994108582,0|0,1:0|0:0,0:0:0:0:
108,252,86830,6,0,P|184:203|90:164,1,222.750008497238,0|0,1:0|0:0,0:0:0:0:
31,126,87103,1,0,1:0:0:0:
21,75,87171,1,0,0:0:0:0:
11,24,87239,1,0,0:0:0:0:
61,35,87307,1,0,0:0:0:0:
112,47,87376,1,0,1:0:0:0:
411,13,87512,1,0,0:0:0:0:
175,132,87648,5,4,1:3:0:0:
411,13,87785,1,0,0:0:0:0:
283,303,87921,1,0,1:0:0:0:
185,100,88057,5,4,0:3:0:0:
509,152,88194,1,0,1:0:0:0:
255,281,88330,1,0,0:0:0:0:
195,68,88466,5,4,1:3:0:0:
458,288,88603,1,0,0:0:0:0:
386,19,88739,5,4,1:3:0:0:
114,155,88876,1,0,0:0:0:0:
361,25,89012,5,4,1:3:0:0:
152,252,89149,1,0,0:0:0:0:
336,31,89285,5,4,1:3:0:0:
14,109,89421,1,4,0:3:0:0:
14,109,89489,1,4,0:3:0:0:
14,109,89557,1,4,1:2:0:0:
33,263,89830,6,0,P|94:278|152:252,1,128.699994108582,4|0,1:0|0:0,0:0:0:0:
252,31,90103,1,0,1:0:0:0:
207,336,90239,1,0,0:0:0:0:
103,88,90376,1,0,1:0:0:0:
103,88,90444,1,0,0:0:0:0:
103,88,90512,2,0,P|141:81|177:84,1,64.3499970542909
87,187,90648,1,0,1:0:0:0:
365,61,90785,1,0,0:0:0:0:
207,21,90921,6,0,L|200:166,1,128.699994108582,0|0,1:0|0:0,0:0:0:0:
200,149,91194,6,0,B|241:140|279:154|279:154|351:142|351:142|432:163,1,222.750008497238,0|0,1:0|0:0,0:0:0:0:
460,226,91466,1,0,1:0:0:0:
416,255,91535,1,0,0:0:0:0:
409,306,91603,1,0,0:0:0:0:
433,351,91671,1,0,0:0:0:0:
482,367,91739,1,0,1:0:0:0:
512,118,91876,1,0,0:0:0:0:
340,358,92012,6,0,L|160:337,1,178.199994561768,4|0,1:0|0:0,0:0:0:0:
494,225,92285,1,8,0:3:0:0:
163,46,92421,6,0,L|340:26,1,178.199994561768,0|0,1:0|0:0,0:0:0:0:
50,275,92694,6,0,P|12:189|51:111,1,178.199994561768,0|2,1:0|0:0,0:0:0:0:
463,109,92966,6,0,P|500:194|307:229,1,356.399989123535,4|2,1:0|0:0,0:0:0:0:
399,187,93376,1,0,0:0:0:0:
399,187,93512,1,0,0:0:0:0:
433,23,93648,6,0,P|362:2|276:40,1,148.500005664826,2|2,0:1|0:0,0:0:0:0:
230,177,93853,1,2,0:0:0:0:
230,177,93921,6,0,P|159:198|58:100,1,222.750008497238,2|0,0:1|0:0,0:0:0:0:
99,19,94194,5,4,1:0:0:0:
23,352,94330,1,0,1:0:0:0:
195,38,94466,5,4,1:0:0:0:
177,379,94602,1,0,1:0:0:0:
292,40,94739,5,4,1:0:0:0:
334,378,94875,1,0,1:0:0:0:
387,25,95012,5,4,1:0:0:0:
487,350,95148,1,0,1:0:0:0:
128,187,95285,5,4,1:0:0:0:
495,139,95421,1,0,1:0:0:0:
94,184,95557,5,4,1:0:0:0:
422,246,95694,1,0,1:0:0:0:
422,246,95762,1,0,1:0:0:0:
422,246,95830,5,4,1:0:0:0:
35,264,95966,1,0,1:0:0:0:
347,103,96103,5,4,1:0:0:0:
1,267,96239,1,0,1:0:0:0:
345,358,96376,6,0,P|271:341|202:359,1,148.500005664826,4|0,1:0|0:0,0:0:0:0:
142,303,96580,2,0,P|159:229|141:160,1,148.500005664826,0|0,1:0|0:0,0:0:0:0:
25,101,96785,2,0,P|57:85|97:82,1,74.2500028324128,4|0,1:0|0:0,0:0:0:0:
167,26,96921,6,0,P|241:43|310:25,1,148.500005664826,4|0,1:0|0:0,0:0:0:0:
370,81,97125,2,0,P|353:155|371:224,1,148.500005664826,0|0,1:0|0:0,0:0:0:0:
487,283,97330,2,0,P|455:299|415:302,1,74.2500028324128,4|0,1:0|0:0,0:0:0:0:
345,358,97466,5,4,1:0:0:0:
35,264,97603,1,0,1:0:0:0:
223,89,97739,5,4,1:0:0:0:
234,374,97876,1,0,1:0:0:0:
26,165,98012,5,4,1:0:0:0:
319,206,98148,1,4,0:3:0:0:
341,210,98216,1,4,0:3:0:0:
363,214,98285,6,0,P|425:156|370:38,1,222.750008497238,12|0,0:0|0:0,0:0:0:0:
280,22,98557,5,4,1:0:0:0:
20,193,98694,1,0,1:0:0:0:
340,125,98830,5,4,1:0:0:0:
80,296,98967,1,0,1:0:0:0:
441,191,99103,5,4,1:0:0:0:
86,327,99239,1,0,1:0:0:0:
501,294,99376,5,4,1:0:0:0:
190,349,99512,1,0,1:0:0:0:
313,35,99648,5,4,1:0:0:0:
152,233,99785,1,0,1:0:0:0:
360,151,99921,5,4,1:0:0:0:
43,74,100057,1,0,1:0:0:0:
43,74,100126,1,0,1:0:0:0:
43,74,100194,5,4,1:0:0:0:
360,151,100330,1,0,1:0:0:0:
181,11,100466,2,0,L|152:232,1,222.750008497238,8|0,0:3|0:0,0:0:0:0:
218,319,100739,6,0,B|303:345|303:345|392:316,1,178.199994561768,4|0,1:0|0:0,0:0:0:0:
468,40,101012,1,8,0:3:0:0:
49,368,101148,6,0,L|78:156,1,178.199994561768,0|0,1:0|0:0,0:0:0:0:
445,125,101421,6,0,B|360:152|360:152|275:126,1,178.199994561768,0|2,1:0|0:0,0:0:0:0:
43,112,101694,6,0,P|131:93|67:189,1,267.299991842652,4|0,1:0|0:0,0:0:0:0:
73,191,101966,1,0,1:0:0:0:
125,323,102103,1,2,0:0:0:0:
256,378,102239,1,2,0:0:0:0:
387,324,102376,1,2,0:0:0:0:
442,192,102512,1,2,0:0:0:0:
388,60,102648,1,2,0:0:0:0:
256,4,102785,1,2,0:0:0:0:
256,4,102921,6,0,B|215:187|215:187|256:163|266:108,1,277.199991540528,0|0,1:0|0:0,0:0:0:0:
115,173,103330,2,0,P|138:254|302:224,1,277.199991540528,0|0,1:0|0:0,0:0:0:0:
66,100,103739,2,0,B|85:197|85:197|57:314,1,207.899993655396,0|0,1:0|0:0,0:0:0:0:
5,363,104012,5,8,0:3:0:0:
256,294,104148,1,8,0:3:0:0:
507,363,104285,1,0,1:0:0:0:
241,216,104421,1,0,0:0:0:0:
507,363,104557,5,8,0:1:0:0:
359,375,104694,2,0,P|356:329|362:291,1,84.1500016050339,2|0,0:0|0:0,0:0:0:0:
490,84,104830,2,0,P|493:130|487:168,1,84.1500016050339,2|0,0:0|0:0,0:0:0:0:
327,373,104966,2,0,P|324:327|330:289,1,84.1500016050339,2|0,0:0|0:0,0:0:0:0:
361,137,105103,6,0,B|397:171|412:221|412:221|482:280|482:280|506:362,1,277.199991540528,0|0,1:0|0:0,0:0:0:0:
143,318,105512,2,0,B|92:205|92:205|157:140|242:183,1,277.199991540528,0|0,1:0|0:0,0:0:0:0:
327,373,105921,2,0,B|304:276|304:276|347:206|347:206|326:112,1,277.199991540528,0|0,1:0|0:0,0:0:0:0:
103,31,106330,2,0,P|212:134|346:96,1,277.199991540528,0|0,1:0|0:0,0:0:0:0:
73,59,106739,6,0,B|41:185|41:185|73:261,1,207.899993655396,0|0,1:0|0:0,0:0:0:0:
124,371,107012,2,0,B|156:245|156:245|124:169,1,207.899993655396,0|0,1:0|0:0,0:0:0:0:
71,256,107285,6,0,B|167:249|167:249|207:265|207:265|244:243|244:243|340:237,1,277.199991540528,0|0,1:0|0:0,0:0:0:0:
508,38,107694,2,0,B|411:31|411:31|371:47|371:47|334:25|334:25|238:19,1,277.199991540528,0|0,1:0|0:0,0:0:0:0:
383,358,108103,2,0,B|354:161|354:161|335:253,1,277.199991540528,0|0,1:0|0:0,0:0:0:0:
338,237,108512,5,0,1:0:0:0:
215,350,108648,2,0,P|162:362|96:330,1,108.900003323364,0|2,1:0|0:0,0:0:0:0:
27,202,108921,1,8,0:1:0:0:
249,263,109057,1,0,0:0:0:0:
128,77,109194,1,0,1:0:0:0:
133,114,109262,1,0,1:0:0:0:
138,151,109330,1,2,0:0:0:0:
512,165,109466,6,0,L|285:125,1,217.800006646729,0|0,1:0|0:0,0:0:0:0:
322,331,109876,2,0,L|208:351,1,108.900003323364,0|0,1:0|0:0,0:0:0:0:
203,49,110148,2,0,L|89:29,1,108.900003323364,0|0,1:0|0:0,0:0:0:0:
7,318,110421,1,0,1:0:0:0:
353,250,110557,6,0,B|318:235|318:235|283:247|283:247|235:245,1,118.8,2|0,1:2|0:0,0:0:0:0:
206,267,110830,2,0,P|223:226|209:149,1,118.8,2|0,0:0|0:0,0:0:0:0:
175,136,111103,2,0,L|259:128,1,79.2,2|0,0:0|0:0,0:0:0:0:
