osu file format v12

[General]
AudioFilename: Crack Traxxxx.mp3
AudioLeadIn: 0
PreviewTime: 63762
Countdown: 0
SampleSet: Normal
StackLeniency: 0.7
Mode: 3
LetterboxInBreaks: 0
SpecialStyle: 0
WidescreenStoryboard: 1

[Editor]
DistanceSpacing: 0.9
BeatDivisor: 4
GridSize: 8

[Metadata]
Title:Crack traxxxx
TitleUnicode:Crack traxxxx
Artist:Lite Show Magic
ArtistUnicode:Lite Show Magic
Creator:LeiN-
Version:4K ADV
Source:SOUND VOLTEX II -infinite infection-
Tags:SDVX t+pazolite C-Show
BeatmapID:315291
BeatmapSetID:123456

[Difficulty]
HPDrainRate:8
CircleSize:4
OverallDifficulty:7
ApproachRate:5
SliderMultiplier:1.4
SliderTickRate:1

[Events]
//Background and Video events
0,0,"bg.jpg",0,0
//Break Periods
//Storyboard Layer 0 (Background)
//Storyboard Layer 1 (Fail)
//Storyboard Layer 2 (Pass)
//Storyboard Layer 3 (Foreground)
//Storyboard Sound Samples
//Background Colour Transformations
3,100,163,162,255

[TimingPoints]
2655,272.727272727273,4,1,1,30,1,0
58291,-111.111111111111,4,1,1,30,0,0
58564,-125,4,1,1,30,0,0
58836,-142.857142857143,4,1,1,30,0,0
59109,-166.666666666667,4,1,1,30,0,0
59382,-100,4,1,1,30,0,0
63745,-100,4,1,1,30,0,1
81200,-100,4,1,1,30,0,0
84473,-111.111111111111,4,1,1,30,0,0
84745,-125,4,1,1,30,0,0
85018,-142.857142857143,4,1,1,30,0,0
85291,-166.666666666667,4,1,1,30,0,0
85564,-100,4,1,1,30,0,0
89927,-100,4,1,1,30,0,1
107382,-100,4,1,1,30,0,0
115768,-100,4,1,1,40,0,0

[HitObjects]
448,192,2655,128,0,7018:0:0:0:0:
64,192,2655,128,0,4836:0:0:0:0:
320,192,4836,1,0,0:0:0:0:
192,192,5791,1,0,0:0:0:0:
192,192,7018,1,8,0:0:0:0:
64,192,7018,128,8,7427:0:0:0:0:
448,192,7427,128,8,11109:0:0:0:0:
320,192,7427,1,8,0:0:0:0:
192,192,7836,128,0,8109:0:0:0:0:
320,192,10291,128,0,10768:0:0:0:0:
64,192,11109,1,8,0:0:0:0:
192,192,11382,1,8,0:0:0:0:
448,192,11382,1,8,0:0:0:0:
64,192,11655,1,0,0:0:0:0:
320,192,11791,1,8,0:0:0:0:
448,192,11791,1,8,0:0:0:0:
192,192,11927,1,0,0:0:0:0:
448,192,12200,1,0,0:0:0:0:
64,192,12336,1,0,0:0:0:0:
448,192,12473,128,8,12745:0:0:0:0:
320,192,12745,128,8,13018:0:0:0:0:
192,192,13018,128,8,13291:0:0:0:0:
64,192,13291,128,8,13564:0:0:0:0:
448,192,13564,1,8,0:0:0:0:
64,192,13836,1,0,0:0:0:0:
320,192,13973,1,0,0:0:0:0:
448,192,13973,1,0,0:0:0:0:
192,192,14109,1,0,0:0:0:0:
448,192,14245,1,0,0:0:0:0:
320,192,14382,1,0,0:0:0:0:
192,192,14518,1,0,0:0:0:0:
64,192,14655,128,8,14927:0:0:0:0:
192,192,14927,128,8,15200:0:0:0:0:
320,192,15200,128,8,15473:0:0:0:0:
448,192,15473,128,8,15745:0:0:0:0:
64,192,15745,1,8,0:0:0:0:
192,192,15882,1,0,0:0:0:0:
320,192,15882,1,0,0:0:0:0:
64,192,16018,1,0,0:0:0:0:
320,192,16155,1,0,0:0:0:0:
448,192,16155,1,0,0:0:0:0:
192,192,16291,1,0,0:0:0:0:
64,192,16291,1,0,0:0:0:0:
448,192,16427,1,0,0:0:0:0:
192,192,16564,1,0,0:0:0:0:
320,192,16564,1,0,0:0:0:0:
448,192,16700,1,0,0:0:0:0:
64,192,16836,128,0,17382:0:0:0:0:
448,192,17382,1,0,0:0:0:0:
320,192,17518,1,0,0:0:0:0:
192,192,17518,1,0,0:0:0:0:
448,192,17655,1,0,0:0:0:0:
192,192,17791,1,0,0:0:0:0:
64,192,17791,1,0,0:0:0:0:
448,192,17927,1,8,0:0:0:0:
64,192,18064,1,0,0:0:0:0:
192,192,18200,1,0,0:0:0:0:
448,192,18336,1,8,0:0:0:0:
320,192,18336,1,8,0:0:0:0:
64,192,18473,1,0,0:0:0:0:
320,192,18609,1,0,0:0:0:0:
64,192,18745,1,8,0:0:0:0:
192,192,18745,1,8,0:0:0:0:
448,192,18882,1,0,0:0:0:0:
320,192,19018,1,0,2:0:0:0:
320,192,19291,128,8,19564:2:0:0:0:
192,192,19564,1,0,2:0:0:0:
64,192,19836,1,8,0:0:0:0:
448,192,19836,1,8,0:0:0:0:
192,192,20109,1,0,0:0:0:0:
64,192,20109,1,0,0:0:0:0:
448,192,20245,1,0,0:0:0:0:
320,192,20382,1,0,0:0:0:0:
448,192,20518,1,0,0:0:0:0:
64,192,20655,1,0,0:0:0:0:
192,192,20655,1,0,0:0:0:0:
448,192,20791,1,0,0:0:0:0:
320,192,20927,1,0,0:0:0:0:
64,192,21064,1,0,0:0:0:0:
192,192,21200,1,0,0:0:0:0:
448,192,21200,1,0,0:0:0:0:
320,192,21336,1,0,0:0:0:0:
64,192,21473,1,0,0:0:0:0:
192,192,21609,1,0,0:0:0:0:
320,192,21745,1,0,0:0:0:0:
448,192,21745,1,0,0:0:0:0:
64,192,21882,1,0,0:0:0:0:
320,192,22018,1,0,0:0:0:0:
192,192,22155,1,0,0:0:0:0:
64,192,22291,1,0,0:0:0:0:
448,192,22291,1,0,0:0:0:0:
192,192,22427,1,0,0:0:0:0:
320,192,22564,1,0,0:0:0:0:
192,192,22700,1,0,0:0:0:0:
448,192,22836,1,0,0:0:0:0:
64,192,22836,1,0,0:0:0:0:
320,192,22973,1,0,0:0:0:0:
192,192,23109,1,0,0:0:0:0:
64,192,23245,1,0,0:0:0:0:
320,192,23382,1,0,0:0:0:0:
448,192,23382,1,0,0:0:0:0:
192,192,23518,1,0,0:0:0:0:
64,192,23655,1,0,0:0:0:0:
192,192,23791,1,0,0:0:0:0:
448,192,23927,128,0,24200:0:0:0:0:
64,192,24200,1,8,0:0:0:0:
320,192,24473,1,8,0:0:0:0:
64,192,24473,1,8,0:0:0:0:
192,192,24745,1,0,0:0:0:0:
448,192,24745,1,0,0:0:0:0:
192,192,25018,1,0,0:0:0:0:
320,192,25018,1,0,0:0:0:0:
64,192,25155,1,0,0:0:0:0:
320,192,25291,1,0,0:0:0:0:
448,192,25291,1,0,0:0:0:0:
64,192,25427,1,0,0:0:0:0:
192,192,25564,1,0,0:0:0:0:
320,192,25564,1,0,0:0:0:0:
448,192,25700,1,0,0:0:0:0:
192,192,25836,1,0,0:0:0:0:
64,192,25836,1,0,0:0:0:0:
448,192,25973,1,0,0:0:0:0:
192,192,26109,1,0,0:0:0:0:
320,192,26109,1,0,0:0:0:0:
64,192,26245,1,0,0:0:0:0:
192,192,26382,1,0,0:0:0:0:
448,192,26382,1,0,0:0:0:0:
320,192,26518,1,0,0:0:0:0:
448,192,26655,128,0,26927:0:0:0:0:
320,192,26927,1,0,0:0:0:0:
192,192,27200,128,0,27473:0:0:0:0:
448,192,27473,128,0,27745:0:0:0:0:
64,192,27473,128,0,27745:0:0:0:0:
320,192,27745,128,8,28018:0:0:0:0:
192,192,27745,128,8,28018:0:0:0:0:
64,192,28018,1,8,0:0:0:0:
448,192,28018,1,8,0:0:0:0:
448,192,28291,128,0,28564:0:0:0:0:
64,192,28564,128,0,28836:0:0:0:0:
448,192,28836,1,8,0:0:0:0:
320,192,29109,1,0,0:0:0:0:
64,192,29109,1,0,0:0:0:0:
320,192,29245,1,0,0:0:0:0:
192,192,29382,1,0,0:0:0:0:
448,192,29382,1,0,0:0:0:0:
64,192,29518,1,0,0:0:0:0:
448,192,29655,1,0,0:0:0:0:
320,192,29655,1,0,0:0:0:0:
192,192,29791,1,0,0:0:0:0:
320,192,29927,1,0,0:0:0:0:
64,192,29927,1,0,0:0:0:0:
448,192,30064,1,0,0:0:0:0:
320,192,30200,1,0,0:0:0:0:
192,192,30200,1,0,0:0:0:0:
448,192,30336,1,0,0:0:0:0:
192,192,30473,1,0,0:0:0:0:
64,192,30473,1,0,0:0:0:0:
320,192,30745,128,0,31018:0:0:0:0:
64,192,31018,1,0,0:0:0:0:
320,192,31291,1,0,0:0:0:0:
448,192,31291,1,0,0:0:0:0:
320,192,31427,1,0,0:0:0:0:
192,192,31564,1,0,0:0:0:0:
448,192,31564,1,0,0:0:0:0:
64,192,31700,1,0,0:0:0:0:
320,192,31836,1,0,0:0:0:0:
192,192,31836,1,0,0:0:0:0:
448,192,31973,1,0,0:0:0:0:
320,192,32109,1,0,0:0:0:0:
64,192,32109,1,0,0:0:0:0:
192,192,32245,1,0,0:0:0:0:
320,192,32382,1,0,0:0:0:0:
448,192,32382,1,0,0:0:0:0:
192,192,32518,1,0,0:0:0:0:
64,192,32655,1,0,0:0:0:0:
320,192,32655,1,0,0:0:0:0:
448,192,32791,1,0,0:0:0:0:
320,192,32927,128,0,33200:0:0:0:0:
64,192,33200,1,0,0:0:0:0:
192,192,33473,1,0,0:0:0:0:
320,192,33473,1,0,0:0:0:0:
192,192,33609,1,0,0:0:0:0:
448,192,33745,1,0,0:0:0:0:
64,192,33745,1,0,0:0:0:0:
320,192,33882,1,0,0:0:0:0:
192,192,34018,128,0,34291:0:0:0:0:
64,192,34018,1,0,0:0:0:0:
320,192,34291,1,0,0:0:0:0:
448,192,34564,1,0,0:0:0:0:
192,192,34564,1,0,0:0:0:0:
320,192,34836,1,0,0:0:0:0:
64,192,34836,1,0,0:0:0:0:
320,192,35109,128,0,35382:0:0:0:0:
448,192,35109,1,0,0:0:0:0:
64,192,35382,128,0,35927:0:0:0:0:
192,192,35927,128,0,36473:0:0:0:0:
320,192,36473,128,8,36745:0:0:0:0:
448,192,36473,128,8,36745:0:0:0:0:
192,192,36745,128,8,37018:0:0:0:0:
64,192,36745,128,8,37018:0:0:0:0:
320,192,37018,128,8,37291:0:0:0:0:
448,192,37018,128,8,37291:0:0:0:0:
192,192,37291,128,8,37564:0:0:0:0:
64,192,37291,128,8,37564:0:0:0:0:
448,192,37564,128,0,37836:0:0:0:0:
320,192,37836,1,0,0:0:0:0:
192,192,38109,1,8,0:0:0:0:
64,192,38109,1,8,0:0:0:0:
448,192,38382,1,0,0:0:0:0:
64,192,38655,128,0,39745:0:0:0:0:
448,192,38655,1,0,0:0:0:0:
192,192,38791,1,0,0:0:0:0:
448,192,38927,1,0,0:0:0:0:
320,192,39064,1,0,0:0:0:0:
192,192,39200,1,0,0:0:0:0:
448,192,39336,1,0,0:0:0:0:
192,192,39473,1,0,0:0:0:0:
320,192,39609,1,0,0:0:0:0:
448,192,39745,128,0,40018:0:0:0:0:
320,192,40018,1,0,0:0:0:0:
192,192,40155,1,0,0:0:0:0:
320,192,40291,128,0,40564:0:0:0:0:
448,192,40564,128,0,40836:0:0:0:0:
320,192,40836,128,0,41109:0:0:0:0:
448,192,41109,128,0,41382:0:0:0:0:
64,192,41382,1,0,0:0:0:0:
192,192,41518,1,0,0:0:0:0:
320,192,41655,1,0,0:0:0:0:
448,192,41927,128,0,42200:0:0:0:0:
320,192,42200,1,0,0:0:0:0:
64,192,42473,1,8,0:0:0:0:
192,192,42473,1,8,0:0:0:0:
320,192,42746,1,0,0:0:0:0:
448,192,43018,128,0,44109:0:0:0:0:
64,192,43018,1,0,0:0:0:0:
320,192,43155,1,0,0:0:0:0:
64,192,43291,1,0,0:0:0:0:
192,192,43427,1,0,0:0:0:0:
320,192,43564,1,0,0:0:0:0:
64,192,43700,1,0,0:0:0:0:
320,192,43836,1,0,0:0:0:0:
192,192,43973,1,0,0:0:0:0:
64,192,44109,128,0,45200:0:0:0:0:
320,192,45200,1,8,0:0:0:0:
448,192,45200,128,8,45473:0:0:0:0:
64,192,45473,128,8,45745:0:0:0:0:
192,192,45473,1,8,0:0:0:0:
320,192,45745,128,8,46018:0:0:0:0:
448,192,45745,1,8,0:0:0:0:
64,192,46018,1,8,0:0:0:0:
192,192,46018,128,8,46291:0:0:0:0:
448,192,46291,128,0,46564:0:0:0:0:
320,192,46564,1,0,0:0:0:0:
192,192,46836,1,8,0:0:0:0:
64,192,46836,1,8,0:0:0:0:
320,192,47109,1,0,0:0:0:0:
448,192,47382,1,0,0:0:0:0:
64,192,47382,128,0,48473:0:0:0:0:
192,192,47518,1,0,0:0:0:0:
448,192,47655,1,0,0:0:0:0:
320,192,47791,1,0,0:0:0:0:
192,192,47927,1,0,0:0:0:0:
448,192,48064,1,0,0:0:0:0:
192,192,48200,1,0,0:0:0:0:
320,192,48336,1,0,0:0:0:0:
448,192,48473,128,0,48745:0:0:0:0:
192,192,48745,1,0,0:0:0:0:
320,192,48882,1,0,0:0:0:0:
192,192,49018,128,0,49291:0:0:0:0:
64,192,49291,128,0,49564:0:0:0:0:
192,192,49564,128,0,49836:0:0:0:0:
64,192,49836,128,0,50109:0:0:0:0:
448,192,50109,1,0,0:0:0:0:
320,192,50245,1,0,0:0:0:0:
192,192,50382,1,0,0:0:0:0:
64,192,50382,1,0,0:0:0:0:
448,192,50655,128,0,50928:0:0:0:0:
320,192,50928,1,0,0:0:0:0:
192,192,51200,1,8,0:0:0:0:
64,192,51200,1,8,0:0:0:0:
448,192,51473,1,0,0:0:0:0:
448,192,51745,128,0,52018:0:0:0:0:
320,192,52018,1,0,0:0:0:0:
192,192,52291,1,8,0:0:0:0:
64,192,52291,1,8,0:0:0:0:
448,192,52564,1,0,0:0:0:0:
320,192,52836,1,0,0:0:0:0:
320,192,53245,1,0,0:0:0:0:
320,192,53518,1,0,0:0:0:0:
320,192,53791,1,0,0:0:0:0:
64,192,53927,1,0,0:0:0:0:
320,192,54064,1,0,0:0:0:0:
192,192,54200,1,0,0:0:0:0:
64,192,54336,1,0,0:0:0:0:
192,192,54473,1,0,0:0:0:0:
320,192,54609,1,0,0:0:0:0:
448,192,54745,1,0,0:0:0:0:
192,192,54882,1,0,0:0:0:0:
320,192,55018,1,8,0:0:0:0:
448,192,55018,1,8,0:0:0:0:
192,192,55291,1,0,0:0:0:0:
64,192,55564,1,0,0:0:0:0:
192,192,55836,1,0,0:0:0:0:
320,192,55973,1,0,0:0:0:0:
448,192,56109,1,0,0:0:0:0:
320,192,56382,1,0,0:0:0:0:
192,192,56655,1,0,0:0:0:0:
448,192,56927,1,0,0:0:0:0:
64,192,57200,1,0,0:0:0:0:
448,192,57609,1,0,0:0:0:0:
192,192,57882,1,0,0:0:0:0:
64,192,58155,1,0,0:0:0:0:
192,192,58291,1,2,2:0:0:0:
192,192,58564,1,2,2:0:0:0:
192,192,58836,1,2,2:0:0:0:
192,192,59109,1,2,2:0:0:0:
64,192,59382,1,8,0:0:0:0:
448,192,59382,1,8,0:0:0:0:
320,192,59655,1,0,0:0:0:0:
192,192,59927,1,0,0:0:0:0:
64,192,60200,1,0,0:0:0:0:
192,192,60336,1,0,0:0:0:0:
320,192,60473,1,0,0:0:0:0:
448,192,60745,1,0,0:0:0:0:
320,192,61018,1,0,0:0:0:0:
448,192,61291,1,0,0:0:0:0:
64,192,61564,1,8,0:0:0:0:
448,192,61564,1,8,0:0:0:0:
192,192,61973,1,0,0:0:0:0:
320,192,62245,1,0,0:0:0:0:
448,192,62518,1,0,0:0:0:0:
320,192,62655,128,0,63473:0:0:0:0:
64,192,63473,1,8,0:0:0:0:
192,192,63745,1,8,0:0:0:0:
320,192,63745,1,8,0:0:0:0:
448,192,63882,1,0,0:0:0:0:
320,192,64018,1,0,0:0:0:0:
64,192,64018,1,0,0:0:0:0:
192,192,64155,1,0,0:0:0:0:
448,192,64291,1,0,0:0:0:0:
64,192,64291,1,0,0:0:0:0:
192,192,64564,1,0,0:0:0:0:
320,192,64700,1,0,0:0:0:0:
448,192,64700,1,0,0:0:0:0:
64,192,64973,1,0,0:0:0:0:
320,192,65109,1,0,0:0:0:0:
192,192,65245,1,0,0:0:0:0:
448,192,65245,1,0,0:0:0:0:
64,192,65382,1,0,0:0:0:0:
448,192,65518,1,0,0:0:0:0:
192,192,65655,1,0,0:0:0:0:
320,192,65655,1,0,0:0:0:0:
64,192,65791,1,0,0:0:0:0:
448,192,65927,1,0,0:0:0:0:
64,192,66064,1,0,0:0:0:0:
320,192,66064,1,0,0:0:0:0:
64,192,66336,1,0,0:0:0:0:
192,192,66336,1,0,0:0:0:0:
64,192,66609,1,0,0:0:0:0:
448,192,66609,1,0,0:0:0:0:
320,192,66745,1,0,0:0:0:0:
192,192,66882,1,0,0:0:0:0:
64,192,67018,1,0,0:0:0:0:
448,192,67018,1,0,0:0:0:0:
192,192,67291,1,0,0:0:0:0:
320,192,67291,1,0,0:0:0:0:
64,192,67564,128,0,67836:0:0:0:0:
320,192,67836,1,0,0:0:0:0:
448,192,67836,1,0,0:0:0:0:
320,192,68109,1,0,0:0:0:0:
64,192,68109,1,0,0:0:0:0:
64,192,68382,1,0,0:0:0:0:
448,192,68382,1,0,0:0:0:0:
320,192,68518,1,0,0:0:0:0:
192,192,68655,1,0,0:0:0:0:
64,192,68655,1,0,0:0:0:0:
320,192,68791,1,0,0:0:0:0:
448,192,68927,1,0,0:0:0:0:
192,192,69064,1,0,0:0:0:0:
320,192,69064,1,0,0:0:0:0:
192,192,69336,1,0,0:0:0:0:
448,192,69336,1,0,0:0:0:0:
64,192,69609,1,0,0:0:0:0:
320,192,69745,1,0,0:0:0:0:
448,192,69745,1,0,0:0:0:0:
64,192,69882,1,0,0:0:0:0:
320,192,70018,1,0,0:0:0:0:
192,192,70155,1,0,0:0:0:0:
448,192,70291,128,0,70564:0:0:0:0:
64,192,70564,1,0,0:0:0:0:
192,192,70836,128,0,71109:0:0:0:0:
320,192,71109,1,0,0:0:0:0:
448,192,71382,128,8,71655:0:0:0:0:
64,192,71655,128,8,71927:0:0:0:0:
320,192,71927,128,8,72200:0:0:0:0:
192,192,72200,128,8,72473:0:0:0:0:
320,192,72473,1,8,0:0:0:0:
448,192,72473,1,8,0:0:0:0:
64,192,72609,1,0,0:0:0:0:
192,192,72745,1,0,0:0:0:0:
320,192,72745,1,0,0:0:0:0:
448,192,72882,1,0,0:0:0:0:
192,192,73018,1,0,0:0:0:0:
320,192,73018,1,0,0:0:0:0:
448,192,73155,1,0,0:0:0:0:
192,192,73291,1,0,0:0:0:0:
64,192,73291,1,0,0:0:0:0:
320,192,73427,1,0,0:0:0:0:
448,192,73427,1,0,0:0:0:0:
448,192,73700,1,0,0:0:0:0:
320,192,73836,1,0,0:0:0:0:
64,192,73836,1,0,0:0:0:0:
192,192,73973,1,0,0:0:0:0:
192,192,74245,1,0,0:0:0:0:
64,192,74245,1,0,0:0:0:0:
320,192,74518,1,0,0:0:0:0:
448,192,74518,1,0,0:0:0:0:
192,192,74791,1,0,0:0:0:0:
320,192,74791,1,0,0:0:0:0:
448,192,75064,1,0,0:0:0:0:
64,192,75064,1,0,0:0:0:0:
448,192,75336,1,0,0:0:0:0:
320,192,75473,1,0,0:0:0:0:
192,192,75609,1,0,0:0:0:0:
64,192,75609,1,0,0:0:0:0:
320,192,75745,1,0,0:0:0:0:
448,192,75745,1,0,0:0:0:0:
320,192,76018,1,0,0:0:0:0:
64,192,76018,1,0,0:0:0:0:
448,192,76291,128,0,76836:0:0:0:0:
320,192,76564,128,0,76836:0:0:0:0:
64,192,76836,1,8,0:0:0:0:
192,192,76973,1,0,0:0:0:0:
64,192,77109,1,0,0:0:0:0:
192,192,77245,1,8,0:0:0:0:
448,192,77245,1,8,0:0:0:0:
320,192,77382,1,0,0:0:0:0:
448,192,77518,1,0,0:0:0:0:
64,192,77655,1,8,0:0:0:0:
320,192,77655,1,8,0:0:0:0:
192,192,77791,1,0,0:0:0:0:
320,192,77927,1,0,0:0:0:0:
192,192,78064,1,8,0:0:0:0:
448,192,78064,1,8,0:0:0:0:
320,192,78200,1,0,0:0:0:0:
64,192,78336,1,8,0:0:0:0:
192,192,78336,1,8,0:0:0:0:
320,192,78473,1,8,0:0:0:0:
448,192,78473,128,8,78882:0:0:0:0:
64,192,78882,1,8,0:0:0:0:
64,192,79155,1,8,0:0:0:0:
320,192,79155,1,8,0:0:0:0:
448,192,79291,1,0,0:0:0:0:
64,192,79427,1,8,0:0:0:0:
320,192,79564,1,0,0:0:0:0:
192,192,79700,1,8,0:0:0:0:
448,192,79836,1,0,0:0:0:0:
320,192,79973,1,8,0:0:0:0:
192,192,80109,128,8,80927:0:0:0:0:
64,192,80109,128,8,80927:0:0:0:0:
448,192,80927,1,8,0:0:0:0:
320,192,81200,1,8,0:0:0:0:
448,192,81200,1,8,0:0:0:0:
192,192,81473,1,0,0:0:0:0:
64,192,81745,1,0,0:0:0:0:
192,192,82018,1,0,0:0:0:0:
320,192,82155,1,0,0:0:0:0:
448,192,82291,1,0,0:0:0:0:
320,192,82564,1,0,0:0:0:0:
192,192,82836,1,0,0:0:0:0:
448,192,83109,1,0,0:0:0:0:
64,192,83382,1,0,0:0:0:0:
448,192,83791,1,0,0:0:0:0:
192,192,84064,1,0,0:0:0:0:
64,192,84336,1,0,0:0:0:0:
192,192,84473,1,2,2:0:0:0:
192,192,84745,1,2,2:0:0:0:
192,192,85018,1,2,2:0:0:0:
192,192,85291,1,2,2:0:0:0:
64,192,85564,1,0,0:0:0:0:
448,192,85564,1,0,0:0:0:0:
320,192,85836,1,0,0:0:0:0:
192,192,86109,1,0,0:0:0:0:
64,192,86382,1,0,0:0:0:0:
192,192,86518,1,0,0:0:0:0:
448,192,86655,1,8,0:0:0:0:
320,192,86655,1,8,0:0:0:0:
192,192,86927,128,0,87745:0:0:0:0:
448,192,87745,1,8,0:0:0:0:
448,192,87882,1,8,0:0:0:0:
320,192,88018,128,8,88291:0:0:0:0:
192,192,88291,1,8,0:0:0:0:
192,192,88427,1,8,0:0:0:0:
64,192,88564,128,8,88836:0:0:0:0:
448,192,88836,128,8,89109:0:0:0:0:
320,192,89109,128,8,89655:0:0:0:0:
192,192,89382,128,8,89655:0:0:0:0:
64,192,89655,128,8,89927:0:0:0:0:
448,192,89927,1,8,0:0:0:0:
320,192,90064,1,0,0:0:0:0:
64,192,90200,1,0,0:0:0:0:
320,192,90336,1,0,0:0:0:0:
192,192,90473,1,0,0:0:0:0:
448,192,90473,1,0,0:0:0:0:
64,192,90609,1,0,0:0:0:0:
320,192,90745,1,0,0:0:0:0:
192,192,90882,1,0,0:0:0:0:
320,192,91018,1,0,0:0:0:0:
448,192,91018,1,0,0:0:0:0:
64,192,91155,1,0,0:0:0:0:
192,192,91291,1,0,0:0:0:0:
320,192,91427,1,0,0:0:0:0:
64,192,91564,1,8,0:0:0:0:
448,192,91564,1,8,0:0:0:0:
192,192,91836,1,8,0:0:0:0:
320,192,91836,1,8,0:0:0:0:
448,192,92109,128,8,93200:0:0:0:0:
64,192,92109,128,8,93200:0:0:0:0:
320,192,93473,128,0,94018:0:0:0:0:
64,192,94018,1,0,0:0:0:0:
192,192,94291,1,0,0:0:0:0:
64,192,94291,1,0,0:0:0:0:
320,192,94427,1,0,0:0:0:0:
192,192,94564,1,0,0:0:0:0:
320,192,94700,1,0,0:0:0:0:
448,192,94700,1,0,0:0:0:0:
192,192,94836,1,0,0:0:0:0:
64,192,94836,1,0,0:0:0:0:
320,192,94973,1,0,0:0:0:0:
448,192,94973,1,0,0:0:0:0:
64,192,95109,1,0,0:0:0:0:
192,192,95245,1,0,0:0:0:0:
448,192,95382,1,0,0:0:0:0:
320,192,95518,1,0,0:0:0:0:
64,192,95655,1,0,0:0:0:0:
448,192,95655,1,0,0:0:0:0:
192,192,95791,1,0,0:0:0:0:
320,192,95927,1,8,0:0:0:0:
448,192,95927,1,8,0:0:0:0:
192,192,96200,1,8,0:0:0:0:
64,192,96200,1,8,0:0:0:0:
64,192,96473,1,0,0:0:0:0:
448,192,96473,1,0,0:0:0:0:
192,192,96609,1,0,0:0:0:0:
320,192,96609,1,0,0:0:0:0:
448,192,96745,128,0,97564:0:0:0:0:
64,192,96745,128,0,97564:0:0:0:0:
192,192,97564,128,8,97836:0:0:0:0:
320,192,97564,128,8,97836:0:0:0:0:
64,192,97836,128,8,98109:0:0:0:0:
448,192,97836,128,8,98109:0:0:0:0:
320,192,98109,128,8,98382:0:0:0:0:
192,192,98109,128,8,98382:0:0:0:0:
448,192,98382,1,8,0:0:0:0:
64,192,98382,1,8,0:0:0:0:
64,192,98655,128,0,98791:0:0:0:0:
192,192,98791,1,0,0:0:0:0:
320,192,98927,128,0,99064:0:0:0:0:
64,192,99064,1,0,0:0:0:0:
192,192,99200,128,0,99336:0:0:0:0:
320,192,99336,1,0,0:0:0:0:
448,192,99473,128,0,99609:0:0:0:0:
192,192,99609,1,0,0:0:0:0:
64,192,99745,128,0,99882:0:0:0:0:
448,192,99882,1,0,0:0:0:0:
320,192,100018,128,0,100155:0:0:0:0:
448,192,100155,1,0,0:0:0:0:
192,192,100291,1,8,0:0:0:0:
64,192,100291,1,8,0:0:0:0:
320,192,100564,1,8,0:0:0:0:
448,192,100564,1,8,0:0:0:0:
64,192,100836,128,0,102745:0:0:0:0:
448,192,100836,128,0,102745:0:0:0:0:
192,192,101927,128,0,103018:0:0:0:0:
320,192,101927,128,0,103018:0:0:0:0:
448,192,103018,1,0,0:0:0:0:
192,192,103291,1,0,0:0:0:0:
64,192,103291,1,0,0:0:0:0:
192,192,103427,1,0,0:0:0:0:
448,192,103564,1,0,0:0:0:0:
320,192,103564,128,0,103700:0:0:0:0:
64,192,103700,1,0,0:0:0:0:
448,192,103836,128,0,103973:0:0:0:0:
192,192,103973,1,0,0:0:0:0:
320,192,104109,1,0,0:0:0:0:
64,192,104109,1,0,0:0:0:0:
64,192,104245,1,0,0:0:0:0:
448,192,104382,128,0,104655:0:0:0:0:
192,192,104655,1,0,0:0:0:0:
448,192,104927,128,0,105200:0:0:0:0:
192,192,105200,128,0,105473:0:0:0:0:
64,192,105200,1,0,0:0:0:0:
320,192,105473,128,0,105745:0:0:0:0:
448,192,105473,128,0,105745:0:0:0:0:
64,192,105745,128,0,106018:0:0:0:0:
448,192,106018,128,0,106291:0:0:0:0:
320,192,106291,128,8,106564:0:0:0:0:
192,192,106564,128,8,106836:0:0:0:0:
320,192,106836,128,8,107109:0:0:0:0:
448,192,106836,128,8,107109:0:0:0:0:
192,192,107109,128,8,107382:0:0:0:0:
64,192,107109,128,8,107382:0:0:0:0:
448,192,107382,1,0,0:0:0:0:
64,192,107655,1,0,0:0:0:0:
192,192,107791,1,8,0:0:0:0:
448,192,107791,1,8,0:0:0:0:
320,192,107927,1,0,0:0:0:0:
192,192,108064,1,0,0:0:0:0:
64,192,108200,1,8,0:0:0:0:
448,192,108200,1,8,0:0:0:0:
192,192,108336,1,0,0:0:0:0:
64,192,108473,1,8,0:0:0:0:
448,192,108473,128,8,108745:0:0:0:0:
320,192,108745,128,8,109018:0:0:0:0:
192,192,109018,128,8,109291:0:0:0:0:
64,192,109291,128,8,109564:0:0:0:0:
448,192,109564,1,8,0:0:0:0:
64,192,109836,1,0,0:0:0:0:
320,192,109973,1,8,0:0:0:0:
448,192,109973,1,8,0:0:0:0:
192,192,110109,1,0,0:0:0:0:
64,192,110245,1,0,0:0:0:0:
320,192,110382,1,0,0:0:0:0:
192,192,110518,1,0,0:0:0:0:
64,192,110655,128,8,110927:0:0:0:0:
448,192,110655,1,8,0:0:0:0:
192,192,110927,128,8,111200:0:0:0:0:
320,192,111200,128,8,111473:0:0:0:0:
448,192,111473,128,8,111745:0:0:0:0:
64,192,111745,1,0,0:0:0:0:
192,192,111882,1,0,0:0:0:0:
320,192,111882,1,0,0:0:0:0:
64,192,112018,1,0,0:0:0:0:
320,192,112155,1,0,0:0:0:0:
448,192,112155,1,0,0:0:0:0:
192,192,112291,1,0,0:0:0:0:
64,192,112291,1,0,0:0:0:0:
448,192,112427,1,0,0:0:0:0:
192,192,112564,1,0,0:0:0:0:
320,192,112564,1,0,0:0:0:0:
448,192,112700,1,0,0:0:0:0:
64,192,112836,128,0,113382:0:0:0:0:
448,192,113382,1,0,0:0:0:0:
192,192,113518,1,0,0:0:0:0:
320,192,113518,1,0,0:0:0:0:
448,192,113655,1,0,0:0:0:0:
192,192,113791,1,0,0:0:0:0:
64,192,113791,1,0,0:0:0:0:
448,192,113927,1,0,0:0:0:0:
64,192,114064,1,0,0:0:0:0:
192,192,114200,1,0,0:0:0:0:
320,192,114336,1,0,0:0:0:0:
64,192,114473,1,0,0:0:0:0:
320,192,114609,1,0,0:0:0:0:
192,192,114745,1,0,0:0:0:0:
448,192,114882,1,0,0:0:0:0:
320,192,115018,1,0,2:0:0:0:
320,192,115291,128,8,115564:2:0:0:0:
192,192,115564,128,0,115836:2:0:0:0:
448,192,115836,1,8,0:0:0:0:
64,192,115836,1,8,0:0:0:0:
