osu file format v12

[General]
AudioFilename: Crack Traxxxx.mp3
AudioLeadIn: 0
PreviewTime: 63762
Countdown: 0
SampleSet: None
StackLeniency: 0.7
Mode: 1
LetterboxInBreaks: 0
WidescreenStoryboard: 1

[Editor]
Bookmarks: 52836
DistanceSpacing: 0.9
BeatDivisor: 4
GridSize: 32

[Metadata]
Title:Crack traxxxx
TitleUnicode:Crack traxxxx
Artist:Lite Show Magic
ArtistUnicode:Lite Show Magic
Creator:KinomiCandy
Version:Oni
Source:SOUND VOLTEX II -infinite infection-
Tags:SDVX t+pazolite C-Show
BeatmapID:338140
BeatmapSetID:134900

[Difficulty]
HPDrainRate:5
CircleSize:4
OverallDifficulty:5
ApproachRate:5
SliderMultiplier:1.4
SliderTickRate:1

[Events]
//Background and Video events
0,0,"bg.jpg",0,0
//Break Periods
//Storyboard Layer 0 (Background)
//Storyboard Layer 1 (Fail)
//Storyboard Layer 2 (Pass)
//Storyboard Layer 3 (Foreground)
//Storyboard Sound Samples
//Background Colour Transformations
3,100,163,162,255

[TimingPoints]
2655,272.727272727273,4,1,0,70,1,0
58564,-100,4,1,0,50,0,0
58836,-100,4,1,0,30,0,0
59109,-100,4,1,0,10,0,0
59382,-100,4,1,0,70,0,0
63745,-100,4,1,0,70,0,1
81200,-100,4,1,0,70,0,0
84745,-100,4,1,0,50,0,0
85018,-100,4,1,0,30,0,0
85291,-100,4,1,0,10,0,0
85564,-100,4,1,0,70,0,0
89927,-100,4,1,0,70,0,1
107382,-100,4,1,0,70,0,0

[HitObjects]
256,192,609,12,0,2382,0:0:0:0:
256,192,2655,5,4,0:0:0:0:
256,192,2791,1,8,0:0:0:0:
256,192,2927,1,8,0:0:0:0:
256,192,3064,1,8,0:0:0:0:
256,192,3200,1,8,0:0:0:0:
256,192,3336,1,8,0:0:0:0:
256,192,3472,1,8,0:0:0:0:
256,192,3609,1,8,0:0:0:0:
256,192,3745,1,0,0:0:0:0:
256,192,3882,1,8,0:0:0:0:
256,192,4018,1,8,0:0:0:0:
256,192,4155,1,0,0:0:0:0:
256,192,4291,1,8,0:0:0:0:
256,192,4427,1,8,0:0:0:0:
256,192,4563,1,0,0:0:0:0:
256,192,4700,1,8,0:0:0:0:
256,192,4836,1,0,0:0:0:0:
256,192,4973,1,8,0:0:0:0:
256,192,5109,1,8,0:0:0:0:
256,192,5246,1,8,0:0:0:0:
256,192,5382,1,8,0:0:0:0:
256,192,5518,1,8,0:0:0:0:
256,192,5654,1,8,0:0:0:0:
256,192,5791,1,8,0:0:0:0:
256,192,5927,1,0,0:0:0:0:
256,192,6064,1,8,0:0:0:0:
256,192,6200,1,8,0:0:0:0:
256,192,6337,1,0,0:0:0:0:
256,192,6473,1,8,0:0:0:0:
256,192,6609,1,8,0:0:0:0:
256,192,6745,1,0,0:0:0:0:
256,192,6814,1,0,0:0:0:0:
256,192,6882,1,8,0:0:0:0:
256,192,7018,1,4,0:0:0:0:
256,192,7155,1,8,0:0:0:0:
256,192,7223,1,8,0:0:0:0:
256,192,7291,1,8,0:0:0:0:
256,192,7427,1,4,0:0:0:0:
256,192,7836,1,8,0:0:0:0:
256,192,7905,1,8,0:0:0:0:
256,192,7973,1,8,0:0:0:0:
256,192,8041,1,8,0:0:0:0:
256,192,8109,1,0,0:0:0:0:
256,192,8382,1,8,0:0:0:0:
256,192,8518,1,8,0:0:0:0:
256,192,8655,1,0,0:0:0:0:
256,192,8927,1,8,0:0:0:0:
256,192,9200,1,0,0:0:0:0:
256,192,9336,1,8,0:0:0:0:
256,192,9609,1,0,0:0:0:0:
256,192,9745,1,8,0:0:0:0:
256,192,10018,1,8,0:0:0:0:
256,192,10291,1,8,0:0:0:0:
256,192,10359,1,8,0:0:0:0:
256,192,10427,1,8,0:0:0:0:
256,192,10495,1,8,0:0:0:0:
256,192,10564,1,0,0:0:0:0:
256,192,10632,1,0,0:0:0:0:
256,192,10700,1,8,0:0:0:0:
256,192,10768,1,8,0:0:0:0:
256,192,10836,1,0,0:0:0:0:
256,192,10973,1,0,0:0:0:0:
256,192,11109,1,12,0:0:0:0:
256,192,11382,1,4,0:0:0:0:
256,192,11518,1,8,0:0:0:0:
256,192,11655,1,8,0:0:0:0:
256,192,11791,1,4,0:0:0:0:
256,192,11927,1,8,0:0:0:0:
256,192,12064,1,8,0:0:0:0:
256,192,12200,1,4,0:0:0:0:
256,192,12336,1,8,0:0:0:0:
256,192,12473,1,4,0:0:0:0:
256,192,12609,1,8,0:0:0:0:
256,192,12677,1,8,0:0:0:0:
256,192,12745,1,0,0:0:0:0:
256,192,12882,1,8,0:0:0:0:
256,192,13018,1,8,0:0:0:0:
256,192,13086,1,8,0:0:0:0:
256,192,13155,1,8,0:0:0:0:
256,192,13223,1,8,0:0:0:0:
256,192,13291,1,0,0:0:0:0:
256,192,13564,1,4,0:0:0:0:
256,192,13700,1,8,0:0:0:0:
256,192,13837,1,8,0:0:0:0:
256,192,13973,1,4,0:0:0:0:
256,192,14109,1,8,0:0:0:0:
256,192,14246,1,8,0:0:0:0:
256,192,14382,1,4,0:0:0:0:
256,192,14518,1,8,0:0:0:0:
256,192,14655,1,4,0:0:0:0:
256,192,14791,1,8,0:0:0:0:
256,192,14859,1,8,0:0:0:0:
256,192,14927,1,0,0:0:0:0:
256,192,15064,1,8,0:0:0:0:
256,192,15200,1,0,0:0:0:0:
256,192,15268,1,0,0:0:0:0:
256,192,15336,1,0,0:0:0:0:
256,192,15473,1,8,0:0:0:0:
256,192,15541,1,8,0:0:0:0:
256,192,15609,1,8,0:0:0:0:
256,192,15677,1,8,0:0:0:0:
256,192,15745,1,0,0:0:0:0:
256,192,15882,1,8,0:0:0:0:
256,192,16018,1,8,0:0:0:0:
256,192,16155,1,8,0:0:0:0:
256,192,16291,1,0,0:0:0:0:
256,192,16427,1,8,0:0:0:0:
256,192,16495,1,8,0:0:0:0:
256,192,16564,1,0,0:0:0:0:
256,192,16700,1,8,0:0:0:0:
256,192,16836,1,0,0:0:0:0:
256,192,16905,1,0,0:0:0:0:
256,192,16973,1,8,0:0:0:0:
256,192,17041,1,8,0:0:0:0:
256,192,17109,1,0,0:0:0:0:
256,192,17177,1,0,0:0:0:0:
256,192,17245,1,8,0:0:0:0:
256,192,17314,1,8,0:0:0:0:
256,192,17382,1,0,0:0:0:0:
256,192,17586,1,8,0:0:0:0:
256,192,17655,1,0,0:0:0:0:
256,192,17791,1,8,0:0:0:0:
256,192,17927,1,0,0:0:0:0:
256,192,18064,1,8,0:0:0:0:
256,192,18200,1,8,0:0:0:0:
256,192,18336,1,0,0:0:0:0:
256,192,18473,1,8,0:0:0:0:
256,192,18609,1,8,0:0:0:0:
256,192,18745,1,0,0:0:0:0:
256,192,18882,1,8,0:0:0:0:
256,192,19018,1,0,0:0:0:0:
256,192,19291,1,8,0:0:0:0:
256,192,19564,1,8,0:0:0:0:
256,192,19632,1,8,0:0:0:0:
256,192,19700,1,8,0:0:0:0:
256,192,19768,1,8,0:0:0:0:
256,192,19836,1,0,0:0:0:0:
256,192,20109,1,4,0:0:0:0:
256,192,20245,1,8,0:0:0:0:
256,192,20314,1,8,0:0:0:0:
256,192,20382,1,0,0:0:0:0:
256,192,20518,1,8,0:0:0:0:
256,192,20655,1,0,0:0:0:0:
256,192,20791,1,8,0:0:0:0:
256,192,20927,1,0,0:0:0:0:
256,192,20995,1,0,0:0:0:0:
256,192,21064,1,8,0:0:0:0:
256,192,21132,1,8,0:0:0:0:
256,192,21200,1,0,0:0:0:0:
256,192,21336,1,8,0:0:0:0:
256,192,21473,1,0,0:0:0:0:
256,192,21609,1,8,0:0:0:0:
256,192,21677,1,8,0:0:0:0:
256,192,21745,1,0,0:0:0:0:
256,192,21882,1,8,0:0:0:0:
256,192,22018,1,8,0:0:0:0:
256,192,22086,1,8,0:0:0:0:
256,192,22155,1,8,0:0:0:0:
256,192,22223,1,8,0:0:0:0:
256,192,22291,1,0,0:0:0:0:
256,192,22427,1,8,0:0:0:0:
256,192,22564,1,0,0:0:0:0:
256,192,22632,1,0,0:0:0:0:
256,192,22700,1,8,0:0:0:0:
256,192,22768,1,8,0:0:0:0:
256,192,22836,1,0,0:0:0:0:
256,192,22973,1,8,0:0:0:0:
256,192,23109,1,0,0:0:0:0:
256,192,23245,1,8,0:0:0:0:
256,192,23314,1,8,0:0:0:0:
256,192,23382,1,0,0:0:0:0:
256,192,23518,1,8,0:0:0:0:
256,192,23655,1,0,0:0:0:0:
256,192,23791,1,8,0:0:0:0:
256,192,23927,1,0,0:0:0:0:
256,192,24200,1,4,0:0:0:0:
256,192,24473,1,4,0:0:0:0:
256,192,24609,1,8,0:0:0:0:
256,192,24678,1,8,0:0:0:0:
256,192,24746,1,0,0:0:0:0:
256,192,24882,1,8,0:0:0:0:
256,192,25019,1,0,0:0:0:0:
256,192,25155,1,8,0:0:0:0:
256,192,25291,1,0,0:0:0:0:
256,192,25359,1,0,0:0:0:0:
256,192,25428,1,8,0:0:0:0:
256,192,25496,1,8,0:0:0:0:
256,192,25564,1,0,0:0:0:0:
256,192,25700,1,8,0:0:0:0:
256,192,25837,1,0,0:0:0:0:
256,192,25973,1,8,0:0:0:0:
256,192,26041,1,8,0:0:0:0:
256,192,26109,1,0,0:0:0:0:
256,192,26246,1,8,0:0:0:0:
256,192,26382,1,0,0:0:0:0:
256,192,26518,1,8,0:0:0:0:
256,192,26655,1,0,0:0:0:0:
256,192,26723,1,0,0:0:0:0:
256,192,26791,1,8,0:0:0:0:
256,192,26859,1,8,0:0:0:0:
256,192,26927,1,0,0:0:0:0:
256,192,27064,1,8,0:0:0:0:
256,192,27200,1,0,0:0:0:0:
256,192,27268,1,0,0:0:0:0:
256,192,27336,1,0,0:0:0:0:
256,192,27473,1,8,0:0:0:0:
256,192,27541,1,8,0:0:0:0:
256,192,27609,1,8,0:0:0:0:
256,192,27745,1,4,0:0:0:0:
256,192,28018,1,4,0:0:0:0:
256,192,28291,1,8,0:0:0:0:
256,192,28564,1,12,0:0:0:0:
256,192,28836,1,4,0:0:0:0:
256,192,28973,1,8,0:0:0:0:
256,192,29041,1,8,0:0:0:0:
256,192,29109,1,0,0:0:0:0:
256,192,29245,1,8,0:0:0:0:
256,192,29314,1,8,0:0:0:0:
256,192,29382,1,0,0:0:0:0:
256,192,29518,1,8,0:0:0:0:
256,192,29586,1,8,0:0:0:0:
256,192,29655,1,0,0:0:0:0:
256,192,29791,1,8,0:0:0:0:
256,192,29859,1,8,0:0:0:0:
256,192,29927,1,0,0:0:0:0:
256,192,30064,1,8,0:0:0:0:
256,192,30132,1,8,0:0:0:0:
256,192,30200,1,0,0:0:0:0:
256,192,30336,1,8,0:0:0:0:
256,192,30405,1,8,0:0:0:0:
256,192,30473,1,0,0:0:0:0:
256,192,30609,1,8,0:0:0:0:
256,192,30745,1,0,0:0:0:0:
256,192,30814,1,0,0:0:0:0:
256,192,30882,1,8,0:0:0:0:
256,192,30950,1,8,0:0:0:0:
256,192,31018,1,0,0:0:0:0:
256,192,31155,1,0,0:0:0:0:
256,192,31223,1,0,0:0:0:0:
256,192,31291,1,8,0:0:0:0:
256,192,31427,1,0,0:0:0:0:
256,192,31495,1,0,0:0:0:0:
256,192,31564,1,8,0:0:0:0:
256,192,31700,1,0,0:0:0:0:
256,192,31768,1,0,0:0:0:0:
256,192,31836,1,8,0:0:0:0:
256,192,31972,1,0,0:0:0:0:
256,192,32040,1,0,0:0:0:0:
256,192,32109,1,8,0:0:0:0:
256,192,32245,1,0,0:0:0:0:
256,192,32313,1,0,0:0:0:0:
256,192,32381,1,8,0:0:0:0:
256,192,32517,1,0,0:0:0:0:
256,192,32585,1,0,0:0:0:0:
256,192,32654,1,8,0:0:0:0:
256,192,32791,1,0,0:0:0:0:
256,192,32927,1,8,0:0:0:0:
256,192,32995,1,8,0:0:0:0:
256,192,33064,1,0,0:0:0:0:
256,192,33132,1,0,0:0:0:0:
256,192,33200,1,8,0:0:0:0:
256,192,33336,1,8,0:0:0:0:
256,192,33405,1,8,0:0:0:0:
256,192,33473,1,0,0:0:0:0:
256,192,33609,1,8,0:0:0:0:
256,192,33677,1,8,0:0:0:0:
256,192,33745,1,0,0:0:0:0:
256,192,33882,1,8,0:0:0:0:
256,192,34018,1,0,0:0:0:0:
256,192,34086,1,0,0:0:0:0:
256,192,34155,1,8,0:0:0:0:
256,192,34223,1,8,0:0:0:0:
256,192,34291,1,0,0:0:0:0:
256,192,34427,1,0,0:0:0:0:
256,192,34495,1,0,0:0:0:0:
256,192,34564,1,8,0:0:0:0:
256,192,34700,1,0,0:0:0:0:
256,192,34768,1,0,0:0:0:0:
256,192,34836,1,8,0:0:0:0:
256,192,34973,1,0,0:0:0:0:
256,192,35109,1,8,0:0:0:0:
256,192,35245,1,8,0:0:0:0:
256,192,35382,1,0,0:0:0:0:
256,192,35518,1,8,0:0:0:0:
256,192,35655,1,8,0:0:0:0:
256,192,35791,1,8,0:0:0:0:
256,192,35927,1,8,0:0:0:0:
256,192,36200,1,8,0:0:0:0:
256,192,36268,1,8,0:0:0:0:
256,192,36336,1,8,0:0:0:0:
256,192,36405,1,8,0:0:0:0:
256,192,36473,1,0,0:0:0:0:
256,192,36609,1,0,0:0:0:0:
256,192,36745,1,0,0:0:0:0:
256,192,36882,1,0,0:0:0:0:
256,192,37018,1,8,0:0:0:0:
256,192,37291,1,0,0:0:0:0:
256,192,37564,1,0,0:0:0:0:
256,192,37632,1,0,0:0:0:0:
256,192,37700,1,0,0:0:0:0:
256,192,37768,1,0,0:0:0:0:
256,192,37836,1,0,0:0:0:0:
256,192,38109,1,0,0:0:0:0:
256,192,38382,1,8,0:0:0:0:
256,192,38518,1,8,0:0:0:0:
256,192,38655,1,8,0:0:0:0:
256,192,38927,1,8,0:0:0:0:
256,192,39064,1,8,0:0:0:0:
256,192,39200,1,0,0:0:0:0:
256,192,39336,1,8,0:0:0:0:
256,192,39473,1,8,0:0:0:0:
256,192,39609,1,8,0:0:0:0:
256,192,39745,1,0,0:0:0:0:
256,192,40018,1,0,0:0:0:0:
256,192,40155,1,8,0:0:0:0:
256,192,40223,1,8,0:0:0:0:
256,192,40291,1,0,0:0:0:0:
256,192,40427,1,8,0:0:0:0:
256,192,40564,1,8,0:0:0:0:
256,192,40700,1,8,0:0:0:0:
256,192,40836,1,0,0:0:0:0:
256,192,41109,1,8,0:0:0:0:
256,192,41245,1,8,0:0:0:0:
256,192,41382,1,0,0:0:0:0:
256,192,41518,1,8,0:0:0:0:
256,192,41655,1,8,0:0:0:0:
256,192,41791,1,8,0:0:0:0:
256,192,41927,1,0,0:0:0:0:
256,192,41996,1,0,0:0:0:0:
256,192,42064,1,0,0:0:0:0:
256,192,42132,1,0,0:0:0:0:
256,192,42200,1,0,0:0:0:0:
256,192,42473,1,0,0:0:0:0:
256,192,42609,1,8,0:0:0:0:
256,192,42745,1,8,0:0:0:0:
256,192,42882,1,8,0:0:0:0:
256,192,43018,1,0,0:0:0:0:
256,192,43291,1,0,0:0:0:0:
256,192,43427,1,8,0:0:0:0:
256,192,43495,1,8,0:0:0:0:
256,192,43564,1,0,0:0:0:0:
256,192,43700,1,8,0:0:0:0:
256,192,43836,1,8,0:0:0:0:
256,192,43973,1,8,0:0:0:0:
256,192,44109,1,0,0:0:0:0:
256,192,44245,1,8,0:0:0:0:
256,192,44382,1,8,0:0:0:0:
256,192,44655,1,8,0:0:0:0:
256,192,44791,1,8,0:0:0:0:
256,192,44859,1,8,0:0:0:0:
256,192,44995,1,8,0:0:0:0:
256,192,45064,1,8,0:0:0:0:
256,192,45200,1,4,0:0:0:0:
256,192,45473,1,4,0:0:0:0:
256,192,45745,1,12,0:0:0:0:
256,192,46018,1,12,0:0:0:0:
256,192,46291,1,0,0:0:0:0:
256,192,46358,1,0,0:0:0:0:
256,192,46426,1,0,0:0:0:0:
256,192,46495,1,0,0:0:0:0:
256,192,46563,1,0,0:0:0:0:
256,192,46836,1,0,0:0:0:0:
256,192,47109,1,8,0:0:0:0:
256,192,47245,1,8,0:0:0:0:
256,192,47382,1,0,0:0:0:0:
256,192,47655,1,8,0:0:0:0:
256,192,47927,1,0,0:0:0:0:
256,192,48064,1,8,0:0:0:0:
256,192,48200,1,8,0:0:0:0:
256,192,48336,1,8,0:0:0:0:
256,192,48473,1,0,0:0:0:0:
256,192,48745,1,0,0:0:0:0:
256,192,48882,1,8,0:0:0:0:
256,192,48950,1,8,0:0:0:0:
256,192,49018,1,0,0:0:0:0:
256,192,49155,1,8,0:0:0:0:
256,192,49291,1,8,0:0:0:0:
256,192,49427,1,8,0:0:0:0:
256,192,49564,1,0,0:0:0:0:
256,192,49836,1,8,0:0:0:0:
256,192,49973,1,8,0:0:0:0:
256,192,50109,1,0,0:0:0:0:
256,192,50245,1,8,0:0:0:0:
256,192,50382,1,8,0:0:0:0:
256,192,50518,1,8,0:0:0:0:
256,192,50655,1,0,0:0:0:0:
256,192,50723,1,0,0:0:0:0:
256,192,50791,1,0,0:0:0:0:
256,192,50859,1,0,0:0:0:0:
256,192,50927,1,0,0:0:0:0:
256,192,51200,1,4,0:0:0:0:
256,192,51473,1,0,0:0:0:0:
256,192,51745,1,0,0:0:0:0:
256,192,51814,1,0,0:0:0:0:
256,192,51882,1,0,0:0:0:0:
256,192,51950,1,0,0:0:0:0:
256,192,52018,1,0,0:0:0:0:
256,192,52291,1,8,0:0:0:0:
256,192,52564,1,0,0:0:0:0:
256,192,52632,1,0,0:0:0:0:
256,192,52700,1,0,0:0:0:0:
256,192,52768,1,0,0:0:0:0:
256,192,52836,1,0,0:0:0:0:
256,192,53245,1,4,0:0:0:0:
256,192,53518,1,4,0:0:0:0:
256,192,53791,1,4,0:0:0:0:
256,192,53927,1,4,0:0:0:0:
256,192,54064,1,8,0:0:0:0:
256,192,54200,1,8,0:0:0:0:
256,192,54336,1,0,0:0:0:0:
256,192,54473,1,8,0:0:0:0:
256,192,54609,1,8,0:0:0:0:
256,192,54745,1,0,0:0:0:0:
256,192,54882,1,8,0:0:0:0:
256,192,55018,1,12,0:0:0:0:
256,192,55291,1,8,0:0:0:0:
256,192,55564,1,8,0:0:0:0:
256,192,55836,1,8,0:0:0:0:
256,192,55973,1,8,0:0:0:0:
256,192,56109,1,8,0:0:0:0:
256,192,56382,1,8,0:0:0:0:
256,192,56655,1,8,0:0:0:0:
256,192,56927,1,8,0:0:0:0:
256,192,57200,1,8,0:0:0:0:
256,192,57609,1,8,0:0:0:0:
256,192,57882,1,8,0:0:0:0:
256,192,58155,1,8,0:0:0:0:
256,192,58291,1,8,0:0:0:0:
256,192,58564,1,8,0:0:0:0:
256,192,58836,1,8,0:0:0:0:
256,192,59109,1,8,0:0:0:0:
256,192,59382,1,0,0:0:0:0:
256,192,59655,1,8,0:0:0:0:
256,192,59791,1,0,0:0:0:0:
256,192,60064,1,0,0:0:0:0:
256,192,60200,1,8,0:0:0:0:
256,192,60336,1,0,0:0:0:0:
256,192,60405,1,0,0:0:0:0:
256,192,60473,1,0,0:0:0:0:
256,192,60609,1,0,0:0:0:0:
256,192,60745,1,8,0:0:0:0:
256,192,60882,1,0,0:0:0:0:
256,192,61155,1,0,0:0:0:0:
256,192,61291,1,8,0:0:0:0:
256,192,61427,1,0,0:0:0:0:
256,192,61564,1,8,0:0:0:0:
256,192,61973,1,8,0:0:0:0:
256,192,62382,1,8,0:0:0:0:
256,192,62655,1,8,0:0:0:0:
256,192,62745,1,0,0:0:0:0:
256,192,62836,1,8,0:0:0:0:
256,192,62927,1,8,0:0:0:0:
256,192,63018,1,0,0:0:0:0:
256,192,63109,1,8,0:0:0:0:
256,192,63200,1,8,0:0:0:0:
256,192,63291,1,0,0:0:0:0:
256,192,63382,1,8,0:0:0:0:
256,192,63473,1,8,0:0:0:0:
256,192,63745,1,4,0:0:0:0:
256,192,63882,1,8,0:0:0:0:
256,192,63950,1,8,0:0:0:0:
256,192,64018,1,0,0:0:0:0:
256,192,64155,1,8,0:0:0:0:
256,192,64291,1,0,0:0:0:0:
256,192,64359,1,8,0:0:0:0:
256,192,64427,1,8,0:0:0:0:
256,192,64495,1,8,0:0:0:0:
256,192,64564,1,0,0:0:0:0:
256,192,64700,1,8,0:0:0:0:
256,192,64836,1,0,0:0:0:0:
256,192,64973,1,8,0:0:0:0:
256,192,65041,1,8,0:0:0:0:
256,192,65109,1,0,0:0:0:0:
256,192,65245,1,8,0:0:0:0:
256,192,65382,1,0,0:0:0:0:
256,192,65450,1,0,0:0:0:0:
256,192,65518,1,8,0:0:0:0:
256,192,65586,1,8,0:0:0:0:
256,192,65655,1,0,0:0:0:0:
256,192,65723,1,8,0:0:0:0:
256,192,65791,1,0,0:0:0:0:
256,192,65859,1,0,0:0:0:0:
256,192,65927,1,8,0:0:0:0:
256,192,66064,1,8,0:0:0:0:
256,192,66200,1,0,0:0:0:0:
256,192,66336,1,8,0:0:0:0:
256,192,66473,1,0,0:0:0:0:
256,192,66609,1,8,0:0:0:0:
256,192,66677,1,8,0:0:0:0:
256,192,66745,1,0,0:0:0:0:
256,192,66882,1,8,0:0:0:0:
256,192,67018,1,0,0:0:0:0:
256,192,67155,1,8,0:0:0:0:
256,192,67223,1,8,0:0:0:0:
256,192,67291,1,8,0:0:0:0:
256,192,67427,1,8,0:0:0:0:
256,192,67564,1,4,0:0:0:0:
256,192,67836,1,4,0:0:0:0:
256,192,68109,1,4,0:0:0:0:
256,192,68245,1,8,0:0:0:0:
256,192,68314,1,8,0:0:0:0:
256,192,68382,1,0,0:0:0:0:
256,192,68518,1,8,0:0:0:0:
256,192,68655,1,0,0:0:0:0:
256,192,68723,1,0,0:0:0:0:
256,192,68791,1,8,0:0:0:0:
256,192,68859,1,8,0:0:0:0:
256,192,68927,1,0,0:0:0:0:
256,192,69064,1,8,0:0:0:0:
256,192,69200,1,0,0:0:0:0:
256,192,69336,1,8,0:0:0:0:
256,192,69405,1,8,0:0:0:0:
256,192,69473,1,0,0:0:0:0:
256,192,69609,1,8,0:0:0:0:
256,192,69745,1,0,0:0:0:0:
256,192,69814,1,0,0:0:0:0:
256,192,69882,1,0,0:0:0:0:
256,192,69950,1,0,0:0:0:0:
256,192,70018,1,8,0:0:0:0:
256,192,70086,1,8,0:0:0:0:
256,192,70155,1,8,0:0:0:0:
256,192,70223,1,8,0:0:0:0:
256,192,70291,1,0,0:0:0:0:
256,192,70359,1,0,0:0:0:0:
256,192,70427,1,0,0:0:0:0:
256,192,70495,1,0,0:0:0:0:
256,192,70564,1,8,0:0:0:0:
256,192,70700,1,0,0:0:0:0:
256,192,70836,1,8,0:0:0:0:
256,192,70905,1,8,0:0:0:0:
256,192,70973,1,0,0:0:0:0:
256,192,71041,1,0,0:0:0:0:
256,192,71109,1,8,0:0:0:0:
256,192,71245,1,0,0:0:0:0:
256,192,71382,1,4,0:0:0:0:
256,192,71655,1,4,0:0:0:0:
256,192,71927,1,4,0:0:0:0:
256,192,72200,1,12,0:0:0:0:
256,192,72473,1,4,0:0:0:0:
256,192,72609,1,8,0:0:0:0:
256,192,72677,1,8,0:0:0:0:
256,192,72745,1,0,0:0:0:0:
256,192,72882,1,8,0:0:0:0:
256,192,73018,1,0,0:0:0:0:
256,192,73086,1,8,0:0:0:0:
256,192,73154,1,8,0:0:0:0:
256,192,73222,1,8,0:0:0:0:
256,192,73291,1,0,0:0:0:0:
256,192,73427,1,8,0:0:0:0:
256,192,73563,1,0,0:0:0:0:
256,192,73700,1,8,0:0:0:0:
256,192,73768,1,8,0:0:0:0:
256,192,73836,1,0,0:0:0:0:
256,192,73972,1,8,0:0:0:0:
256,192,74109,1,0,0:0:0:0:
256,192,74177,1,0,0:0:0:0:
256,192,74245,1,8,0:0:0:0:
256,192,74313,1,8,0:0:0:0:
256,192,74382,1,0,0:0:0:0:
256,192,74450,1,8,0:0:0:0:
256,192,74518,1,0,0:0:0:0:
256,192,74586,1,0,0:0:0:0:
256,192,74654,1,8,0:0:0:0:
256,192,74791,1,8,0:0:0:0:
256,192,74927,1,0,0:0:0:0:
256,192,75063,1,8,0:0:0:0:
256,192,75200,1,0,0:0:0:0:
256,192,75336,1,8,0:0:0:0:
256,192,75404,1,8,0:0:0:0:
256,192,75472,1,0,0:0:0:0:
256,192,75609,1,8,0:0:0:0:
256,192,75745,1,0,0:0:0:0:
256,192,75882,1,8,0:0:0:0:
256,192,75950,1,8,0:0:0:0:
256,192,76018,1,8,0:0:0:0:
256,192,76154,1,8,0:0:0:0:
256,192,76291,1,8,0:0:0:0:
256,192,76427,1,8,0:0:0:0:
256,192,76564,1,8,0:0:0:0:
256,192,76632,1,8,0:0:0:0:
256,192,76700,1,0,0:0:0:0:
256,192,76768,1,0,0:0:0:0:
256,192,76836,1,0,0:0:0:0:
256,192,77109,1,8,0:0:0:0:
256,192,77245,1,0,0:0:0:0:
256,192,77382,1,8,0:0:0:0:
256,192,77518,1,8,0:0:0:0:
256,192,77655,1,0,0:0:0:0:
256,192,77791,1,8,0:0:0:0:
256,192,78064,1,0,0:0:0:0:
256,192,78200,1,8,0:0:0:0:
256,192,78336,1,0,0:0:0:0:
256,192,78473,1,0,0:0:0:0:
256,192,78541,1,0,0:0:0:0:
256,192,78609,1,8,0:0:0:0:
256,192,78677,1,8,0:0:0:0:
256,192,78745,1,0,0:0:0:0:
256,192,78814,1,0,0:0:0:0:
256,192,78882,1,8,0:0:0:0:
256,192,79155,1,0,0:0:0:0:
256,192,79291,1,8,0:0:0:0:
256,192,79427,1,0,0:0:0:0:
256,192,79564,1,8,0:0:0:0:
256,192,79700,1,0,0:0:0:0:
256,192,79836,1,8,0:0:0:0:
256,192,79973,1,0,0:0:0:0:
256,192,80109,1,0,0:0:0:0:
256,192,80245,12,0,80791,0:0:0:0:
256,192,80927,5,4,0:0:0:0:
256,192,81200,1,12,0:0:0:0:
256,192,81473,1,8,0:0:0:0:
256,192,81746,1,8,0:0:0:0:
256,192,82018,1,8,0:0:0:0:
256,192,82155,1,8,0:0:0:0:
256,192,82291,1,8,0:0:0:0:
256,192,82564,1,8,0:0:0:0:
256,192,82837,1,8,0:0:0:0:
256,192,83109,1,8,0:0:0:0:
256,192,83382,1,8,0:0:0:0:
256,192,83791,1,8,0:0:0:0:
256,192,84064,1,8,0:0:0:0:
256,192,84337,1,8,0:0:0:0:
256,192,84473,1,8,0:0:0:0:
256,192,84746,1,8,0:0:0:0:
256,192,85018,1,8,0:0:0:0:
256,192,85291,1,8,0:0:0:0:
256,192,85564,1,8,0:0:0:0:
256,192,85836,1,8,0:0:0:0:
256,192,86109,1,8,0:0:0:0:
256,192,86382,1,8,0:0:0:0:
256,192,86518,1,8,0:0:0:0:
256,192,86655,1,4,0:0:0:0:
256,192,86927,1,8,0:0:0:0:
256,192,87473,1,8,0:0:0:0:
256,192,87541,1,8,0:0:0:0:
256,192,87609,1,8,0:0:0:0:
256,192,87677,1,8,0:0:0:0:
256,192,87745,1,0,0:0:0:0:
256,192,87882,1,0,0:0:0:0:
256,192,88018,1,4,0:0:0:0:
256,192,88291,1,0,0:0:0:0:
256,192,88427,1,0,0:0:0:0:
256,192,88564,1,12,0:0:0:0:
256,192,88836,1,0,0:0:0:0:
256,192,89109,1,8,0:0:0:0:
256,192,89199,1,0,0:0:0:0:
256,192,89290,1,8,0:0:0:0:
256,192,89381,1,8,0:0:0:0:
256,192,89472,1,0,0:0:0:0:
256,192,89563,1,8,0:0:0:0:
256,192,89654,1,8,0:0:0:0:
256,192,89927,1,4,0:0:0:0:
256,192,90064,1,8,0:0:0:0:
256,192,90132,1,8,0:0:0:0:
256,192,90200,1,0,0:0:0:0:
256,192,90336,1,8,0:0:0:0:
256,192,90473,1,0,0:0:0:0:
256,192,90609,1,8,0:0:0:0:
256,192,90677,1,8,0:0:0:0:
256,192,90745,1,0,0:0:0:0:
256,192,90882,1,8,0:0:0:0:
256,192,91018,1,0,0:0:0:0:
256,192,91155,1,8,0:0:0:0:
256,192,91223,1,8,0:0:0:0:
256,192,91291,1,0,0:0:0:0:
256,192,91427,1,8,0:0:0:0:
256,192,91564,1,4,0:0:0:0:
256,192,91836,1,4,0:0:0:0:
256,192,92109,1,0,0:0:0:0:
256,192,92245,1,8,0:0:0:0:
256,192,92382,1,8,0:0:0:0:
256,192,92518,1,8,0:0:0:0:
256,192,92655,1,0,0:0:0:0:
256,192,92723,1,0,0:0:0:0:
256,192,92791,1,8,0:0:0:0:
256,192,92859,1,8,0:0:0:0:
256,192,92927,1,0,0:0:0:0:
256,192,93064,1,8,0:0:0:0:
256,192,93200,1,0,0:0:0:0:
256,192,93336,1,8,0:0:0:0:
256,192,93473,1,8,0:0:0:0:
256,192,93609,1,8,0:0:0:0:
256,192,93745,1,8,0:0:0:0:
256,192,93882,1,8,0:0:0:0:
256,192,94018,1,12,0:0:0:0:
256,192,94291,1,4,0:0:0:0:
256,192,94428,1,8,0:0:0:0:
256,192,94496,1,8,0:0:0:0:
256,192,94564,1,0,0:0:0:0:
256,192,94700,1,8,0:0:0:0:
256,192,94837,1,0,0:0:0:0:
256,192,94973,1,8,0:0:0:0:
256,192,95041,1,8,0:0:0:0:
256,192,95109,1,0,0:0:0:0:
256,192,95246,1,8,0:0:0:0:
256,192,95382,1,0,0:0:0:0:
256,192,95519,1,8,0:0:0:0:
256,192,95587,1,8,0:0:0:0:
256,192,95655,1,0,0:0:0:0:
256,192,95791,1,8,0:0:0:0:
256,192,95928,1,4,0:0:0:0:
256,192,96200,1,4,0:0:0:0:
256,192,96473,1,0,0:0:0:0:
256,192,96609,1,0,0:0:0:0:
256,192,96745,1,0,0:0:0:0:
256,192,97018,1,8,0:0:0:0:
256,192,97086,1,8,0:0:0:0:
256,192,97155,1,8,0:0:0:0:
256,192,97223,1,8,0:0:0:0:
256,192,97291,1,8,0:0:0:0:
256,192,97427,1,8,0:0:0:0:
256,192,97564,1,4,0:0:0:0:
256,192,97836,1,4,0:0:0:0:
256,192,98109,1,12,0:0:0:0:
256,192,98382,1,12,0:0:0:0:
256,192,98655,1,4,0:0:0:0:
256,192,98792,1,8,0:0:0:0:
256,192,98860,1,8,0:0:0:0:
256,192,98928,1,0,0:0:0:0:
256,192,99064,1,8,0:0:0:0:
256,192,99201,1,0,0:0:0:0:
256,192,99337,1,8,0:0:0:0:
256,192,99405,1,8,0:0:0:0:
256,192,99473,1,0,0:0:0:0:
256,192,99610,1,8,0:0:0:0:
256,192,99746,1,0,0:0:0:0:
256,192,99883,1,8,0:0:0:0:
256,192,99951,1,8,0:0:0:0:
256,192,100019,1,0,0:0:0:0:
256,192,100155,1,8,0:0:0:0:
256,192,100292,1,4,0:0:0:0:
256,192,100564,1,4,0:0:0:0:
256,192,100837,1,0,0:0:0:0:
256,192,100973,1,8,0:0:0:0:
256,192,101109,1,8,0:0:0:0:
256,192,101245,1,8,0:0:0:0:
256,192,101382,1,8,0:0:0:0:
256,192,101450,1,8,0:0:0:0:
256,192,101518,1,8,0:0:0:0:
256,192,101586,1,8,0:0:0:0:
256,192,101655,1,0,0:0:0:0:
256,192,101791,1,8,0:0:0:0:
256,192,101927,1,0,0:0:0:0:
256,192,101995,1,0,0:0:0:0:
256,192,102064,1,0,0:0:0:0:
256,192,102132,1,0,0:0:0:0:
256,192,102200,1,8,0:0:0:0:
256,192,102268,1,8,0:0:0:0:
256,192,102336,1,8,0:0:0:0:
256,192,102405,1,8,0:0:0:0:
256,192,102473,1,0,0:0:0:0:
256,192,102541,1,0,0:0:0:0:
256,192,102609,1,8,0:0:0:0:
256,192,102677,1,8,0:0:0:0:
256,192,102745,1,0,0:0:0:0:
256,192,103018,1,4,0:0:0:0:
256,192,103155,1,8,0:0:0:0:
256,192,103223,1,8,0:0:0:0:
256,192,103291,1,0,0:0:0:0:
256,192,103427,1,8,0:0:0:0:
256,192,103564,1,0,0:0:0:0:
256,192,103700,1,8,0:0:0:0:
256,192,103768,1,8,0:0:0:0:
256,192,103836,1,0,0:0:0:0:
256,192,103973,1,8,0:0:0:0:
256,192,104109,1,0,0:0:0:0:
256,192,104245,1,8,0:0:0:0:
256,192,104382,1,8,0:0:0:0:
256,192,104450,1,8,0:0:0:0:
256,192,104518,1,8,0:0:0:0:
256,192,104586,1,8,0:0:0:0:
256,192,104655,1,0,0:0:0:0:
256,192,104791,1,8,0:0:0:0:
256,192,104927,1,8,0:0:0:0:
256,192,104973,1,8,0:0:0:0:
256,192,105018,1,8,0:0:0:0:
256,192,105064,1,8,0:0:0:0:
256,192,105109,1,8,0:0:0:0:
256,192,105155,1,8,0:0:0:0:
256,192,105200,1,0,0:0:0:0:
256,192,105336,1,0,0:0:0:0:
256,192,105473,1,4,0:0:0:0:
256,192,105745,1,4,0:0:0:0:
256,192,106018,1,8,0:0:0:0:
256,192,106086,1,8,0:0:0:0:
256,192,106155,1,8,0:0:0:0:
256,192,106223,1,8,0:0:0:0:
256,192,106291,1,0,0:0:0:0:
256,192,106427,1,8,0:0:0:0:
256,192,106495,1,8,0:0:0:0:
256,192,106564,1,0,0:0:0:0:
256,192,106700,1,8,0:0:0:0:
256,192,106768,1,8,0:0:0:0:
256,192,106836,1,0,0:0:0:0:
256,192,107109,1,8,0:0:0:0:
256,192,107382,1,4,0:0:0:0:
256,192,107518,1,8,0:0:0:0:
256,192,107655,1,8,0:0:0:0:
256,192,107791,1,4,0:0:0:0:
256,192,107927,1,8,0:0:0:0:
256,192,108064,1,8,0:0:0:0:
256,192,108200,1,4,0:0:0:0:
256,192,108336,1,8,0:0:0:0:
256,192,108473,1,4,0:0:0:0:
256,192,108609,1,8,0:0:0:0:
256,192,108677,1,8,0:0:0:0:
256,192,108745,1,0,0:0:0:0:
256,192,108882,1,8,0:0:0:0:
256,192,109018,1,8,0:0:0:0:
256,192,109086,1,8,0:0:0:0:
256,192,109155,1,8,0:0:0:0:
256,192,109223,1,8,0:0:0:0:
256,192,109291,1,0,0:0:0:0:
256,192,109564,1,4,0:0:0:0:
256,192,109700,1,8,0:0:0:0:
256,192,109837,1,8,0:0:0:0:
256,192,109973,1,4,0:0:0:0:
256,192,110109,1,8,0:0:0:0:
256,192,110246,1,8,0:0:0:0:
256,192,110382,1,4,0:0:0:0:
256,192,110518,1,8,0:0:0:0:
256,192,110655,1,4,0:0:0:0:
256,192,110791,1,8,0:0:0:0:
256,192,110859,1,8,0:0:0:0:
256,192,110927,1,0,0:0:0:0:
256,192,111064,1,8,0:0:0:0:
256,192,111200,1,0,0:0:0:0:
256,192,111268,1,0,0:0:0:0:
256,192,111336,1,0,0:0:0:0:
256,192,111473,1,8,0:0:0:0:
256,192,111541,1,8,0:0:0:0:
256,192,111609,1,8,0:0:0:0:
256,192,111677,1,8,0:0:0:0:
256,192,111745,1,0,0:0:0:0:
256,192,111882,1,8,0:0:0:0:
256,192,111950,1,8,0:0:0:0:
256,192,112018,1,0,0:0:0:0:
256,192,112086,1,0,0:0:0:0:
256,192,112155,1,8,0:0:0:0:
256,192,112223,1,8,0:0:0:0:
256,192,112291,1,0,0:0:0:0:
256,192,112427,1,8,0:0:0:0:
256,192,112495,1,8,0:0:0:0:
256,192,112564,1,0,0:0:0:0:
256,192,112700,1,8,0:0:0:0:
256,192,112836,1,0,0:0:0:0:
256,192,112905,1,0,0:0:0:0:
256,192,112973,1,8,0:0:0:0:
256,192,113041,1,8,0:0:0:0:
256,192,113109,1,0,0:0:0:0:
256,192,113177,1,0,0:0:0:0:
256,192,113245,1,8,0:0:0:0:
256,192,113314,1,8,0:0:0:0:
256,192,113382,1,0,0:0:0:0:
256,192,113586,1,8,0:0:0:0:
256,192,113655,1,0,0:0:0:0:
256,192,113791,1,8,0:0:0:0:
256,192,113927,1,0,0:0:0:0:
256,192,114064,1,8,0:0:0:0:
256,192,114200,1,8,0:0:0:0:
256,192,114336,1,0,0:0:0:0:
256,192,114473,1,8,0:0:0:0:
256,192,114609,1,8,0:0:0:0:
256,192,114745,1,0,0:0:0:0:
256,192,114882,1,8,0:0:0:0:
256,192,115018,1,0,0:0:0:0:
256,192,115291,1,8,0:0:0:0:
256,192,115564,1,8,0:0:0:0:
256,192,115836,1,4,0:0:0:0:
