osu file format v14

[General]
AudioFilename: Crack Traxxxx.mp3
AudioLeadIn: 0
PreviewTime: 63745
Countdown: 0
SampleSet: Soft
StackLeniency: 0.7
Mode: 0
LetterboxInBreaks: 0
EpilepsyWarning: 1
WidescreenStoryboard: 0

[Editor]
Bookmarks: 79700
DistanceSpacing: 1.8
BeatDivisor: 4
GridSize: 4
TimelineZoom: 3.099999

[Metadata]
Title:Crack Traxxxx
TitleUnicode:Crack Traxxxx
Artist:Lite Show Magic (t+pazolite vs C-Show)
ArtistUnicode:Lite Show Magic (t+pazolite vs C-Show)
Creator:Fatfan Kolek
Version:xxxxTREME
Source:SOUND VOLTEX II -infinite infection-
Tags:t+pazolite c-show TKSalt TKS Dariano Fanzhen0019 Oracle Natsu P_A_N Aka EvilElvis Gero Onosakihito DJNightmare Fast Spectator sukiNathan Okoratu
BeatmapID:679131
BeatmapSetID:139525

[Difficulty]
HPDrainRate:7
CircleSize:4.2
OverallDifficulty:9
ApproachRate:9.8
SliderMultiplier:1.6
SliderTickRate:2

[Events]
//Background and Video events
0,0,"bg.jpg",0,0
//Break Periods
//Storyboard Layer 0 (Background)
//Storyboard Layer 1 (Fail)
//Storyboard Layer 2 (Pass)
//Storyboard Layer 3 (Foreground)
Sprite,Foreground,Centre,"SB/glowmap.png",320,240 P,0,0,119170,A F,0,2382,,0 M,0,2655,,320,240 S,0,2655,,0.7963637 F,0,2655,4836,1,0 F,0,7018,7291,1,0 F,0,7427,9200,1,0 F,0,12473,12609,1,0 F,0,12745,12882,1,0 F,0,13018,13155,1,0 F,0,13291,13427,1,0 F,0,14655,14791,1,0 F,0,14927,15064,1,0 F,0,15200,15336,1,0 F,0,15473,15609,1,0 F,0,15745,,0.08145462 F,0,15882,,0.4319658 F,0,16018,,0.6533606 F,0,16155,,0.9287182 F,0,16291,16836,1,0 F,0,16905,,0.5032727 F,0,16973,,0.1803636 F,0,17041,,0.5789091 F,0,17109,,0.2065455 F,0,17177,,0.7301819 F,0,17245,,0.1396364 F,0,17314,,0.7883637 F,0,17382,17927,1,0 F,0,19836,20041,1,0 F,0,20109,22291,1,0 F,0,24200,24473,1,0 F,0,30745,,1 F,0,30814,,0 F,0,30882,,1 F,0,30950,,0 F,0,32927,,1 F,0,32995,,0 F,0,33064,,1 F,0,33132,,0 F,0,34018,,1 F,0,34086,,0 F,0,34155,,1 F,0,34223,,0 F,2,35109,35382,0.2589091,1 F,0,35382,36405,1,0 F,0,36473,36677,1,0 F,0,36745,36950,1,0 F,0,37018,37223,1,0 F,0,37291,37495,1,0 F,0,55018,57200,1,0 F,0,62689,,1 F,0,62723,,0 F,0,62791,,1 F,0,62825,,0 F,0,62893,,1 F,0,62927,,0 F,0,62995,,1 F,0,63030,,0 F,0,63098,,1 F,0,63132,,0 F,0,63200,,1 F,0,63234,,0 F,0,63302,,1 F,0,63336,,0 F,0,63405,,1 F,0,63439,,0 F,0,63473,63745,1,0 F,0,67564,67791,1,0 F,0,67836,68064,1,0 F,0,71382,71620,1,0 F,0,71655,71893,1,0 F,0,71927,72166,1,0 F,0,72200,72439,1,0 F,0,76291,,0.3309091 F,0,76359,,0 F,0,76427,,0.674909 F,0,76495,,0 F,0,76564,,1 F,0,76598,,0 F,0,76632,,1 F,0,76666,,0 F,0,76700,,1 F,0,76734,,0 F,0,76768,,1 F,0,76802,,0 F,0,80927,81064,1,0 F,0,81200,82291,1,0 F,0,87745,87814,0.1716364,0 F,0,87882,87950,0.3316363,0 F,0,88018,88223,1,0 F,0,88291,88359,0.1396364,0 F,0,88427,88495,0.3141819,0 F,0,88564,88768,1,0 F,0,88836,89586,1,0 F,0,89655,89927,1,0 F,0,107382,107655,0.5789091,0 F,0,107791,108064,1,0 F,0,108200,108405,0.994909,0 F,0,108473,108950,1,0 F,0,109018,109495,1,0 F,0,109564,109905,1,0 F,0,109973,110245,1,0 F,0,110382,110586,0.9163637,0 F,0,110655,111132,1,0 F,0,111200,111677,1,0 F,0,115836,116109,1,0
Sprite,Foreground,Centre,"SB/glowmap.png",320,240 P,0,0,119170,A F,0,63677,,0 S,0,63745,,0.7963637 F,0,63745,63984,1,0 F,0,64018,64257,1,0 F,0,64291,64530,1,0 F,0,64564,64803,1,0 F,0,64836,65075,1,0 F,0,65109,65348,1,0 F,0,65382,65621,1,0 F,0,65655,65894,1,0 F,0,65927,66166,1,0 F,0,66200,66439,1,0 F,0,66473,66712,1,0 F,0,66745,66984,1,0 F,0,67018,67257,1,0 F,0,67291,67530,1,0 F,0,68109,68348,1,0 F,0,68382,68621,1,0 F,0,68655,68894,1,0 F,0,68927,69166,1,0 F,0,69200,69439,1,0 F,0,69473,69712,1,0 F,0,69745,69984,1,0 F,0,70018,70257,1,0 F,0,70291,70530,1,0 F,0,70564,70803,1,0 F,0,70836,71075,1,0 F,0,71109,71348,1,0 F,0,72473,72712,1,0 F,0,72745,72984,1,0 F,0,73018,73257,1,0 F,0,73291,73530,1,0 F,0,73564,73803,1,0 F,0,73836,74075,1,0 F,0,74109,74348,1,0 F,0,74382,74621,1,0 F,0,74655,74894,1,0 F,0,74927,75166,1,0 F,0,75200,75439,1,0 F,0,75473,75712,1,0 F,0,75745,75984,1,0 F,0,76018,76257,1,0 F,0,76836,77075,1,0 F,0,77245,77484,1,0 F,0,77655,77894,1,0 F,0,78064,78303,1,0 F,0,78336,78575,1,0
Sprite,Foreground,Centre,"SB/glowmap.png",320,240 P,0,0,119170,A S,0,63745,,0.7963637 F,0,78405,,0 F,0,78473,78712,1,0 F,0,79155,79394,1,0 F,0,79427,79666,1,0 F,0,79700,79939,1,0 F,0,79973,80212,1,0
Sprite,Foreground,Centre,"SB/glowmap.png",320,240 P,0,0,119170,A S,0,63745,,0.7963637 F,0,80041,,0 F,0,80109,80348,1,0 F,0,100836,101382,0.541091,0
//Storyboard Sound Samples

[TimingPoints]
2655,272.727272727273,4,2,0,50,1,0
7018,-100,4,2,1,100,0,0
7836,-100,4,2,0,70,0,0
8109,-83.3333333333333,4,2,0,70,0,0
10018,-83.3333333333333,4,2,0,70,0,0
11109,-83.3333333333333,4,2,0,70,0,0
12473,-125,4,2,1,70,0,0
12745,-100,4,2,1,70,0,0
13018,-83.3333333333333,4,2,1,70,0,0
13291,-71.4285714285714,4,2,1,70,0,0
13564,-83.3333333333333,4,2,0,70,0,0
14655,-125,4,2,1,70,0,0
14927,-100,4,2,1,70,0,0
15200,-83.3333333333333,4,2,1,70,0,0
15473,-71.4285714285714,4,2,1,70,0,0
16836,-133.333333333333,4,2,0,70,0,0
17382,-83.3333333333333,4,2,0,70,0,0
17655,-71.4285714285714,4,2,0,70,0,0
19836,-66.6666666666667,4,2,0,70,0,0
20109,-83.3333333333333,4,2,0,75,0,0
22018,-90.9090909090909,4,2,0,75,0,0
22291,-83.3333333333333,4,2,0,75,0,0
23927,-90.9090909090909,4,2,0,75,0,0
24132,-83.3333333333333,4,2,0,75,0,0
26382,-100,4,2,0,75,0,0
26586,-83.3333333333333,4,2,0,65,0,0
27473,-66.6666666666667,4,2,0,65,0,0
27677,-83.3333333333333,4,2,0,65,0,0
28564,-66.6666666666667,4,2,0,65,0,0
28700,-66.6666666666667,4,2,0,50,0,0
28836,-66.6666666666667,4,2,0,80,0,0
29109,-66.6666666666667,4,2,0,85,0,0
30745,-66.6666666666667,4,2,0,80,0,0
31018,-66.6666666666667,4,2,0,85,0,0
32927,-66.6666666666667,4,2,0,80,0,0
33200,-66.6666666666667,4,2,0,85,0,0
34018,-66.6666666666667,4,2,0,80,0,0
34291,-66.6666666666667,4,2,0,85,0,0
35450,-83.3333333333333,4,2,0,65,0,0
36473,-83.3333333333333,4,2,1,50,0,0
36745,-83.3333333333333,4,2,1,65,0,0
37018,-83.3333333333333,4,2,1,65,0,0
37291,-133.333333333333,4,2,1,65,0,0
37495,-83.3333333333333,4,2,0,75,0,0
37836,-66.6666666666667,4,2,0,75,0,0
39745,-50,4,2,0,75,0,0
39950,-66.6666666666667,4,2,0,75,0,0
41382,-83.3333333333333,4,2,0,75,0,0
41655,-66.6666666666667,4,2,0,75,0,0
41859,-83.3333333333333,4,2,0,75,0,0
42200,-66.6666666666667,4,2,0,75,0,0
44109,-58.8235294117647,4,2,0,70,0,0
44245,-58.8235294117647,4,2,0,60,0,0
44382,-58.8235294117647,4,2,0,50,0,0
44518,-58.8235294117647,4,2,0,40,0,0
44791,-58.8235294117647,4,2,0,50,0,0
44927,-58.8235294117647,4,2,0,60,0,0
45064,-58.8235294117647,4,2,0,70,0,0
45200,-66.6666666666667,4,2,0,70,0,0
46564,-66.6666666666667,4,2,0,70,0,0
47382,-66.6666666666667,4,2,0,75,0,0
48473,-50,4,2,0,75,0,0
48677,-66.6666666666667,4,2,0,75,0,0
50041,-83.3333333333333,4,2,0,75,0,0
50382,-66.6666666666667,4,2,0,75,0,0
50586,-83.3333333333333,4,2,0,75,0,0
54064,-83.3333333333333,4,2,0,75,0,0
55291,-83.3333333333333,4,2,0,25,0,0
58291,-83.3333333333333,4,2,1,20,0,0
58325,-83.3333333333333,4,2,0,5,0,0
58564,-83.3333333333333,4,2,1,15,0,0
58598,-83.3333333333333,4,2,0,5,0,0
58836,-83.3333333333333,4,2,1,10,0,0
58870,-83.3333333333333,4,2,0,5,0,0
59109,-83.3333333333333,4,2,1,10,0,0
59143,-83.3333333333333,4,2,0,5,0,0
59382,-83.3333333333333,4,2,0,65,0,0
61018,-66.6666666666667,4,2,0,65,0,0
61291,-83.3333333333333,4,2,0,65,0,0
62245,-55.5555555555556,4,2,0,65,0,0
62655,-66.6666666666667,4,2,0,65,0,0
62859,-66.6666666666667,4,2,0,5,0,0
62927,-83.3333333333333,4,2,0,65,0,0
63132,-83.3333333333333,4,2,0,5,0,0
63200,-100,4,2,0,65,0,0
63405,-100,4,2,0,5,0,0
63473,-66.6666666666667,4,2,0,65,0,0
63609,-100,4,2,0,65,0,0
63745,-66.6666666666667,4,2,1,40,0,1
64018,-66.6666666666667,4,1,0,65,0,1
65109,-66.6666666666667,4,1,0,65,0,1
65314,-66.6666666666667,4,1,0,65,0,1
67564,-50,4,1,0,65,0,1
67768,-50,4,2,0,5,0,1
67836,-66.6666666666667,4,1,0,65,0,1
68041,-66.6666666666667,4,2,0,5,0,1
68109,-66.6666666666667,4,1,0,65,0,1
69473,-57.1428571428571,4,1,0,65,0,1
69677,-66.6666666666667,4,1,0,65,0,1
71382,-57.1428571428571,4,1,0,65,0,1
71586,-57.1428571428571,4,2,0,5,0,1
71655,-66.6666666666667,4,1,0,65,0,1
71859,-66.6666666666667,4,2,0,5,0,1
71927,-80,4,1,0,65,0,1
72132,-80,4,2,0,5,0,1
72200,-57.1428571428571,4,2,1,50,0,1
72405,-57.1428571428571,4,2,1,5,0,1
72473,-66.6666666666667,4,1,0,65,0,1
73836,-57.1428571428571,4,1,0,65,0,1
74041,-66.6666666666667,4,1,0,65,0,1
75745,-50,4,1,0,65,0,1
76155,-66.6666666666667,4,1,0,65,0,1
77655,-80,4,1,0,65,0,1
78064,-100,4,1,0,65,0,1
78473,-133.333333333333,4,1,0,65,0,1
81200,-83.3333333333333,4,2,0,25,0,0
84473,-83.3333333333333,4,2,1,20,0,0
84507,-83.3333333333333,4,2,0,5,0,0
84745,-83.3333333333333,4,2,1,15,0,0
84780,-83.3333333333333,4,2,0,5,0,0
85018,-83.3333333333333,4,2,1,10,0,0
85052,-83.3333333333333,4,2,0,5,0,0
85291,-83.3333333333333,4,2,1,10,0,0
85325,-83.3333333333333,4,2,0,5,0,0
85359,-83.3333333333333,4,2,0,25,0,0
86655,-66.6666666666667,4,2,0,30,0,0
87473,-83.3333333333333,4,2,0,25,0,0
87745,-83.3333333333333,4,2,0,60,0,0
89927,-58.8235294117647,4,2,0,60,0,0
91564,-50,4,2,0,60,0,0
91973,-66.6666666666667,4,2,0,60,0,0
94291,-58.8235294117647,4,2,0,60,0,0
95927,-50,4,2,0,60,0,0
96336,-66.6666666666667,4,2,0,60,0,0
97018,-100,4,2,0,60,0,0
97223,-66.6666666666667,4,2,0,40,0,0
97291,-66.6666666666667,4,2,0,30,0,0
97359,-66.6666666666667,4,2,0,20,0,0
97427,-66.6666666666667,4,2,0,10,0,0
97495,-66.6666666666667,4,2,0,60,0,0
97564,-66.6666666666667,4,2,0,60,0,0
97836,-71.4285714285714,4,2,0,60,0,0
98109,-76.9230769230769,4,2,0,60,0,0
98382,-83.3333333333333,4,2,0,60,0,0
98655,-58.8235294117647,4,2,0,60,0,0
100700,-83.3333333333333,4,2,0,60,0,0
102745,-66.6666666666667,4,2,0,60,0,0
103018,-58.8235294117647,4,2,0,60,0,0
104655,-83.3333333333333,4,2,0,60,0,0
105200,-66.6666666666667,4,2,0,60,0,0
105405,-83.3333333333333,4,2,0,60,0,0
106291,-66.6666666666667,4,2,0,60,0,0
108745,-71.4285714285714,4,2,0,60,0,0
109018,-76.9230769230769,4,2,0,60,0,0
109291,-83.3333333333333,4,2,0,60,0,0
109564,-66.6666666666667,4,2,0,60,0,0
110382,-57.1428571428571,4,2,0,60,0,0
110655,-66.6666666666667,4,2,0,60,0,0
111745,-66.6666666666667,4,2,0,60,0,0
112836,-62.5,4,2,0,60,0,0
113382,-66.6666666666667,4,2,1,60,0,0
113927,-66.6666666666667,4,2,0,60,0,0
115836,-50,4,2,0,50,0,0

[Colours]
Combo1 : 128,0,255
Combo2 : 255,0,0
Combo3 : 0,255,255
Combo4 : 255,128,64

[HitObjects]
104,80,7018,6,0,L|64:56,1,40,8|0,2:0|0:0,0:0:0:0:
104,304,7427,2,0,L|64:328,1,40,8|0,2:0|0:0,0:0:0:0:
396,220,7836,6,0,L|368:188,1,40,0|0,1:0|0:0,1:0:0:0:
416,200,7973,2,0,L|384:164,1,40,0|0,1:0|0:0,1:0:0:0:
440,176,8109,6,0,L|376:104,1,95.9999970703126,0|0,1:0|0:0,0:0:0:0:
195,58,8382,2,0,P|147:60|104:80,1,95.9999970703126,2|2,0:0|0:0,0:0:0:0:
104,304,8655,2,0,P|147:323|195:325,1,95.9999970703126,2|0,0:0|0:0,0:0:0:0:
104,192,8927,2,0,L|8:192,2,95.9999970703126,2|0|4,0:0|0:0|1:0,0:0:0:0:
288,232,9336,5,0,0:0:0:0:
242,132,9473,1,0,1:0:0:0:
320,61,9609,1,0,0:0:0:0:
412,114,9745,1,0,1:0:0:0:
391,218,9882,1,0,0:0:0:0:
328,156,10018,6,0,B|320:200|288:232|288:232|300:260|324:276,1,143.999995605469,2|0,0:0|0:0,0:0:0:0:
368,296,10291,5,2,0:1:0:0:
416,296,10359,1,0,0:0:0:0:
456,272,10427,1,2,0:1:0:0:
472,228,10495,1,0,0:0:0:0:
464,180,10564,1,2,0:1:0:0:
428,148,10632,1,2,0:1:0:0:
436,100,10700,1,2,0:1:0:0:
416,56,10768,1,2,0:1:0:0:
368,44,10836,2,0,B|316:44|316:44|264:56,1,95.9999970703126,4|0,0:0|0:0,0:0:0:0:
28,136,11109,6,0,B|73:135|73:135|126:151|126:151|170:151,1,143.999995605469,6|0,1:0|0:0,0:0:0:0:
276,188,11382,5,4,0:0:0:0:
76,244,11518,1,0,0:0:0:0:
276,188,11655,1,0,1:0:0:0:
76,244,11791,2,0,B|116:56,1,191.999994140625,0|0,1:0|0:0,0:0:0:0:
276,188,12200,2,0,B|256:282,1,95.9999970703126,0|0,1:0|0:0,0:0:0:0:
56,337,12473,6,0,B|76:243,1,95.9999970703126,2|0,0:3|0:0,0:0:0:0:
196,96,12745,6,0,B|171:213,1,120,2|0,0:3|0:0,0:0:0:0:
246,328,13018,6,0,B|275:187,1,143.999995605469,2|0,0:3|0:0,0:0:0:0:
400,52,13291,6,0,B|365:215,1,167.999994873047,2|0,0:3|0:0,0:0:0:0:
336,344,13564,5,4,0:0:0:0:
136,288,13700,1,0,0:0:0:0:
336,344,13837,1,0,1:0:0:0:
136,288,13973,2,0,P|104:200|136:112,1,191.999994140625,0|0,1:0|0:0,0:0:0:0:
356,246,14382,2,0,P|363:199|356:152,1,95.9999970703126,0|0,1:0|0:0,0:0:0:0:
136,111,14655,6,0,L|240:111,1,96,2|0,0:3|0:0,0:0:0:0:
356,152,14927,6,0,L|236:152,1,120,2|0,0:3|0:0,0:0:0:0:
88,192,15200,6,0,L|236:192,1,143.999995605469,2|0,0:3|0:0,0:0:0:0:
404,232,15473,6,0,L|228:232,1,167.999994873047,2|0,0:3|0:0,0:0:0:0:
76,295,15745,6,0,L|60:265,1,27.9999991455078,2|0,2:0|2:0,0:0:0:0:
95,115,15882,2,0,L|111:146,1,27.9999991455078,2|0,2:0|2:0,0:0:0:0:
273,248,16018,2,0,L|257:217,1,27.9999991455078,2|0,2:0|2:0,0:0:0:0:
292,68,16155,2,0,L|308:99,1,27.9999991455078,2|0,2:0|2:0,0:0:0:0:
464,316,16291,6,0,B|426:309|389:324|389:324|389:309|389:309|351:324|314:316,1,167.999994873047,4|0,0:0|0:0,0:0:0:0:
172,260,16564,2,0,B|240:244|240:244|344:244,1,167.999994873047,8|0,0:0|0:0,0:0:0:0:
464,316,16836,5,0,1:0:0:0:
464,272,16905,1,0,1:0:0:0:
426,239,16973,5,0,1:0:0:0:
426,201,17041,1,0,1:0:0:0:
391,165,17109,5,0,1:0:0:0:
391,130,17177,1,0,1:0:0:0:
359,96,17245,5,0,1:0:0:0:
359,66,17314,1,0,1:0:0:0:
358,31,17382,6,0,B|302:31|302:31|270:39|270:39|206:39,1,143.999995605469,4|0,0:0|0:0,0:0:0:0:
72,116,17655,2,0,P|42:192|72:269,1,167.999994873047,8|0,0:0|0:0,0:0:0:0:
196,347,17927,5,4,0:0:0:0:
268,182,18063,1,2,0:0:0:0:
338,347,18200,1,2,0:0:0:0:
385,114,18336,5,4,0:0:0:0:
268,45,18472,1,2,0:0:0:0:
268,182,18609,1,2,0:0:0:0:
432,254,18745,5,6,0:0:0:0:
338,347,18882,1,2,0:0:0:0:
196,347,19018,1,4,0:0:0:0:
448,52,19291,5,2,0:0:0:0:
64,332,19564,1,2,0:0:0:0:
448,52,19836,2,0,B|388:44|388:44|328:52,1,120.000004577637,4|2,2:0|0:3,0:0:0:0:
94,81,20109,6,0,L|194:126,1,95.9999970703126,0|2,1:0|0:3,0:0:0:0:
417,301,20382,2,0,L|315:256,1,95.9999970703126,0|2,1:0|0:3,0:0:0:0:
60,175,20655,2,0,L|170:165,1,95.9999970703126,0|2,1:0|0:3,0:0:0:0:
450,206,20927,2,0,L|340:217,1,95.9999970703126,0|2,1:0|0:3,0:0:0:0:
78,276,21200,6,0,L|169:211,1,95.9999970703126,0|2,1:0|0:3,0:0:0:0:
432,106,21473,2,0,L|341:171,1,95.9999970703126,0|2,1:0|0:3,0:0:0:0:
145,353,21745,2,0,L|191:251,1,95.9999970703126,0|2,1:0|0:3,0:0:0:0:
366,30,22018,6,0,L|302:159,1,132.00000402832,0|0,1:0|0:0,0:0:0:0:
215,279,22291,6,0,L|171:373,1,95.9999970703126,0|2,1:0|0:3,0:0:0:0:
60,267,22564,2,0,L|150:232,1,95.9999970703126,0|2,1:0|0:3,0:0:0:0:
150,151,22836,2,0,L|35:107,1,95.9999970703126,0|2,1:0|0:3,0:0:0:0:
174,17,23109,2,0,L|215:104,1,95.9999970703126,0|2,1:0|0:3,0:0:0:0:
296,279,23382,6,0,L|340:373,1,95.9999970703126,0|2,1:0|0:3,0:0:0:0:
451,267,23655,2,0,L|361:232,1,95.9999970703126,0|2,1:0|0:3,0:0:0:0:
361,151,23927,6,0,B|448:112|448:112|468:72,1,132.00000402832,0|0,1:0|0:0,0:0:0:0:
337,17,24200,38,0,L|296:104,1,95.9999970703126,4|2,1:0|0:3,0:0:0:0:
160,280,24473,21,0,1:0:0:0:
296,280,24609,1,2,0:3:0:0:
360,128,24745,1,0,1:0:0:0:
224,128,24882,1,2,0:3:0:0:
228,332,25018,5,0,1:0:0:0:
296,192,25155,1,2,0:3:0:0:
228,52,25291,1,0,1:0:0:0:
72,192,25427,1,2,0:3:0:0:
296,192,25564,5,0,1:0:0:0:
152,88,25700,1,2,0:3:0:0:
152,296,25836,1,0,1:0:0:0:
396,192,25973,1,2,0:3:0:0:
352,340,26109,5,0,1:0:0:0:
232,192,26245,2,0,L|180:192,1,47.9999985351563
160,164,26382,6,0,L|40:164,1,120,4|0,0:0|0:0,0:0:0:0:
40,256,26655,5,2,0:0:0:0:
64,304,26723,1,2,0:0:0:0:
112,328,26791,1,2,0:0:0:0:
164,332,26859,1,2,0:0:0:0:
216,316,26927,2,0,B|234:279|234:279|234:213,1,95.9999970703126,0|2,1:0|0:0,0:0:0:0:
284,124,27132,1,2,0:0:0:0:
284,124,27200,2,0,L|284:72,2,47.9999985351563,0|0|2,0:0|0:0|0:0,0:0:0:0:
474,329,27473,6,0,B|474:277|474:277|442:213|442:213|442:157,1,180.000006866455,0|0,1:0|0:0,0:0:0:0:
444,52,27745,5,4,0:0:0:0:
68,52,28018,1,4,0:0:0:0:
256,332,28291,1,4,0:0:0:0:
444,52,28564,6,0,B|376:52,1,60.0000022888184,4|0,0:0|0:0,0:0:0:0:
285,138,28700,2,0,B|217:138,1,60.0000022888184,4|0,0:0|0:0,0:0:0:0:
104,84,28836,5,0,1:0:0:0:
68,132,28905,1,0,1:0:0:0:
56,192,28973,1,0,1:0:0:0:
68,252,29041,1,0,1:0:0:0:
104,300,29109,2,0,B|156:328|156:328|216:328,1,120.000004577637,0|4,1:0|0:0,0:0:0:0:
216,56,29382,2,2,B|156:56|156:56|104:84,1,120.000004577637,2|4,2:0|0:0,0:0:0:0:
216,328,29655,6,2,B|276:328|276:328|328:300,1,120.000004577637,2|4,2:0|0:0,0:0:0:0:
328,84,29927,2,2,B|276:56|276:56|216:56,1,120.000004577637,2|4,2:0|0:0,0:0:0:0:
328,300,30200,6,2,B|380:272|380:272|440:252,1,120.000004577637,2|4,2:0|0:0,0:0:0:0:
437,131,30473,2,2,B|380:112|380:112|328:84,1,120.000004577637,2|4,2:0|0:0,0:0:0:0:
438,315,30745,5,0,1:0:0:0:
437,252,30814,1,0,1:0:0:0:
460,192,30882,1,0,1:0:0:0:
437,131,30950,1,0,1:0:0:0:
438,68,31018,2,2,P|383:45|325:53,1,120.000004577637,2|4,0:0|0:0,0:0:0:0:
325,331,31291,2,2,P|384:338|439:315,1,120.000004577637,2|4,0:0|0:0,0:0:0:0:
325,53,31564,6,2,P|283:66|207:62,1,120.000004577637,2|4,0:0|0:0,0:0:0:0:
208,322,31836,2,2,P|267:317|325:331,1,120.000004577637,2|4,0:0|0:0,0:0:0:0:
208,62,32109,6,2,P|151:66|103:110,1,120.000004577637,2|4,0:0|0:0,0:0:0:0:
105,279,32382,2,2,P|149:318|208:322,1,120.000004577637,2|4,0:0|0:0,0:0:0:0:
340,136,32655,2,2,P|360:192|340:248,1,120.000004577637,2|4,0:0|0:0,0:0:0:0:
88,264,32927,6,0,L|56:315,1,60.0000022888184,0|0,1:0|1:0,1:0:0:0:
88,120,33064,2,0,L|56:68,1,60.0000022888184,0|0,1:0|1:0,1:0:0:0:
128,192,33200,2,0,B|160:192|160:192|176:200|176:200|176:184|176:184|192:192|192:192|228:192,1,120.000004577637,0|4,1:0|0:0,0:0:0:0:
328,324,33473,5,2,0:0:0:0:
328,60,33609,1,4,0:0:0:0:
404,284,33745,1,2,0:0:0:0:
404,100,33882,1,4,0:0:0:0:
492,272,34018,6,0,B|492:300|492:300|476:328,1,60.0000022888184,0|0,1:0|1:0,1:0:0:0:
492,112,34155,2,0,B|492:84|492:84|476:56,1,60.0000022888184,0|0,1:0|1:0,1:0:0:0:
464,192,34291,2,0,B|432:192|432:192|416:200|416:200|416:184|416:184|400:192|400:192|364:192,1,120.000004577637,0|4,1:0|0:0,0:0:0:0:
228,192,34564,5,2,0:0:0:0:
328,60,34700,1,4,0:0:0:0:
328,324,34836,1,2,0:0:0:0:
464,192,34973,1,4,0:0:0:0:
240,276,35109,6,2,B|196:316|196:316|152:268|88:276,1,180.000006866455,2|0,0:0|0:0,1:0:0:0:
32,228,35382,1,0,1:0:0:0:
120,112,35518,1,0,1:0:0:0:
256,164,35655,1,8,1:0:0:0:
120,112,35791,5,0,1:0:0:0:
124,116,35859,1,8,1:0:0:0:
128,120,35927,1,0,1:0:0:0:
256,164,36064,1,0,1:0:0:0:
208,320,36200,6,0,L|172:352,1,47.9999985351563,2|2,1:2|1:2,0:0:0:0:
304,320,36336,2,0,L|340:352,1,47.9999985351563,2|2,1:2|1:2,0:0:0:0:
256,276,36473,2,0,B|256:260|256:260|260:252|260:252|252:252|252:252|256:244|256:244|256:140,1,143.999995605469,2|0,0:3|0:0,0:0:0:0:
160,60,36745,6,0,L|160:204,1,143.999995605469,2|0,0:3|0:0,0:0:0:0:
352,204,37018,6,0,L|352:60,1,143.999995605469,2|0,0:3|0:0,0:0:0:0:
316,89,37291,6,0,L|316:181,1,90.0000034332277,2|0,0:3|0:0,0:0:0:0:
320,229,37564,6,0,L|348:229,1,23.9999992675781,0|0,1:0|0:0,0:0:0:0:
320,269,37632,2,0,L|352:269,1,23.9999992675781,0|0,1:0|0:0,0:0:0:0:
320,313,37700,2,0,L|296:313,1,23.9999992675781,0|0,1:0|0:0,0:0:0:0:
320,357,37768,2,0,L|296:357,1,23.9999992675781,0|0,1:0|0:0,0:0:0:0:
274,371,37836,6,0,P|202:343|218:255,1,180.000006866455,4|0,0:0|0:0,0:0:0:0:
328,184,38109,2,0,P|384:168|444:184,1,120.000004577637,4|0,0:0|0:0,0:0:0:0:
442,355,38382,2,0,P|385:371|328:356,1,120.000004577637,0|0,1:0|0:0,0:0:0:0:
136,348,38655,6,0,B|76:348,1,60.0000022888184,2|0,0:0|0:0,0:0:0:0:
12,244,38791,2,0,B|72:244,1,60.0000022888184,2|0,0:0|0:0,0:0:0:0:
164,308,38927,6,0,B|104:308,1,60.0000022888184,2|0,0:0|0:0,0:0:0:0:
40,204,39063,2,0,B|100:204,1,60.0000022888184,2|0,0:0|0:0,0:0:0:0:
196,264,39200,6,0,B|136:264,1,60.0000022888184,2|0,0:0|0:0,0:0:0:0:
72,160,39336,2,0,B|132:160,1,60.0000022888184,2|0,0:0|0:0,0:0:0:0:
224,224,39472,6,0,B|164:224,1,60.0000022888184,2|0,0:0|0:0,0:0:0:0:
100,120,39608,2,0,B|160:120,1,60.0000022888184,2|0,0:0|0:0,0:0:0:0:
276,98,39745,6,0,P|287:54|417:118,1,240,2|0,0:1|0:0,0:0:0:0:
436,308,40018,2,0,L|436:246,1,60.0000022888184,2|0,0:1|0:0,0:0:0:0:
350,95,40155,2,0,L|350:155,1,60.0000022888184,2|0,0:1|0:0,0:0:0:0:
300,308,40291,6,0,B|208:308|208:308|136:248,1,180.000006866455,4|0,1:0|0:0,0:0:0:0:
77,120,40564,2,0,P|137:100|189:120,1,120.000004577637,8|8,1:0|1:0,0:0:0:0:
300,308,40836,5,4,0:0:0:0:
412,120,40973,1,0,1:0:0:0:
188,120,41109,1,0,0:0:0:0:
300,308,41245,1,0,1:0:0:0:
228,100,41382,6,0,B|300:112|300:112|372:100,1,143.999995605469,0|0,1:0|0:0,0:0:0:0:
388,136,41655,6,0,B|299:151|299:151|211:136,1,180.000006866455,4|0,1:0|0:0,0:0:0:0:
161,134,41927,6,0,L|125:134,1,23.9999992675781,0|0,1:0|0:0,0:0:0:0:
161,190,41995,2,0,L|133:190,1,23.9999992675781,0|0,1:0|0:0,0:0:0:0:
133,242,42064,2,0,L|109:242,1,23.9999992675781,0|0,1:0|0:0,0:0:0:0:
133,298,42132,2,0,L|105:298,1,23.9999992675781,0|0,1:0|0:0,0:0:0:0:
165,350,42200,6,0,B|217:350|217:350|289:330|289:330|349:330,1,180.000006866455,4|0,0:0|0:0,0:0:0:0:
424,216,42473,2,0,B|376:192|376:192|308:192,1,120.000004577637,4|0,0:0|0:0,0:0:0:0:
46,158,42745,2,0,B|94:134|94:134|162:134,1,120.000004577637,0|0,1:0|0:0,0:0:0:0:
375,89,43018,6,0,B|368:120|368:120|368:148,1,60.0000022888184,2|0,0:0|0:0,0:0:0:0:
375,294,43155,2,0,B|368:264|368:264|368:236,1,60.0000022888184,2|0,0:0|0:0,0:0:0:0:
296,72,43291,6,0,L|296:136,1,60.0000022888184,2|0,0:0|0:0,0:0:0:0:
296,312,43427,2,0,L|296:248,1,60.0000022888184,2|0,0:0|0:0,0:0:0:0:
216,72,43564,6,0,L|216:136,1,60.0000022888184,2|0,0:0|0:0,0:0:0:0:
216,312,43700,2,0,L|216:248,1,60.0000022888184,2|0,0:0|0:0,0:0:0:0:
136,89,43836,6,0,B|144:120|144:120|144:148,1,60.0000022888184,2|0,0:0|0:0,0:0:0:0:
136,294,43973,2,0,B|144:264|144:264|144:236,1,60.0000022888184,2|0,0:0|0:0,0:0:0:0:
136,89,44109,5,0,1:0:0:0:
216,72,44245,1,0,1:0:0:0:
296,72,44382,1,0,1:0:0:0:
375,89,44518,1,0,1:0:0:0:
375,294,44655,5,0,1:0:0:0:
296,312,44791,1,0,1:0:0:0:
216,312,44928,1,0,1:0:0:0:
136,294,45064,1,0,1:0:0:0:
136,89,45200,6,0,B|84:152|84:152|84:252,1,180.000006866455,4|0,1:0|0:0,0:0:0:0:
216,312,45473,6,0,B|260:308|288:340|288:340|308:340|308:340|336:308|380:312,1,180.000006866455,4|0,1:0|0:0,0:0:0:0:
512,328,45745,6,0,B|512:188|512:188|472:216,1,180.000006866455,4|0,1:0|0:0,0:0:0:0:
399,106,46018,6,0,B|347:106|347:106|283:138|283:138|227:138,1,180.000006866455,4|0,1:0|0:0,0:0:0:0:
182,139,46291,6,0,L|150:139,1,30.0000011444092,0|0,1:0|0:0,0:0:0:0:
182,191,46359,2,0,L|150:191,1,30.0000011444092,0|0,1:0|0:0,0:0:0:0:
152,243,46427,2,0,L|118:243,1,30.0000011444092,0|0,1:0|0:0,0:0:0:0:
154,295,46495,2,0,L|120:295,1,30.0000011444092,0|0,1:0|0:0,0:0:0:0:
154,343,46564,6,0,B|27:343|27:343|45:293,1,180.000006866455,4|0,0:0|0:0,0:0:0:0:
152,242,46836,2,0,L|274:242,1,120.000004577637,4|0,0:0|0:0,0:0:0:0:
466,298,47109,2,0,P|482:245|468:184,1,120.000004577637,0|0,1:0|0:0,0:0:0:0:
240,68,47382,6,0,B|197:25,1,60.0000022888184,2|0,0:0|0:0,0:0:0:0:
313,141,47518,2,0,B|355:183,1,60.0000022888184,2|0,0:0|0:0,0:0:0:0:
183,101,47655,6,0,B|140:58,1,60.0000022888184,2|0,0:0|0:0,0:0:0:0:
279,198,47791,2,0,B|321:240,1,60.0000022888184,2|0,0:0|0:0,0:0:0:0:
126,135,47927,6,0,B|83:92,1,60.0000022888184,2|0,0:0|0:0,0:0:0:0:
245,254,48064,2,0,B|287:296,1,60.0000022888184,2|0,0:0|0:0,0:0:0:0:
70,169,48200,6,0,B|27:126,1,60.0000022888184,2|0,0:0|0:0,0:0:0:0:
211,311,48336,2,0,B|253:353,1,60.0000022888184,2|0,0:0|0:0,0:0:0:0:
50,263,48473,6,0,P|20:355|112:323,1,240,2|0,0:1|0:0,0:0:0:0:
183,101,48745,2,0,L|183:163,1,60.0000022888184,2|0,1:0|0:0,0:0:0:0:
253,353,48882,2,0,B|253:293,1,60.0000022888184,2|0,1:0|0:0,0:0:0:0:
327,120,49018,6,0,B|327:255|327:255|370:232,1,180.000006866455,4|0,1:0|0:0,0:0:0:0:
444,120,49291,2,0,P|384:108|328:120,1,120.000004577637,8|8,1:0|1:0,0:0:0:0:
267,292,49564,5,2,0:0:0:0:
92,231,49700,1,0,1:0:0:0:
154,57,49836,1,2,0:0:0:0:
328,120,49973,1,0,1:0:0:0:
208,176,50109,6,0,B|93:175|93:175|113:199,1,143.999995605469,4|0,1:0|0:0,0:0:0:0:
179,274,50382,6,0,B|231:274|231:274|295:306|295:306|351:306,1,180.000006866455,4|0,0:0|0:0,0:0:0:0:
400,304,50655,6,0,L|428:304,1,23.9999992675781,0|0,1:0|0:0,0:0:0:0:
400,264,50723,2,0,L|432:264,1,23.9999992675781,0|0,1:0|0:0,0:0:0:0:
400,220,50791,2,0,L|376:220,1,23.9999992675781,0|0,1:0|0:0,0:0:0:0:
400,176,50859,2,0,L|376:176,1,23.9999992675781,0|0,1:0|0:0,0:0:0:0:
400,132,50927,6,0,P|336:116|260:132,1,143.999995605469,4|0,0:0|0:0,0:0:0:0:
160,184,51200,2,0,L|160:88,1,95.9999970703126,4|0,0:0|0:0,0:0:0:0:
400,132,51473,2,0,L|400:228,1,95.9999970703126,0|0,1:0|0:0,0:0:0:0:
268,336,51745,6,0,L|268:364,1,23.9999992675781,0|0,1:0|0:0,0:0:0:0:
228,336,51813,2,0,L|228:368,1,23.9999992675781,0|0,1:0|0:0,0:0:0:0:
184,336,51881,2,0,L|184:312,1,23.9999992675781,0|0,1:0|0:0,0:0:0:0:
140,336,51949,2,0,L|140:312,1,23.9999992675781,0|0,1:0|0:0,0:0:0:0:
96,336,52018,6,0,B|96:192,1,143.999995605469
48,88,52291,2,0,P|92:76|140:88,1,95.9999970703126,4|4,1:0|1:0,0:0:0:0:
268,336,52564,2,0,B|268:288,1,47.9999985351563,2|0,0:0|0:0,0:0:0:0:
396,216,52700,2,0,B|396:168,1,47.9999985351563,2|0,0:0|0:0,0:0:0:0:
256,112,52836,6,0,L|256:16,2,95.9999970703126,4|0|0,0:0|0:0|0:0,0:0:0:0:
256,112,53245,1,4,0:0:0:0:
464,328,53518,1,4,0:0:0:0:
48,328,53791,2,0,B|48:276|48:276|68:236,1,95.9999970703126,4|0,0:0|1:0,0:0:0:0:
200,36,54064,5,0,1:0:0:0:
312,36,54200,1,8,0:0:0:0:
160,132,54336,1,8,0:0:0:0:
352,132,54473,1,0,1:0:0:0:
124,232,54609,1,8,0:0:0:0:
388,232,54745,1,0,1:0:0:0:
256,360,54882,1,0,1:0:0:0:
256,228,55018,5,4,1:0:0:0:
144,40,55291,1,2,0:0:0:0:
368,40,55564,1,8,0:0:0:0:
196,116,55836,1,2,0:0:0:0:
256,148,55973,1,2,0:0:0:0:
316,116,56109,1,2,0:0:0:0:
100,292,56382,5,2,0:0:0:0:
412,292,56655,1,8,0:0:0:0:
256,148,56927,1,2,0:0:0:0:
256,328,57200,1,2,0:0:0:0:
256,328,57609,1,2,0:0:0:0:
299,258,57882,1,2,0:0:0:0:
377,223,58155,1,2,0:0:0:0:
422,155,58291,6,0,L|404:127,1,23.9999992675781,2|0,0:3|0:0,0:0:0:0:
336,127,58564,22,0,L|318:99,1,23.9999992675781,2|0,0:3|0:0,0:0:0:0:
452,238,58836,38,0,L|480:254,1,23.9999992675781,2|0,0:3|0:0,0:0:0:0:
422,155,59109,22,0,L|450:171,1,23.9999992675781,2|0,0:3|0:0,0:0:0:0:
219,68,59382,5,0,1:0:0:0:
183,256,59655,1,8,1:0:0:0:
220,68,59927,2,0,L|184:256,1,191.999994140625,2|8,0:0|1:0,0:0:0:0:
213,364,60336,1,0,1:0:0:0:
298,294,60473,5,0,1:0:0:0:
343,58,60745,1,8,1:0:0:0:
297,293,61018,2,0,L|342:58,1,240.000009155274,2|8,0:0|1:0,0:0:0:0:
463,38,61564,5,4,1:0:0:0:
409,320,61973,1,4,1:0:0:0:
463,38,62245,2,0,L|407:332,1,287.999991210938,2|2,0:0|0:0,0:0:0:0:
248,351,62655,6,2,B|112:340|112:340|69:367,1,180.000006866455,2|2,1:0|1:0,1:0:0:0:
205,260,62927,2,2,B|309:268|309:268|337:296,1,143.999995605469,2|2,1:0|1:0,1:0:0:0:
237,176,63200,2,2,B|155:170|155:170|121:193,1,120,2|2,1:0|1:0,1:0:0:0:
43,332,63473,6,0,B|44:213,1,120.000004577637,6|2,1:0|0:0,0:0:0:0:
184,43,63745,6,0,B|264:44|264:44|304:64,1,120.000004577637,6|2,1:0|1:0,0:0:0:0:
327,340,64018,2,0,B|248:340|248:340|198:312,1,120.000004577637,2|2,1:0|0:0,0:0:0:0:
184,43,64291,1,2,1:0:0:0:
404,120,64427,1,0,0:0:0:0:
327,340,64563,1,2,0:0:0:0:
107,263,64700,1,2,0:0:0:0:
314,39,64836,5,4,0:0:0:0:
204,346,64973,1,2,0:0:0:0:
108,84,65109,2,0,L|168:84,1,60.0000022888184,2|2,0:0|0:0,0:0:0:0:
333,200,65245,2,0,L|273:200,1,60.0000022888184,2|2,0:0|0:0,0:0:0:0:
106,89,65382,5,2,1:0:0:0:
358,42,65518,1,2,0:0:0:0:
405,294,65654,1,0,0:0:0:0:
153,341,65791,1,2,0:0:0:0:
275,61,65927,5,4,0:0:0:0:
236,321,66064,1,2,0:0:0:0:
276,36,66200,1,0,0:0:0:0:
237,300,66337,1,2,0:0:0:0:
277,13,66473,1,0,0:0:0:0:
160,296,66609,5,2,0:0:0:0:
482,157,66745,1,2,0:0:0:0:
160,17,66882,1,2,0:0:0:0:
384,64,67018,5,6,0:0:0:0:
56,160,67155,1,0,0:0:0:0:
384,232,67291,1,2,1:0:0:0:
56,136,67427,1,2,0:0:0:0:
356,344,67564,6,2,B|216:344|216:344|176:240,1,240,4|0,1:2|0:0,0:0:0:0:
211,74,67836,6,2,P|291:74|307:166,1,180.000006866455,6|2,1:2|0:0,0:0:0:0:
180,250,68109,6,0,B|92:250|92:250|108:208,1,120.000004577637,6|0,0:0|0:0,0:0:0:0:
384,64,68382,2,0,B|472:64|472:64|456:96,1,120.000004577637,2|2,0:0|0:0,0:0:0:0:
356,344,68655,1,2,0:0:0:0:
384,64,68791,1,0,0:0:0:0:
320,348,68927,1,2,0:0:0:0:
303,55,69064,1,2,0:0:0:0:
280,352,69200,5,4,0:0:0:0:
228,20,69336,1,2,0:0:0:0:
140,192,69473,2,0,B|213:192,1,70.000000667572,2|2,0:0|0:0,0:0:0:0:
384,248,69609,2,0,B|308:248,1,70.000000667572,2|2,0:0|0:0,0:0:0:0:
172,328,69745,5,2,0:0:0:0:
384,248,69882,1,2,0:0:0:0:
172,144,70018,1,0,1:0:0:0:
384,64,70155,1,2,0:0:0:0:
112,56,70291,5,4,0:3:0:0:
60,112,70359,1,4,0:3:0:0:
44,188,70427,1,4,0:3:0:0:
60,264,70495,1,4,0:3:0:0:
112,320,70564,2,0,B|160:356|160:356|220:356,1,120.000004577637,4|0,0:3|0:0,0:0:0:0:
400,56,70836,5,4,0:3:0:0:
452,112,70904,1,4,0:3:0:0:
468,188,70972,1,4,0:3:0:0:
452,264,71040,1,4,0:3:0:0:
400,320,71109,2,0,B|352:356|352:356|292:356,1,120.000004577637,4|0,0:3|0:0,0:0:0:0:
156,56,71382,6,2,B|256:16|360:56,1,210.000002002716,4|0,1:2|0:0,0:0:0:0:
344,328,71655,6,2,B|256:364|169:328,1,180.000006866455,6|2,1:2|0:0,0:0:0:0:
184,80,71927,6,2,B|255:50|329:80,1,150,6|2,1:2|0:0,0:0:0:0:
300,248,72200,6,2,P|256:322|217:245,1,210.000002002716,6|0,1:0|0:0,0:0:0:0:
145,63,72473,6,0,P|103:103|87:163,1,120.000004577637,4|2,1:0|0:0,0:0:0:0:
423,160,72745,2,0,P|408:103|365:60,1,120.000004577637,2|2,0:0|0:0,0:0:0:0:
112,280,73018,1,2,0:0:0:0:
400,280,73155,1,0,0:0:0:0:
256,56,73291,1,2,1:0:0:0:
112,280,73427,1,2,0:0:0:0:
424,160,73564,6,0,B|304:160,1,120.000004577637,4|2,0:0|0:0,0:0:0:0:
77,356,73836,2,0,B|149:356,1,70.000000667572,2|2,0:0|0:0,0:0:0:0:
340,236,73973,2,0,B|268:236,1,70.000000667572,2|2,0:0|0:0,0:0:0:0:
101,87,74109,6,0,B|100:166|100:166|121:207,1,120.000004577637,0|2,0:0|0:0,0:0:0:0:
411,297,74382,2,0,B|411:217|411:217|391:177,1,120.000004577637,0|2,0:0|0:0,0:0:0:0:
101,86,74655,5,4,0:0:0:0:
150,347,74791,1,2,0:0:0:0:
411,298,74927,1,0,0:0:0:0:
362,37,75064,1,2,0:0:0:0:
101,86,75200,1,4,0:0:0:0:
256,352,75336,5,2,0:0:0:0:
473,138,75473,1,2,0:0:0:0:
41,138,75609,1,2,0:0:0:0:
456,296,75745,6,0,B|456:241|456:241|473:193|473:193|473:137,1,160,6|0,0:0|0:0,0:0:0:0:
41,138,76018,2,0,B|41:193|41:193|58:241|58:241|58:297,1,160,2|0,0:0|0:0,0:0:0:0:
312,352,76291,6,0,L|312:280,1,60.0000022888184,6|0,0:2|2:0,0:0:0:0:
354,107,76427,2,0,L|354:181,1,60.0000022888184,6|0,1:2|2:0,0:0:0:0:
432,352,76564,1,6,1:2:0:0:
432,352,76632,1,2,0:2:0:0:
432,352,76700,1,2,0:2:0:0:
432,352,76768,1,2,0:2:0:0:
432,352,76836,6,0,B|432:283|432:283|460:228,2,120.000004577637,4|6|0,1:2|0:2|0:0,0:0:0:0:
200,74,77245,6,0,L|256:52,1,60.0000022888184,6|0,1:2|2:0,0:0:0:0:
177,158,77655,6,0,L|224:140,1,50,6|0,1:2|2:0,0:0:0:0:
158,243,78064,6,0,L|196:228,1,40,6|0,1:2|2:0,0:0:0:0:
96,324,78336,5,6,1:2:0:0:
96,324,78473,2,0,B|140:320|168:352|168:352|188:352|188:352|216:320|260:324,1,180.000006866455,6|6,0:2|0:2,0:0:0:0:
344,24,79155,5,2,0:0:0:0:
392,128,79291,1,0,0:0:0:0:
120,128,79427,5,2,0:0:0:0:
168,24,79564,1,0,0:0:0:0:
392,256,79700,5,2,0:0:0:0:
344,360,79836,1,0,0:0:0:0:
168,360,79973,5,2,0:0:0:0:
120,256,80109,1,0,0:0:0:0:
256,192,80177,12,6,80927,0:0:0:0:
256,228,81200,5,4,1:0:0:0:
144,40,81473,1,2,0:0:0:0:
368,40,81746,1,8,0:0:0:0:
196,116,82018,1,2,0:0:0:0:
256,148,82155,1,2,0:0:0:0:
316,116,82291,1,0,0:0:0:0:
100,292,82564,5,2,0:0:0:0:
412,292,82837,1,8,0:0:0:0:
256,148,83109,1,2,0:0:0:0:
256,328,83382,1,2,0:0:0:0:
256,328,83791,1,2,0:0:0:0:
213,258,84064,1,2,0:0:0:0:
135,223,84337,1,2,0:0:0:0:
90,155,84473,6,0,L|108:127,1,23.9999992675781,2|0,0:3|0:0,0:0:0:0:
176,127,84745,22,0,L|194:99,1,23.9999992675781,2|0,0:3|0:0,0:0:0:0:
60,238,85018,38,0,L|32:254,1,23.9999992675781,2|0,0:3|0:0,0:0:0:0:
90,155,85291,38,0,L|62:171,1,23.9999992675781,2|0,0:3|0:0,0:0:0:0:
64,40,85564,5,2,0:0:0:0:
272,132,85836,1,2,0:0:0:0:
156,332,86109,1,8,0:0:0:0:
404,352,86382,2,0,B|424:324|424:324|424:248,1,95.9999970703126
416,144,86655,6,0,B|384:168|360:180|328:184|288:176|256:160|240:132|236:92|244:72|260:48|272:36|308:24|340:36|352:60|352:96|336:120|324:136|292:152|248:148|200:120|172:108|172:108|220:188|220:252,1,660.000025177003,4|0,0:1|0:0,0:0:0:0:
224,300,87473,5,0,1:0:0:0:
200,340,87541,1,0,1:0:0:0:
156,356,87609,1,0,1:0:0:0:
108,348,87677,1,0,1:0:0:0:
72,316,87745,6,0,B|44:276|44:276|44:228,1,95.9999970703126,4|4,0:0|0:0,0:0:0:0:
292,160,88018,2,2,P|316:112|248:104,1,143.999995605469
236,224,88291,6,0,B|192:208|192:208|164:168,1,95.9999970703126,4|4,0:0|0:0,0:0:0:0:
48,36,88564,2,2,P|24:84|92:92,1,143.999995605469
152,16,88836,22,0,L|204:36,1,47.9999985351563,4|0,0:0|0:0,0:0:0:0:
360,16,88973,2,0,L|308:36,1,47.9999985351563,0|0,0:0|0:0,0:0:0:0:
256,192,89143,6,0,L|256:116,4,71.9999978027344,2|2|2|2|2,0:0|0:0|0:0|0:0|0:0,0:0:0:0:
394,325,89655,6,0,B|306:325|306:325|258:289,1,143.999995605469,4|0,0:0|0:0,0:0:0:0:
154,229,89927,6,0,P|132:165|156:103,1,136.000002593994,0|0,1:0|0:0,0:0:0:0:
372,232,90200,2,0,P|328:282|262:292,1,136.000002593994,0|0,1:0|0:0,0:0:0:0:
266,41,90473,2,0,P|331:53|373:105,1,136.000002593994,0|0,1:0|0:0,0:0:0:0:
390,233,90745,6,0,P|415:160|388:88,1,136.000002593994,0|0,1:0|0:0,0:0:0:0:
139,236,91018,2,0,P|189:294|265:306,1,136.000002593994,0|0,1:0|0:0,0:0:0:0:
261,16,91291,2,0,P|186:31|137:91,1,136.000002593994,0|0,1:0|0:0,0:0:0:0:
139,235,91564,6,0,P|108:296|177:305,1,160,4|0,0:0|0:0,0:0:0:0:
353,303,91836,2,0,P|421:294|390:233,1,160,4|0,0:0|0:0,0:0:0:0:
196,144,92109,6,0,P|256:88|316:144,1,180.000006866455,0|0,1:0|0:0,0:0:0:0:
432,168,92382,2,0,P|441:116|386:106,1,120.000004577637,0|0,1:0|0:0,0:0:0:0:
168,180,92655,5,0,1:0:0:0:
150,223,92723,1,0,1:0:0:0:
155,271,92791,1,0,1:0:0:0:
186,309,92859,1,0,1:0:0:0:
234,315,92927,1,0,1:0:0:0:
278,295,92995,1,0,1:0:0:0:
321,320,93064,1,0,1:0:0:0:
372,315,93132,1,0,1:0:0:0:
408,280,93200,6,0,B|432:247|432:247|432:163,1,120.000004577637,2|2,0:0|0:0,0:0:0:0:
280,52,93473,1,8,1:0:0:0:
224,236,93609,1,0,1:0:0:0:
87,106,93745,6,0,B|63:139|63:139|63:223,1,120.000004577637,2|2,0:0|0:0,0:0:0:0:
203,321,94018,1,8,1:0:0:0:
288,148,94155,1,0,1:0:0:0:
352,60,94291,6,0,B|288:36|288:36|224:60,1,136.000002593994,0|0,1:0|0:0,0:0:0:0:
332,247,94564,2,0,B|384:204|384:204|396:136,1,136.000002593994,0|0,1:0|0:0,0:0:0:0:
179,136,94836,2,0,B|191:204|191:204|243:247,1,136.000002593994,0|0,1:0|0:0,0:0:0:0:
425,70,95109,6,0,B|444:135|444:135|416:197,1,136.000002593994,0|0,1:0|0:0,0:0:0:0:
152,68,95382,2,0,B|199:18|199:18|267:11,1,136.000002593994,0|0,1:0|0:0,0:0:0:0:
286,305,95655,2,0,B|220:289|220:289|180:234,1,136.000002593994,0|0,1:0|0:0,0:0:0:0:
152,68,95927,6,0,B|77:38|77:38|47:112,1,160,4|0,0:0|0:0,0:0:0:0:
47,271,96200,2,0,B|77:345|77:345|152:316,1,160,4|0,0:0|0:0,0:0:0:0:
240,192,96473,5,0,1:0:0:0:
396,80,96609,1,0,1:0:0:0:
396,304,96745,2,0,B|360:304|360:304|320:320|320:320|280:320,1,120.000004577637,0|0,1:0|0:0,0:0:0:0:
120,224,97018,6,0,L|112:184,7,40
144,96,97564,6,0,B|200:96|200:96|268:76|268:76|324:76,1,180.000006866455,4|0,1:0|0:0,0:0:0:0:
448,168,97836,6,0,B|396:168|396:168|334:149|334:149|282:149,1,167.999994873047,4|0,1:0|0:0,0:0:0:0:
168,208,98109,6,0,B|215:208|215:208|273:224|273:224|320:224,1,155.999992858887,4|0,1:0|0:0,0:0:0:0:
432,284,98382,6,0,B|387:284|387:284|334:299|334:299|290:299,1,143.999995605469,4|0,1:0|0:0,0:0:0:0:
176,320,98655,5,0,1:0:0:0:
12,316,98791,1,0,0:0:0:0:
12,152,98927,1,0,1:0:0:0:
176,152,99064,1,0,0:0:0:0:
270,231,99200,5,0,1:0:0:0:
365,311,99336,1,0,0:0:0:0:
470,183,99473,1,0,1:0:0:0:
376,104,99609,1,0,0:0:0:0:
281,24,99745,6,0,B|188:24|188:24|144:36,1,136.000002593994,0|0,1:0|0:0,0:0:0:0:
146,348,100018,2,0,B|188:360|188:360|281:360,1,136.000002593994,0|0,1:0|0:0,0:0:0:0:
470,183,100291,6,0,B|432:198|432:198|373:198|373:198|338:211,1,136.000002593994,4|0,0:0|0:0,0:0:0:0:
42,201,100564,2,0,B|80:186|80:186|139:186|139:186|174:173,1,136.000002593994,4|0,0:0|0:0,0:0:0:0:
256,320,100836,6,0,B|256:224,1,95.9999970703126,4|0,1:0|0:0,0:0:0:0:
321,31,101109,1,0,0:0:0:0:
187,350,101245,1,0,0:0:0:0:
186,32,101382,1,2,0:0:0:0:
323,349,101518,1,2,0:0:0:0:
95,123,101655,1,2,0:0:0:0:
414,257,101791,1,2,0:0:0:0:
96,259,101927,1,0,1:0:0:0:
413,122,102064,1,0,0:0:0:0:
225,264,102200,5,2,0:0:0:0:
205,323,102268,1,2,0:0:0:0:
256,360,102336,1,2,0:0:0:0:
306,323,102405,1,2,0:0:0:0:
287,263,102473,2,0,L|287:215,1,47.9999985351563
344,32,102609,2,0,L|344:80,1,47.9999985351563
460,224,102745,6,2,B|460:324|460:324|388:368,1,180.000006866455,6|2,0:0|0:0,0:0:0:0:
256,360,103018,6,0,B|264:320|264:320|248:272|248:272|256:228,1,136.000002593994,0|0,1:0|0:0,0:0:0:0:
256,24,103291,2,0,B|264:64|264:64|248:112|248:112|256:156,1,136.000002593994,0|0,1:0|0:0,0:0:0:0:
137,310,103564,6,0,B|171:288|171:288|193:242|193:242|230:217,1,136.000002593994,0|0,1:0|0:0,0:0:0:0:
374,73,103837,2,0,B|352:107|352:107|306:129|306:129|281:166,1,136.000002593994,0|0,1:0|0:0,0:0:0:0:
88,191,104109,6,0,B|127:200|127:200|176:184|176:184|220:192,1,136.000002593994,0|0,1:0|0:0,0:0:0:0:
504,192,104382,1,0,1:0:0:0:
456,216,104450,1,0,1:0:0:0:
408,192,104518,1,0,1:0:0:0:
360,168,104586,1,0,1:0:0:0:
316,192,104655,6,0,B|216:192,1,95.9999970703126,4|0,1:0|0:0,0:0:0:0:
72,176,104927,2,0,L|72:152,7,23.9999992675781,2|2|2|2|2|2|2|0,0:0|0:0|0:0|0:0|0:0|0:0|0:0|0:0,0:0:0:0:
73,96,105200,6,0,B|108:52|108:52|232:52,1,180.000006866455,4|0,1:0|0:0,0:0:0:0:
336,96,105473,6,0,B|304:131|304:131|256:132,1,95.9999970703126,0|0,1:0|0:0,0:0:0:0:
132,169,105745,2,0,B|179:180|179:180|204:222,1,95.9999970703126,0|0,1:0|0:0,0:0:0:0:
298,310,106018,2,0,B|284:264|284:264|307:222,1,95.9999970703126,0|0,1:0|0:0,0:0:0:0:
256,132,106291,6,0,B|329:27|329:27|316:82,1,180.000006866455,4|0,1:0|0:0,0:0:0:0:
208,199,106564,6,0,B|86:239|86:239|127:203,1,180.000006866455,4|0,1:0|0:0,0:0:0:0:
287,171,106836,6,0,B|408:209|408:209|353:215,1,180.000006866455,4|0,1:0|0:0,0:0:0:0:
207,148,107109,6,2,B|130:45|130:45|178:73,1,180.000006866455,4|0,1:0|0:0,0:0:0:0:
257,213,107382,6,0,B|257:306|257:306|233:275,1,120.000004577637,6|0,1:0|0:0,0:0:0:0:
172,116,107655,1,0,0:0:0:0:
80,214,107791,2,0,B|80:307|80:307|96:286,1,120.000004577637,6|0,1:0|0:0,0:0:0:0:
172,116,108064,1,0,0:0:0:0:
485,126,108200,2,0,B|417:126|417:126|374:150|374:150|312:150,1,180.000006866455,4|0,2:0|0:0,0:0:0:0:
246,74,108473,6,0,L|64:96,1,180.000006866455,4|0,1:0|0:0,0:0:0:0:
64,241,108745,6,0,L|230:221,1,167.999994873047,4|0,1:0|0:0,0:0:0:0:
239,92,109018,6,0,L|72:111,1,155.999992858887,4|0,1:0|0:0,0:0:0:0:
74,225,109291,6,0,L|240:204,1,143.999995605469,4|0,1:0|0:0,0:0:0:0:
368,236,109564,6,0,B|339:222|339:222|316:202|316:202|307:174|307:174|308:145,1,120.000004577637,6|0,1:0|0:0,0:0:0:0:
292,24,109837,1,0,0:0:0:0:
456,180,109973,2,0,B|455:148|455:148|445:119|445:119|424:100|424:100|398:88,1,120.000004577637,6|0,1:0|0:0,0:0:0:0:
292,24,110245,1,0,0:0:0:0:
382,226,110382,2,0,P|370:143|440:187,1,210.000002002716,4|0,0:0|0:0,0:0:0:0:
464,276,110655,6,0,B|488:330|488:330|424:303|362:305,1,180.000006866455,4|0,1:0|0:0,0:0:0:0:
308,348,110927,6,0,B|256:340|200:360|200:360|228:296,1,180.000006866455,4|0,1:0|0:0,0:0:0:0:
288,248,111200,6,0,B|312:194|312:194|248:221|194:219,1,180.000006866455,4|0,1:0|0:0,0:0:0:0:
144,160,111473,6,0,B|90:161|26:134|26:134|50:188,1,180.000006866455,4|0,1:0|0:0,0:0:0:0:
68,232,111745,5,0,1:0:0:0:
76,288,111814,1,0,0:0:0:0:
120,320,111882,1,0,1:0:0:0:
172,320,111950,1,0,0:0:0:0:
212,284,112018,1,0,1:0:0:0:
264,284,112086,1,0,0:0:0:0:
304,248,112155,1,0,1:0:0:0:
356,248,112223,1,0,0:0:0:0:
396,212,112291,6,0,B|492:212|492:212|480:236,1,120.000004577637,4|0,0:0|0:0,0:0:0:0:
400,316,112564,1,8,0:0:0:0:
400,132,112700,1,4,0:0:0:0:
254,48,112836,6,0,B|208:48|208:48|179:72|179:72|126:72|126:72|102:72|84:55|91:30|109:16|134:19|148:51|141:83|119:104|89:120|89:120|127:124|158:155|161:188|144:226,1,448,4|0,1:0|0:0,0:0:0:0:
88,288,113382,6,0,L|80:328,1,30.0000011444092,2|2,0:3|0:0,0:0:0:0:
212,356,113518,2,0,L|208:324,1,30.0000011444092,2|2,0:0|0:0,0:0:0:0:
336,284,113655,2,0,L|332:316,1,30.0000011444092,2|0,0:0|0:0,0:0:0:0:
460,356,113791,2,0,L|456:324,1,30.0000011444092,2|0,0:0|0:0,0:0:0:0:
468,220,113927,5,0,1:0:0:0:
439,132,114064,1,2,0:0:0:0:
364,80,114200,1,2,0:0:0:0:
320,192,114336,5,0,1:0:0:0:
256,292,114473,1,2,0:0:0:0:
192,192,114609,1,2,0:0:0:0:
148,80,114745,5,0,1:0:0:0:
73,132,114881,1,2,0:0:0:0:
44,220,115018,2,0,B|40:272|88:288|88:288|132:260|176:276,1,180.000006866455,4|0,0:0|0:0,0:0:0:0:
256,292,115291,1,8,0:0:0:0:
256,40,115564,1,8,0:0:0:0:
448,192,115836,6,0,P|505:221|444:258,1,160,4|0,0:0|0:0,0:0:0:0:
