osu file format v14

[General]
AudioFilename: Crack Traxxxx.mp3
AudioLeadIn: 0
PreviewTime: 63745
Countdown: 0
SampleSet: Normal
StackLeniency: 0.3
Mode: 0
LetterboxInBreaks: 0
EpilepsyWarning: 1
WidescreenStoryboard: 0

[Editor]
DistanceSpacing: 0.8
BeatDivisor: 4
GridSize: 4
TimelineZoom: 2.599999

[Metadata]
Title:Crack Traxxxx
TitleUnicode:Crack Traxxxx
Artist:Lite Show Magic (t+pazolite vs C-Show)
ArtistUnicode:Lite Show Magic (t+pazolite vs C-Show)
Creator:Fatfan Kolek
Version:fanzhen's Hi-Speed Extra
Source:SOUND VOLTEX II -infinite infection-
Tags:t+pazolite c-show TKSalt TKS Dariano Fanzhen0019 Oracle Natsu P_A_N Aka EvilElvis Gero Onosakihito DJNightmare Fast Spectator sukiNathan Okoratu
BeatmapID:367763
BeatmapSetID:139525

[Difficulty]
HPDrainRate:7
CircleSize:4
OverallDifficulty:7
ApproachRate:9.7
SliderMultiplier:1.92
SliderTickRate:2

[Events]
//Background and Video events
0,0,"bg.jpg",0,0
//Break Periods
2,55354,58887
//Storyboard Layer 0 (Background)
//Storyboard Layer 1 (Fail)
//Storyboard Layer 2 (Pass)
//Storyboard Layer 3 (Foreground)
Sprite,Foreground,Centre,"SB/glowmap.png",320,240 P,0,0,119170,A F,0,2382,,0 M,0,2655,,320,240 S,0,2655,,0.7963637 F,0,2655,4836,1,0 F,0,7018,7291,1,0 F,0,7427,9200,1,0 F,0,12473,12609,1,0 F,0,12745,12882,1,0 F,0,13018,13155,1,0 F,0,13291,13427,1,0 F,0,14655,14791,1,0 F,0,14927,15064,1,0 F,0,15200,15336,1,0 F,0,15473,15609,1,0 F,0,15745,,0.08145462 F,0,15882,,0.4319658 F,0,16018,,0.6533606 F,0,16155,,0.9287182 F,0,16291,16836,1,0 F,0,16905,,0.5032727 F,0,16973,,0.1803636 F,0,17041,,0.5789091 F,0,17109,,0.2065455 F,0,17177,,0.7301819 F,0,17245,,0.1396364 F,0,17314,,0.7883637 F,0,17382,17927,1,0 F,0,19836,20041,1,0 F,0,20109,22291,1,0 F,0,24200,24473,1,0 F,0,30745,,1 F,0,30814,,0 F,0,30882,,1 F,0,30950,,0 F,0,32927,,1 F,0,32995,,0 F,0,33064,,1 F,0,33132,,0 F,0,34018,,1 F,0,34086,,0 F,0,34155,,1 F,0,34223,,0 F,2,35109,35382,0.2589091,1 F,0,35382,36405,1,0 F,0,36473,36677,1,0 F,0,36745,36950,1,0 F,0,37018,37223,1,0 F,0,37291,37495,1,0 F,0,55018,57200,1,0 F,0,62689,,1 F,0,62723,,0 F,0,62791,,1 F,0,62825,,0 F,0,62893,,1 F,0,62927,,0 F,0,62995,,1 F,0,63030,,0 F,0,63098,,1 F,0,63132,,0 F,0,63200,,1 F,0,63234,,0 F,0,63302,,1 F,0,63336,,0 F,0,63405,,1 F,0,63439,,0 F,0,63473,63745,1,0 F,0,67564,67791,1,0 F,0,67836,68064,1,0 F,0,71382,71620,1,0 F,0,71655,71893,1,0 F,0,71927,72166,1,0 F,0,72200,72439,1,0 F,0,76291,,0.3309091 F,0,76359,,0 F,0,76427,,0.674909 F,0,76495,,0 F,0,76564,,1 F,0,76598,,0 F,0,76632,,1 F,0,76666,,0 F,0,76700,,1 F,0,76734,,0 F,0,76768,,1 F,0,76802,,0 F,0,80927,81064,1,0 F,0,81200,82291,1,0 F,0,87745,87814,0.1716364,0 F,0,87882,87950,0.3316363,0 F,0,88018,88223,1,0 F,0,88291,88359,0.1396364,0 F,0,88427,88495,0.3141819,0 F,0,88564,88768,1,0 F,0,88836,89586,1,0 F,0,89655,89927,1,0 F,0,107382,107655,0.5789091,0 F,0,107791,108064,1,0 F,0,108200,108405,0.994909,0 F,0,108473,108950,1,0 F,0,109018,109495,1,0 F,0,109564,109905,1,0 F,0,109973,110245,1,0 F,0,110382,110586,0.9163637,0 F,0,110655,111132,1,0 F,0,111200,111677,1,0 F,0,115836,116109,1,0
Sprite,Foreground,Centre,"SB/glowmap.png",320,240 P,0,0,119170,A F,0,63677,,0 S,0,63745,,0.7963637 F,0,63745,63984,1,0 F,0,64018,64257,1,0 F,0,64291,64530,1,0 F,0,64564,64803,1,0 F,0,64836,65075,1,0 F,0,65109,65348,1,0 F,0,65382,65621,1,0 F,0,65655,65894,1,0 F,0,65927,66166,1,0 F,0,66200,66439,1,0 F,0,66473,66712,1,0 F,0,66745,66984,1,0 F,0,67018,67257,1,0 F,0,67291,67530,1,0 F,0,68109,68348,1,0 F,0,68382,68621,1,0 F,0,68655,68894,1,0 F,0,68927,69166,1,0 F,0,69200,69439,1,0 F,0,69473,69712,1,0 F,0,69745,69984,1,0 F,0,70018,70257,1,0 F,0,70291,70530,1,0 F,0,70564,70803,1,0 F,0,70836,71075,1,0 F,0,71109,71348,1,0 F,0,72473,72712,1,0 F,0,72745,72984,1,0 F,0,73018,73257,1,0 F,0,73291,73530,1,0 F,0,73564,73803,1,0 F,0,73836,74075,1,0 F,0,74109,74348,1,0 F,0,74382,74621,1,0 F,0,74655,74894,1,0 F,0,74927,75166,1,0 F,0,75200,75439,1,0 F,0,75473,75712,1,0 F,0,75745,75984,1,0 F,0,76018,76257,1,0 F,0,76836,77075,1,0 F,0,77245,77484,1,0 F,0,77655,77894,1,0 F,0,78064,78303,1,0 F,0,78336,78575,1,0
Sprite,Foreground,Centre,"SB/glowmap.png",320,240 P,0,0,119170,A S,0,63745,,0.7963637 F,0,78405,,0 F,0,78473,78712,1,0 F,0,79155,79394,1,0 F,0,79427,79666,1,0 F,0,79700,79939,1,0 F,0,79973,80212,1,0
Sprite,Foreground,Centre,"SB/glowmap.png",320,240 P,0,0,119170,A S,0,63745,,0.7963637 F,0,80041,,0 F,0,80109,80348,1,0 F,0,100836,101382,0.541091,0
//Storyboard Sound Samples

[TimingPoints]
2655,272.727272727273,4,2,0,75,1,0
11109,-83.3333333333333,4,2,0,75,0,0
12473,-66.6666666666667,4,2,0,75,0,0
12745,-100,4,2,0,75,0,0
13018,-133.333333333333,4,2,0,75,0,0
13291,-200,4,2,0,75,0,0
13564,-83.3333333333333,4,2,0,75,0,0
14655,-200,4,2,0,75,0,0
14927,-133.333333333333,4,2,0,75,0,0
15200,-100,4,2,0,75,0,0
15473,-66.6666666666667,4,2,0,75,0,0
15745,-83.3333333333333,4,2,0,75,0,0
27473,-133.333333333333,4,2,0,75,0,0
27745,-83.3333333333333,4,2,0,75,0,0
28836,-83.3333333333333,4,2,0,75,0,0
36473,-50,4,2,0,75,0,0
36745,-66.6666666666667,4,2,0,75,0,0
37018,-100,4,2,0,75,0,0
37291,-133.333333333333,4,2,0,75,0,0
37836,-83.3333333333333,4,2,0,75,0,0
38655,-66.6666666666667,4,2,0,75,0,0
39200,-50,4,2,0,75,0,0
40018,-83.3333333333333,4,2,0,75,0,0
41382,-66.6666666666667,4,2,0,75,0,0
43564,-50,4,2,0,75,0,0
45200,-83.3333333333333,4,2,0,75,0,0
47382,-66.6666666666667,4,2,0,75,0,0
47927,-50,4,2,0,75,0,0
48745,-66.6666666666667,4,2,0,75,0,0
49291,-83.3333333333333,4,2,0,75,0,0
61018,-66.6666666666667,4,2,0,75,0,0
61291,-83.3333333333333,4,2,0,75,0,0
62245,-55.5555555555556,4,2,0,75,0,0
62518,-133.333333333333,4,2,0,75,0,0
62655,-133.333333333333,4,2,0,75,0,0
63473,-66.6666666666667,4,2,0,75,0,0
63745,-66.6666666666667,4,1,0,75,0,1
64018,-66.6666666666667,4,1,0,75,0,1
70564,-50,4,1,0,75,0,1
71382,-66.6666666666667,4,1,0,75,0,1
78745,-133.333333333333,4,1,0,75,0,1
78882,-90.9090909090909,4,1,0,75,0,1
80109,-83.3333333333333,4,2,0,75,0,0
84745,-83.3333333333333,4,2,0,55,0,0
85018,-83.3333333333333,4,2,0,35,0,0
85291,-83.3333333333333,4,2,0,20,0,0
85564,-83.3333333333333,4,2,0,75,0,0
86655,-133.333333333333,4,2,0,75,0,0
88018,-66.6666666666667,4,2,0,75,0,0
89927,-83.3333333333333,4,2,0,75,0,0
91564,-66.6666666666667,4,2,0,75,0,0
93200,-133.333333333333,4,2,0,75,0,0
94291,-83.3333333333333,4,2,0,75,0,0
95927,-66.6666666666667,4,2,0,75,0,0
97223,-83.3333333333333,4,2,0,75,0,0
97291,-83.3333333333333,4,2,0,75,0,0
97359,-83.3333333333333,4,2,0,75,0,0
97427,-83.3333333333333,4,2,0,75,0,0
97495,-83.3333333333333,4,2,0,75,0,0
100291,-66.6666666666667,4,2,0,75,0,0
102745,-200,4,2,0,75,0,0
103018,-66.6666666666667,4,2,0,75,0,0
107382,-83.3333333333333,4,2,0,75,0,0
108473,-83.3333333333333,4,2,0,75,0,0
112836,-66.6666666666667,4,2,0,75,0,0
113382,-83.3333333333333,4,2,0,75,0,0
115018,-200,4,2,0,75,0,0
115836,-66.6666666666667,4,2,0,75,0,0

[Colours]
Combo1 : 128,0,255
Combo2 : 255,0,0
Combo3 : 0,255,255
Combo4 : 255,128,64

[HitObjects]
284,84,7018,5,8,2:0:0:0:
232,308,7427,1,8,2:0:0:0:
212,296,7836,6,0,L|204:240,1,48,0|0,1:0|0:0,0:0:0:0:
312,144,7973,2,0,L|304:88,1,48,0|0,1:0|0:0,0:0:0:0:
192,68,8109,5,0,1:0:0:0:
320,316,8518,1,2,0:0:0:0:
348,308,8927,6,0,B|356:244|356:244|348:208,1,96,2|0,0:0|0:0,0:0:0:0:
192,68,9200,5,4,1:0:0:0:
320,316,9609,1,0,0:0:0:0:
348,308,10018,6,0,B|356:244|356:244|348:208,1,96,0|0,0:0|0:0,0:0:0:0:
368,32,10291,6,0,L|424:36,1,48,2|0,0:1|0:0,0:0:0:0:
428,116,10427,2,0,L|484:120,1,48,2|0,0:1|0:0,0:0:0:0:
364,200,10564,6,0,L|420:204,1,48,2|2,0:1|0:1,0:0:0:0:
424,284,10700,2,0,L|480:288,1,48,2|2,0:1|0:1,0:0:0:0:
360,360,10836,6,0,L|240:356,1,96,4|0,0:0|0:0,0:0:0:0:
128,280,11109,6,0,B|80:340|80:340|116:376|176:352,1,172.799994726563,6|0,1:0|0:0,0:0:0:0:
212,264,11382,6,0,P|228:196|208:140,1,115.199996484375,4|0,0:0|0:0,0:0:0:0:
132,116,11655,1,0,1:0:0:0:
240,288,11791,2,0,P|256:184|208:60,1,230.39999296875,0|0,0:0|0:0,0:0:0:0:
132,116,12200,1,0,1:0:0:0:
216,153,12336,1,0,0:0:0:0:
328,72,12473,6,0,B|496:64|496:64|440:112,1,216.000008239746,2|0,0:3|0:0,0:0:0:0:
348,152,12745,6,0,B|232:148|232:148|249:170,1,144,2|0,0:3|0:0,0:0:0:0:
428,212,13018,6,0,B|508:208|508:208|476:240,1,108.000004119873,2|0,0:3|0:0,0:0:0:0:
376,272,13291,6,0,B|329:269|329:269|344:292,1,72,2|0,0:3|0:0,0:0:0:0:
256,312,13564,6,0,P|192:312|144:296,1,115.199996484375,4|0,0:0|0:0,0:0:0:0:
108,212,13836,1,0,1:0:0:0:
268,344,13973,2,0,P|152:340|44:280,1,230.39999296875,0|0,0:0|0:0,0:0:0:0:
108,212,14382,1,0,1:0:0:0:
144,296,14518,1,0,0:0:0:0:
328,268,14655,6,0,B|368:272|384:276|384:276|372:256,1,72,2|0,0:3|0:0,0:0:0:0:
272,220,14927,6,0,B|228:212|196:220|196:220|220:184,1,108.000004119873,2|0,0:3|0:0,0:0:0:0:
344,172,15200,6,0,B|396:164|448:180|448:180|424:140,1,144,2|0,0:3|0:0,0:0:0:0:
264,100,15473,6,0,B|200:84|100:100|100:100|144:60,1,216.000008239746,2|0,0:3|0:0,0:0:0:0:
356,32,15745,6,0,L|388:28,1,28.7999991210938,2|0,2:0|2:0,0:0:0:0:
472,100,15882,2,0,L|440:96,1,28.7999991210938,2|0,0:0|2:0,0:0:0:0:
344,172,16018,2,0,L|376:168,1,28.7999991210938,2|0,2:0|2:0,0:0:0:0:
460,240,16155,2,0,L|428:236,1,28.7999991210938,2|0,2:0|2:0,0:0:0:0:
336,304,16291,6,0,P|268:328|184:256,1,172.799994726563,4|0,0:0|0:0,0:0:0:0:
132,204,16564,2,0,P|104:248|116:316,1,115.199996484375,8|0,0:0|0:0,0:0:0:0:
32,296,16836,6,0,L|4:304,1,28.7999991210938,0|0,1:0|0:0,0:0:0:0:
40,264,16905,2,0,L|12:272,1,28.7999991210938,0|0,1:0|0:0,0:0:0:0:
36,232,16973,2,0,L|8:240,1,28.7999991210938,0|0,1:0|0:0,0:0:0:0:
44,200,17042,2,0,L|16:208,1,28.7999991210938,0|0,0:0|0:0,0:0:0:0:
52,168,17109,6,0,L|80:176,1,28.7999991210938,0|0,1:0|0:0,0:0:0:0:
44,136,17178,2,0,L|72:144,1,28.7999991210938,0|0,0:0|0:0,0:0:0:0:
44,104,17245,2,0,L|72:112,1,28.7999991210938,0|0,1:0|0:0,0:0:0:0:
36,72,17314,2,0,L|64:80,1,28.7999991210938,0|0,0:0|0:0,0:0:0:0:
48,36,17382,6,0,P|108:24|192:92,1,172.799994726563,4|0,0:0|0:0,0:0:0:0:
192,172,17655,2,0,P|236:164|276:108,1,115.199996484375,8|0,0:0|0:0,0:0:0:0:
316,28,17927,5,4,1:0:0:0:
332,348,18064,1,0,0:0:0:0:
364,360,18132,1,0,0:0:0:0:
396,372,18200,5,0,0:0:0:0:
464,308,18336,1,2,0:0:0:0:
484,216,18473,1,2,0:0:0:0:
460,128,18609,1,2,0:0:0:0:
408,52,18745,1,0,0:0:0:0:
316,28,18882,1,2,0:0:0:0:
224,36,19018,1,2,0:0:0:0:
28,168,19291,5,2,0:0:0:0:
484,216,19564,1,2,0:0:0:0:
484,216,19632,1,0,0:0:0:0:
484,216,19700,1,0,0:0:0:0:
368,136,19836,2,0,L|380:272,1,115.199996484375,4|2,1:0|0:3,0:0:0:0:
304,328,20109,6,0,P|256:352|184:340,1,115.199996484375,0|2,1:0|0:3,0:0:0:0:
20,304,20382,2,0,P|68:328|140:316,1,115.199996484375,0|2,1:0|0:3,0:0:0:0:
308,308,20655,6,0,P|260:332|188:320,1,115.199996484375,0|2,1:0|0:3,0:0:0:0:
24,284,20928,2,0,P|72:308|144:296,1,115.199996484375,0|2,1:0|0:3,0:0:0:0:
312,288,21200,6,0,P|264:312|192:300,1,115.199996484375,0|2,1:0|0:3,0:0:0:0:
28,264,21473,2,0,P|76:288|148:276,1,115.199996484375,0|2,1:0|0:3,0:0:0:0:
316,268,21745,6,0,P|268:292|196:280,1,115.199996484375,0|2,1:0|0:3,0:0:0:0:
32,244,22018,2,0,P|80:268|176:216,1,172.799994726563,0|0,1:0|0:0,0:0:0:0:
228,164,22291,6,0,P|284:152|336:172,1,115.199996484375,0|2,1:0|0:3,0:0:0:0:
512,120,22564,2,0,P|456:108|404:128,1,115.199996484375,0|2,1:0|0:3,0:0:0:0:
224,140,22836,6,0,P|280:128|332:148,1,115.199996484375,0|2,1:0|0:3,0:0:0:0:
508,96,23109,2,0,P|452:84|400:104,1,115.199996484375,0|2,1:0|0:3,0:0:0:0:
220,112,23382,6,0,P|276:100|328:120,1,115.199996484375,0|2,1:0|0:3,0:0:0:0:
504,68,23655,2,0,P|448:56|396:76,1,115.199996484375,0|2,1:0|0:3,0:0:0:0:
216,84,23927,6,0,B|272:68|336:88|336:88|296:40,1,172.799994726563,0|0,1:0|0:0,0:0:0:0:
140,60,24200,6,0,B|132:84|144:116|144:116|76:112|48:176,1,172.799994726563,4|0,1:0|0:0,0:0:0:0:
128,200,24473,6,0,L|112:324,1,115.199996484375,0|2,1:0|0:3,0:0:0:0:
113,314,24745,2,0,L|180:220,1,115.199996484375,0|2,1:0|0:3,0:0:0:0:
180,220,25018,6,0,L|164:344,1,115.199996484375,0|2,1:0|0:3,0:0:0:0:
165,334,25290,2,0,L|231:239,1,115.199996484375,0|2,1:0|0:3,0:0:0:0:
232,240,25564,6,0,L|216:364,1,115.199996484375,0|2,1:0|0:3,0:0:0:0:
217,354,25836,2,0,L|283:259,1,115.199996484375,0|2,1:0|0:3,0:0:0:0:
284,260,26109,6,0,L|268:384,1,115.199996484375,0|0,1:0|0:0,0:0:0:0:
269,374,26381,2,0,P|304:336|416:344,1,172.799994726563,4|0,0:0|0:0,0:0:0:0:
468,280,26655,5,2,0:0:0:0:
448,236,26723,1,2,0:0:0:0:
444,192,26791,1,2,0:0:0:0:
464,152,26859,1,2,0:0:0:0:
500,124,26927,6,0,P|476:92|480:12,1,115.199996484375,0|2,1:0|0:0,0:0:0:0:
376,160,27200,1,2,0:0:0:0:
500,124,27336,1,2,0:0:0:0:
256,136,27473,6,0,B|216:132|216:132|184:152|184:152|148:148,1,108.000004119873,0|0,1:0|0:0,0:0:0:0:
88,104,27745,6,0,P|40:160|40:272,1,172.799994726563,4|0,0:0|0:0,0:0:0:0:
184,364,28018,2,0,P|232:308|232:196,1,172.799994726563,4|0,0:0|0:0,0:0:0:0:
92,136,28291,6,0,P|60:176|60:248,1,115.199996484375,4|0,0:0|0:0,0:0:0:0:
172,332,28564,2,0,P|204:292|204:220,1,115.199996484375,4|0,0:0|0:0,0:0:0:0:
136,208,28836,5,0,1:0:0:0:
132,224,28905,1,0,1:0:0:0:
128,240,28973,1,0,1:0:0:0:
124,256,29041,1,0,1:0:0:0:
120,272,29109,1,0,1:0:0:0:
284,272,29245,5,4,0:0:0:0:
120,272,29382,1,2,2:0:0:0:
284,272,29518,5,4,0:0:0:0:
124,256,29655,1,2,2:0:0:0:
284,272,29791,37,4,0:0:0:0:
128,240,29927,1,2,2:0:0:0:
284,272,30064,5,4,0:0:0:0:
132,224,30200,1,2,2:0:0:0:
284,272,30336,37,4,0:0:0:0:
136,208,30473,2,0,L|160:96,1,115.199996484375,2|4,2:0|0:0,0:0:0:0:
224,44,30745,5,0,1:0:0:0:
284,72,30814,1,0,1:0:0:0:
336,36,30882,1,0,1:0:0:0:
396,64,30951,1,0,1:0:0:0:
448,28,31018,1,2,0:0:0:0:
348,180,31155,5,4,0:0:0:0:
448,28,31291,1,2,0:0:0:0:
348,180,31427,5,4,0:0:0:0:
396,64,31564,1,2,0:0:0:0:
348,180,31700,37,4,0:0:0:0:
336,36,31836,1,2,0:0:0:0:
348,180,31973,5,4,0:0:0:0:
284,72,32109,1,2,0:0:0:0:
348,180,32245,37,4,0:0:0:0:
224,44,32382,1,2,0:0:0:0:
348,180,32518,5,4,0:0:0:0:
468,156,32655,2,0,P|484:232|452:272,1,115.199996484375,2|4,0:0|0:0,0:0:0:0:
384,328,32927,2,0,L|316:320,1,57.5999982421876,0|0,1:0|1:0,0:0:0:0:
212,336,33064,2,0,L|144:328,1,57.5999982421876,0|0,1:0|1:0,0:0:0:0:
56,264,33200,6,0,P|44:208|60:136,1,115.199996484375,0|4,1:0|0:0,0:0:0:0:
56,264,33473,2,0,P|64:212|112:168,1,115.199996484375,2|4,0:0|0:0,0:0:0:0:
56,264,33745,2,0,P|96:224|152:208,1,115.199996484375,2|4,0:0|0:0,0:0:0:0:
53,151,34018,5,0,1:0:0:0:
107,169,34086,1,0,1:0:0:0:
151,208,34155,1,0,1:0:0:0:
184,256,34223,1,0,1:0:0:0:
196,312,34291,6,0,P|248:336|304:332,1,115.199996484375,0|4,1:0|0:0,0:0:0:0:
196,312,34564,2,0,P|256:308|304:268,1,115.199996484375,2|4,0:0|0:0,0:0:0:0:
196,312,34836,2,0,P|248:280|264:224,1,115.199996484375,2|4,0:0|0:0,0:0:0:0:
304,331,35109,6,2,B|316:272|264:232|264:232|272:193|252:160,1,172.799994726563,2|0,0:0|0:0,0:0:0:0:
216,112,35382,5,0,1:0:0:0:
352,152,35518,1,0,1:0:0:0:
468,84,35655,1,8,1:0:0:0:
336,44,35791,1,0,1:0:0:0:
336,44,35859,1,8,1:0:0:0:
336,44,35927,5,0,1:0:0:0:
352,152,36064,1,0,1:0:0:0:
324,20,36200,5,2,1:2:0:0:
308,52,36268,1,2,1:2:0:0:
332,76,36336,1,2,1:2:0:0:
368,60,36405,1,2,1:2:0:0:
364,24,36473,6,0,B|256:52|112:36|112:36|140:80,1,288,2|0,0:3|0:0,0:0:0:0:
183,132,36745,6,0,B|276:140|367:124|367:124|343:164,1,216.000008239746,2|0,0:3|0:0,0:0:0:0:
320,216,37018,6,0,B|268:228|208:220|208:220|244:256,1,144,2|0,0:3|0:0,0:0:0:0:
248,312,37291,6,0,B|292:316|332:308|332:308|304:344,1,108.000004119873,2|0,0:3|0:0,0:0:0:0:
160,344,37564,5,0,1:0:0:0:
172,324,37632,1,0,1:0:0:0:
156,308,37700,1,0,1:0:0:0:
136,320,37768,1,0,1:0:0:0:
140,340,37836,6,0,L|136:160,1,172.799994726563,4|0,0:0|0:0,0:0:0:0:
192,104,38109,2,0,B|212:132|212:132|211:217,1,115.199996484375,4|0,0:0|0:0,0:0:0:0:
64,244,38382,6,0,P|16:224|16:152,1,115.199996484375,0|0,1:0|0:0,0:0:0:0:
8,52,38655,6,0,P|32:40|84:36,1,72.0000027465821,2|0,0:0|0:0,0:0:0:0:
152,48,38791,2,0,P|184:48|228:40,1,72.0000027465821,2|0,0:0|0:0,0:0:0:0:
300,20,38927,2,0,P|312:44|316:96,1,72.0000027465821,2|0,0:0|0:0,0:0:0:0:
304,164,39063,2,0,P|304:196|312:240,1,72.0000027465821,2|0,0:0|0:0,0:0:0:0:
320,328,39200,6,0,P|280:324|220:348,1,96,2|0,0:0|0:0,0:0:0:0:
160,384,39336,2,0,P|142:339|145:292,1,96,2|0,0:0|0:0,0:0:0:0:
96,212,39473,2,0,P|136:216|196:192,1,96,2|0,0:0|0:0,0:0:0:0:
253,132,39609,2,0,P|271:176|268:224,1,96,2|0,0:0|0:0,0:0:0:0:
380,136,39745,6,2,P|464:188|340:216,1,288,2|0,0:1|0:0,0:0:0:0:
380,136,40018,6,0,L|376:76,1,57.5999982421876,2|0,0:1|0:0,0:0:0:0:
484,88,40155,2,0,L|480:28,1,57.5999982421876,2|0,0:1|0:0,0:0:0:0:
272,104,40291,6,0,L|100:100,1,172.799994726563,4|0,1:0|0:0,0:0:0:0:
24,184,40564,1,8,1:0:0:0:
52,180,40632,1,0,0:0:0:0:
80,176,40700,1,8,1:0:0:0:
104,268,40836,6,0,B|128:320|128:320|168:284|168:284|192:336|192:336|232:296|232:296|260:348|260:348|300:308|300:308|335:322|380:292,1,403.199987695313,4|0,0:0|0:0,0:0:0:0:
408,236,41382,6,0,B|448:232|480:260|480:260|468:300|432:320,1,144.000005493164,0|0,1:0|0:0,0:0:0:0:
324,228,41655,6,0,L|332:64,1,144.000005493164,4|0,1:0|0:0,0:0:0:0:
192,32,41927,5,0,1:0:0:0:
164,52,41995,1,0,1:0:0:0:
176,84,42064,1,0,1:0:0:0:
212,88,42132,1,0,1:0:0:0:
224,52,42200,6,0,B|80:80|80:80|60:116|92:148,1,216.000008239746,4|0,0:0|0:0,0:0:0:0:
168,160,42473,6,0,B|312:188|312:188|332:224|300:256,1,216.000008239746,4|0,0:0|0:0,0:0:0:0:
228,272,42745,6,0,B|185:282|185:282|156:279|156:279|126:295|126:295|80:304,1,144.000005493164,0|0,1:0|0:0,0:0:0:0:
48,376,43018,6,0,P|88:384|124:376,1,72.0000027465821,2|0,0:0|0:0,0:0:0:0:
180,324,43155,2,0,P|220:316|256:324,1,72.0000027465821,2|0,0:0|0:0,0:0:0:0:
308,376,43291,2,0,P|348:384|384:376,1,72.0000027465821,2|0,0:0|0:0,0:0:0:0:
440,324,43428,2,0,P|480:316|516:324,1,72.0000027465821,2|0,0:0|0:0,0:0:0:0:
484,152,43564,6,0,P|492:96|464:48,1,96,2|0,0:0|0:0,0:0:0:0:
388,88,43700,2,0,L|288:76,1,96,2|0,0:0|0:0,0:0:0:0:
200,100,43836,2,0,P|208:156|180:204,1,96,2|0,0:0|0:0,0:0:0:0:
104,164,43972,2,0,L|4:176,1,96,2|0,0:0|0:0,0:0:0:0:
92,24,44109,6,0,P|276:100|12:296,1,672,0|0,1:0|0:0,0:0:0:0:
132,264,44655,6,2,B|172:268|208:316|208:316|232:268|276:256|276:256|320:264|344:312|344:312|368:264|432:252,1,384,0|0,1:0|1:0,0:0:0:0:
500,56,45200,6,0,B|360:36|360:36|308:60,1,172.799994726563,4|0,1:0|0:0,0:0:0:0:
260,184,45473,2,0,B|396:164|396:164|436:136,1,172.799994726563,4|0,1:0|0:0,0:0:0:0:
260,44,45745,2,0,B|120:24|120:24|68:48,1,172.799994726563,4|0,1:0|0:0,0:0:0:0:
20,172,46018,2,0,B|156:152|156:152|196:124,1,172.799994726563,4|0,1:0|0:0,0:0:0:0:
148,232,46291,5,0,1:0:0:0:
172,248,46359,1,0,1:0:0:0:
168,276,46427,1,0,1:0:0:0:
140,280,46495,1,0,1:0:0:0:
124,256,46564,6,0,B|215:266|272:249|272:249|248:288,1,172.799994726563,4|0,0:0|0:0,0:0:0:0:
328,304,46836,2,0,P|348:264|332:196,1,115.199996484375,4|0,0:0|0:0,0:0:0:0:
424,164,47109,6,0,B|448:192|448:232|448:232|460:244|460:244|448:256|448:256|448:288|412:336,1,172.799994726563,0|0,1:0|0:0,0:0:0:0:
352,368,47382,6,0,P|332:339|328:304,1,72.0000027465821,2|0,0:0|0:0,0:0:0:0:
252,296,47518,2,0,P|256:268|272:228,1,72.0000027465821,2|0,0:0|0:0,0:0:0:0:
212,176,47655,2,0,P|240:144|272:124,1,72.0000027465821,2|0,0:0|0:0,0:0:0:0:
248,56,47791,2,0,P|280:36|324:28,1,72.0000027465821,2|0,0:0|0:0,0:0:0:0:
472,88,47927,6,0,P|428:92|372:72,1,96,2|0,0:0|0:0,0:0:0:0:
248,56,48064,2,0,L|132:52,1,96,2|0,0:0|0:0,0:0:0:0:
32,184,48200,2,0,P|76:188|132:168,1,96,2|0,0:0|0:0,0:0:0:0:
256,152,48337,2,0,L|372:148,1,96,2|0,0:0|0:0,0:0:0:0:
480,240,48473,6,2,P|456:312|336:216,1,288,2|0,0:1|0:0,0:0:0:0:
480,240,48745,6,0,L|484:312,1,72.0000027465821,2|0,1:0|0:0,0:0:0:0:
408,176,48882,2,0,L|404:248,1,72.0000027465821,2|0,1:0|0:0,0:0:0:0:
331,226,49018,6,0,B|316:276|316:276|224:296|248:248|156:268,1,216.000008239746,4|0,1:0|0:0,0:0:0:0:
80,300,49291,2,0,P|56:268|64:196,1,115.199996484375,8|8,1:0|1:0,0:0:0:0:
120,76,49564,6,0,B|164:28|164:28|192:80|192:80|228:24|224:24|256:88|248:88|284:52|284:52|316:76|316:76|372:52|432:80,1,403.199987695313,4|0,0:0|0:0,0:0:0:0:
488,120,50109,6,0,L|480:260,1,115.199996484375,4|0,1:0|0:0,0:0:0:0:
400,328,50382,2,0,B|384:320|384:320|368:336|368:336|296:316|304:236,1,172.799994726563,4|0,0:0|0:0,0:0:0:0:
360,144,50655,5,0,1:0:0:0:
388,152,50723,1,0,1:0:0:0:
388,180,50791,1,0,1:0:0:0:
364,188,50859,1,0,1:0:0:0:
344,168,50927,6,0,B|208:160|208:160|176:180,1,172.799994726563,4|4,0:0|0:0,0:0:0:0:
92,232,51200,2,0,P|128:264|200:272,1,115.199996484375,0|0,0:0|0:0,0:0:0:0:
400,328,51473,2,0,P|324:332|284:360,1,115.199996484375,0|0,1:0|0:0,0:0:0:0:
176,336,51745,5,0,1:0:0:0:
148,340,51814,1,0,1:0:0:0:
120,344,51882,1,0,1:0:0:0:
92,348,51950,1,0,1:0:0:0:
64,344,52018,6,0,B|72:252|72:252|52:172,1,172.799994726563,0|0,0:0|0:0,0:0:0:0:
52,173,52291,6,0,B|128:224|128:224|212:232,1,172.799994726563,4|0,1:0|0:0,0:0:0:0:
280,266,52564,2,0,P|292:222|256:166,1,115.199996484375,2|2,0:0|0:0,0:0:0:0:
320,40,52836,6,0,B|376:40|412:96|412:96|432:36|496:24,1,230.39999296875,4|0,0:0|0:0,0:0:0:0:
504,116,53245,1,4,0:0:0:0:
320,128,53518,1,4,0:0:0:0:
504,116,53791,1,4,0:0:0:0:
320,128,53927,6,0,P|330:195|376:228,1,115.199996484375,0|0,1:0|1:0,0:0:0:0:
460,312,54200,5,8,0:0:0:0:
376,352,54336,1,8,0:0:0:0:
284,348,54473,1,0,1:0:0:0:
200,308,54609,1,8,0:0:0:0:
156,228,54745,1,0,1:0:0:0:
152,136,54882,1,0,1:0:0:0:
192,52,55018,6,0,L|56:60,1,115.199996484375,4|0,1:0|0:0,0:0:0:0:
420,328,59382,5,0,1:0:0:0:
328,224,59518,2,0,P|372:216|432:248,1,115.199996484375,0|8,0:0|1:0,0:0:0:0:
312,308,59791,2,0,L|68:304,1,230.39999296875,0|0,0:0|0:0,0:0:0:0:
328,224,60200,1,8,1:0:0:0:
64,220,60473,5,0,1:0:0:0:
156,116,60609,2,0,P|112:108|52:140,1,115.199996484375,0|8,0:0|1:0,0:0:0:0:
172,200,60882,2,0,L|416:196,1,230.39999296875,0|0,0:0|0:0,0:0:0:0:
156,116,61291,1,8,1:0:0:0:
316,96,61427,1,0,0:0:0:0:
424,116,61564,5,4,1:0:0:0:
456,140,61973,2,0,B|388:140|388:140|296:176|296:176|232:176,1,230.39999296875,4|2,1:0|0:0,0:0:0:0:
100,48,62382,1,0,0:0:0:0:
192,32,62518,1,2,0:0:0:0:
156,116,62689,6,0,L|88:128,2,54.0000020599366,2|2|2,0:0|0:0|0:0,0:0:0:0:
248,156,62995,2,0,L|312:144,2,54.0000020599366,2|2|2,0:0|0:0|0:0,0:0:0:0:
88,224,63302,2,0,L|24:236,1,54.0000020599366,2|2,0:0|0:0,0:0:0:0:
272,268,63473,6,0,L|500:224,1,216.000008239746,4|0,0:0|0:0,0:0:0:0:
440,308,63745,6,0,P|404:264|408:176,1,144.000005493164,6|2,1:0|1:0,0:0:0:0:
296,24,64018,2,0,P|332:68|328:156,1,144.000005493164,2|2,1:0|0:0,0:0:0:0:
272,268,64291,2,0,B|172:276|172:276|84:200|120:92,1,288.000010986329,2|2,1:0|0:0,0:0:0:0:
296,24,64700,1,2,0:0:0:0:
260,120,64836,6,0,L|112:108,1,144.000005493164,0|2,0:0|0:0,0:0:0:0:
320,192,65109,2,0,P|344:184|396:188,1,72.0000027465821,2|2,0:0|0:0,0:0:0:0:
416,196,65245,2,0,P|440:204|492:200,1,72.0000027465821,2|2,0:0|0:0,0:0:0:0:
272,268,65382,2,0,L|124:256,1,144.000005493164,2|2,1:0|0:0,0:0:0:0:
332,344,65655,2,0,L|480:332,1,144.000005493164,0|2,0:0|0:0,0:0:0:0:
244,356,65927,5,4,0:0:0:0:
64,332,66064,1,2,0:0:0:0:
244,356,66200,1,0,0:0:0:0:
64,332,66336,1,2,0:0:0:0:
168,284,66473,6,0,L|200:136,1,144.000005493164,0|2,0:0|0:0,0:0:0:0:
40,84,66745,2,0,P|40:144|112:200,1,144.000005493164,2|2,0:0|0:0,0:0:0:0:
296,180,67018,6,0,L|456:192,1,144.000005493164,6|0,0:0|0:0,0:0:0:0:
296,180,67291,1,4,1:0:0:0:
439,190,67427,1,2,0:0:0:0:
344,332,67564,6,0,P|244:356|168:284,1,216.000008239746,4|0,1:2|0:0,0:0:0:0:
168,99,67836,2,0,P|243:28|344:52,1,216.000008239746,6|2,1:2|0:0,0:0:0:0:
439,190,68109,6,0,B|428:315|428:315|465:357|465:357|472:292,1,216.000008239746,6|0,0:0|0:0,0:0:0:0:
388,252,68382,2,0,B|368:232|368:232|236:252,1,144.000005493164,2|2,0:0|0:0,0:0:0:0:
88,276,68655,1,2,0:0:0:0:
204,160,68791,1,0,0:0:0:0:
180,320,68927,1,2,0:0:0:0:
100,176,69064,1,2,0:0:0:0:
224,24,69200,6,0,L|376:20,1,144.000005493164,0|2,0:0|0:0,0:0:0:0:
508,100,69473,2,0,P|472:108|428:104,1,72.0000027465821,2|2,0:0|0:0,0:0:0:0:
412,100,69609,2,0,P|376:92|341:93,1,72.0000027465821,2|2,0:0|0:0,0:0:0:0:
280,192,69745,2,0,B|424:188|424:188|460:216|436:276,1,216.000008239746,2|0,0:0|0:0,0:0:0:0:
364,304,70018,6,0,P|336:304|296:276,1,72.0000027465821,0|0,1:0|0:0,0:0:0:0:
280,192,70155,2,0,P|243:190|211:210,1,72.0000027465821,2|0,0:0|0:0,0:0:0:0:
80,310,70291,5,4,0:3:0:0:
79,302,70359,1,4,0:3:0:0:
78,294,70427,1,4,0:3:0:0:
77,286,70495,1,4,0:3:0:0:
76,278,70564,6,0,L|371:305,1,288,4|0,0:3|0:0,0:0:0:0:
464,221,70836,5,4,0:3:0:0:
465,213,70904,1,4,0:3:0:0:
466,205,70972,1,4,0:3:0:0:
467,197,71040,1,4,0:3:0:0:
468,189,71109,6,0,L|173:216,1,288,4|0,0:3|0:0,0:0:0:0:
9,54,71382,6,0,B|186:37|186:37|227:71,1,216.000008239746,4|0,1:2|0:0,0:0:0:0:
296,61,71655,2,0,B|326:37|326:37|503:54,1,216.000008239746,6|0,1:2|0:0,0:0:0:0:
405,142,71927,2,0,B|330:133|330:133|300:164|300:164|344:175,1,144.000005493164,6|0,1:2|0:0,0:0:0:0:
107,142,72200,6,2,B|182:133|182:133|212:164|212:164|182:285,1,216.000008239746,6|0,1:0|0:0,0:0:0:0:
88,244,72473,5,4,1:0:0:0:
28,325,72609,1,2,0:0:0:0:
127,335,72745,1,2,0:0:0:0:
315,265,72882,5,2,0:0:0:0:
305,364,73018,1,2,0:0:0:0:
224,304,73154,1,0,0:0:0:0:
235,167,73291,6,0,P|239:112|293:43,1,144.000005493164,2|2,1:0|0:0,0:0:0:0:
379,147,73564,6,0,B|450:172|450:172|488:153|490:121,1,144.000005493164,0|2,0:0|0:0,0:0:0:0:
236,168,73836,2,0,L|304:192,1,72.0000027465821,2|2,0:0|0:0,0:0:0:0:
428,232,73973,2,0,P|472:224|496:200,1,72.0000027465821,2|2,0:0|0:0,0:0:0:0:
448,332,74109,6,0,B|377:357|377:357|339:338|337:306,1,144.000005493164,0|2,0:0|0:0,0:0:0:0:
175,306,74382,2,0,B|173:338|135:357|135:357|64:332,1,144.000005493164,0|2,0:0|0:0,0:0:0:0:
96,212,74655,5,4,0:0:0:0:
72,52,74791,1,2,0:0:0:0:
96,212,74927,1,0,0:0:0:0:
72,52,75064,1,2,0:0:0:0:
144,120,75200,2,0,L|220:108,1,72.0000027465821,4|0,0:0|0:0,0:0:0:0:
248,24,75336,5,2,0:0:0:0:
412,120,75473,1,2,0:0:0:0:
304,108,75609,1,2,0:0:0:0:
488,52,75745,6,0,B|500:92|488:120|488:120|504:152|492:200,1,144.000005493164,2|0,0:0|0:0,0:0:0:0:
304,108,76018,2,0,B|292:148|304:176|304:176|288:208|300:256,1,144.000005493164,2|0,0:0|0:0,0:0:0:0:
460,264,76291,6,0,P|468:304|460:340,1,72.0000027465821,6|0,0:2|2:0,0:0:0:0:
324,316,76427,2,0,L|320:352,1,36.0000013732911,6|0,1:2|2:0,0:0:0:0:
212,336,76564,6,2,P|132:328|96:208,1,216.000008239746,6|2,1:2|0:2,0:0:0:0:
108,64,76836,6,0,B|248:80|248:80|380:16,1,288.000010986329,4|0,1:2|0:0,0:0:0:0:
108,64,77245,2,0,L|176:120,1,72.0000027465821,6|0,1:2|2:0,0:0:0:0:
163,109,77655,2,0,L|224:160,1,72.0000027465821,6|0,1:2|2:0,0:0:0:0:
218,155,78064,2,0,L|288:212,1,72.0000027465821,6|0,1:2|2:0,0:0:0:0:
274,201,78336,5,6,1:2:0:0:
356,260,78473,2,0,L|508:256,1,144.000005493164,6|0,0:2|0:0,0:0:0:0:
414,149,78745,1,0,1:0:0:0:
414,149,78882,6,0,L|442:365,1,211.200006445313,6|2,0:2|0:0,0:0:0:0:
340,352,79291,5,2,0:0:0:0:
256,344,79427,1,2,0:0:0:0:
184,296,79564,1,2,0:0:0:0:
144,204,79700,5,2,0:0:0:0:
244,212,79836,1,2,0:0:0:0:
340,176,79973,1,2,0:0:0:0:
404,96,80109,1,6,0:0:0:0:
256,192,80177,12,6,80927,0:0:0:0:
256,192,81200,5,4,1:0:0:0:
416,208,81473,1,2,0:0:0:0:
320,336,81745,1,8,0:0:0:0:
320,336,82018,5,2,0:0:0:0:
256,288,82155,1,2,0:0:0:0:
192,336,82291,1,0,0:0:0:0:
96,208,82564,1,2,0:0:0:0:
256,192,82836,1,8,0:0:0:0:
192,336,83109,1,2,0:0:0:0:
116,52,83382,5,2,0:0:0:0:
396,52,83791,1,2,0:0:0:0:
172,112,84064,1,2,0:0:0:0:
340,112,84336,1,2,0:0:0:0:
256,192,84473,5,2,0:3:0:0:
264,224,84745,1,2,0:3:0:0:
256,256,85018,1,2,0:3:0:0:
264,288,85290,1,2,0:3:0:0:
424,320,85564,5,2,0:0:0:0:
488,172,85836,1,2,0:0:0:0:
328,192,86109,1,8,0:0:0:0:
328,192,86382,5,0,0:0:0:0:
256,156,86518,1,0,0:0:0:0:
184,192,86655,6,0,B|88:184|88:184|48:208|36:244|44:284|71:314|99:323|144:316|144:288|164:276|192:264|208:268|236:276|256:292,1,396.000015106202,4|0,0:1|0:0,0:0:0:0:
276,324,87473,6,0,L|336:320,1,36.0000013732911,0|0,1:0|1:0,0:0:0:0:
348,280,87609,2,0,L|408:284,1,36.0000013732911,0|0,1:0|1:0,0:0:0:0:
472,288,87745,5,4,0:0:0:0:
472,288,87882,1,4,0:0:0:0:
468,128,88018,2,0,P|368:128|316:152,1,144.000005493164,2|0,0:0|0:0,0:0:0:0:
100,208,88291,5,4,0:0:0:0:
100,208,88428,1,4,0:0:0:0:
104,48,88564,2,0,B|179:29|171:68|248:48,1,144.000005493164,2|0,0:0|0:0,0:0:0:0:
332,100,88836,6,0,P|252:132|188:132,1,144.000005493164,4|0,0:0|0:0,0:0:0:0:
100,208,89143,6,0,P|61:241|56:304,2,108.000004119873,2|2|2,0:0|0:0|0:0,0:0:0:0:
168,272,89450,2,0,L|280:277,1,108.000004119873,2|0,0:0|0:0,0:0:0:0:
472,332,89655,6,0,L|324:328,1,144.000005493164,4|0,0:0|0:0,0:0:0:0:
480,172,89927,6,0,P|448:116|464:56,1,115.199996484375,0|0,1:0|0:0,0:0:0:0:
456,68,90200,2,0,P|428:132|380:152,1,115.199996484375,0|0,1:0|0:0,0:0:0:0:
390,151,90473,6,0,P|358:95|374:35,1,115.199996484375,0|0,1:0|0:0,0:0:0:0:
366,47,90746,2,0,P|337:110|289:130,1,115.199996484375,0|0,1:0|0:0,0:0:0:0:
300,129,91018,6,0,P|268:73|284:13,1,115.199996484375,0|0,1:0|0:0,0:0:0:0:
276,25,91291,2,0,P|247:88|199:108,1,115.199996484375,0|0,1:0|0:0,0:0:0:0:
209,107,91564,6,0,B|192:68|156:68|156:68|64:76,1,144.000005493164,4|0,0:0|0:0,0:0:0:0:
0,236,91836,2,0,B|17:275|53:275|53:275|145:267,1,144.000005493164,4|0,0:0|0:0,0:0:0:0:
232,216,92109,6,0,P|336:228|408:348,1,216.000008239746,0|0,1:0|0:0,0:0:0:0:
320,384,92382,1,0,1:0:0:0:
352,196,92518,1,0,0:0:0:0:
204,324,92655,6,0,P|164:328|124:316,1,72.0000027465821,0|0,1:0|1:0,0:0:0:0:
68,280,92791,2,0,P|36:252|24:212,1,72.0000027465821,0|0,1:0|1:0,0:0:0:0:
28,80,92927,6,0,P|32:124|56:160,1,72.0000027465821,0|0,1:0|1:0,0:0:0:0:
100,200,93064,2,0,P|128:216|168:224,1,72.0000027465821,0|0,1:0|1:0,0:0:0:0:
272,96,93200,6,0,L|348:92,1,72.0000027465821,2|2,0:0|0:0,0:0:0:0:
492,136,93473,1,8,1:0:0:0:
412,140,93609,1,0,1:0:0:0:
280,200,93745,6,0,L|356:196,1,72.0000027465821,2|2,0:0|0:0,0:0:0:0:
500,240,94018,1,8,1:0:0:0:
420,244,94154,1,0,1:0:0:0:
252,356,94291,6,0,P|192:344|136:368,1,115.199996484375,0|0,1:0|0:0,0:0:0:0:
142,362,94564,2,0,P|199:343|227:291,1,115.199996484375,0|0,1:0|0:0,0:0:0:0:
226,298,94836,6,0,P|286:286|342:310,1,115.199996484375,0|0,1:0|0:0,0:0:0:0:
336,304,95109,2,0,P|278:285|250:233,1,115.199996484375,0|0,1:0|0:0,0:0:0:0:
252,240,95382,6,0,P|192:228|136:252,1,115.199996484375,0|0,1:0|0:0,0:0:0:0:
142,246,95655,2,0,P|199:227|227:175,1,115.199996484375,0|0,1:0|0:0,0:0:0:0:
225,182,95927,6,0,B|244:148|280:144|280:144|360:140,1,144.000005493164,4|0,0:0|0:0,0:0:0:0:
472,20,96200,2,0,B|453:54|417:58|417:58|337:62,1,144.000005493164,4|0,0:0|0:0,0:0:0:0:
176,48,96473,5,0,1:0:0:0:
176,48,96609,1,0,1:0:0:0:
176,48,96745,2,0,L|20:52,1,144.000005493164,0|0,1:0|0:0,0:0:0:0:
44,152,97018,6,0,B|40:200|56:236|56:236|168:208|168:208|192:264|176:320|176:320|56:352,1,432.000016479493,0|0,0:0|0:0,0:0:0:0:
276,328,97564,6,0,B|352:308|408:320|408:320|440:356,1,172.799994726563,4|0,1:0|0:0,0:0:0:0:
464,248,97836,2,0,B|388:228|332:240|332:240|300:276,1,172.799994726563,4|0,1:0|0:0,0:0:0:0:
272,180,98109,2,0,B|348:160|404:172|404:172|436:208,1,172.799994726563,4|0,1:0|0:0,0:0:0:0:
460,100,98381,2,0,B|384:80|328:92|328:92|296:128,1,172.799994726563,4|0,1:0|0:0,0:0:0:0:
176,64,98655,6,0,P|100:76|60:60,1,115.199996484375,0|0,1:0|0:0,0:0:0:0:
65,63,98927,2,0,P|115:75|147:135,1,115.199996484375,0|0,1:0|0:0,0:0:0:0:
148,128,99200,6,0,P|224:140|264:124,1,115.199996484375,0|0,1:0|0:0,0:0:0:0:
259,127,99472,2,0,P|208:139|176:199,1,115.199996484375,0|0,1:0|0:0,0:0:0:0:
176,192,99745,6,0,P|100:204|60:188,1,115.199996484375,0|0,1:0|0:0,0:0:0:0:
65,191,100018,2,0,P|115:203|147:263,1,115.199996484375,0|0,1:0|0:0,0:0:0:0:
146,255,100291,6,0,B|152:296|204:296|204:296|276:288,1,144.000005493164,4|0,0:0|0:0,0:0:0:0:
460,268,100564,2,0,B|454:227|402:227|402:227|336:236|336:236|360:264|352:304,1,216.000008239746,4|0,0:0|0:0,0:0:0:0:
269,288,100836,6,0,B|224:208|292:164|292:164|336:160|364:48|308:4|192:0|180:104,1,432.000016479493,4|0,1:0|0:0,0:0:0:0:
256,104,101382,5,2,0:0:0:0:
408,116,101518,1,2,0:0:0:0:
256,104,101655,1,2,0:0:0:0:
104,92,101791,1,2,0:0:0:0:
16,116,101927,6,0,P|-4:192|48:252,1,144.000005493164,0|0,1:0|0:0,0:0:0:0:
200,224,102200,2,0,P|144:168|66:183,1,144.000005493164,2|2,0:0|0:0,0:0:0:0:
16,332,102473,1,0,0:0:0:0:
51,332,102541,1,0,0:0:0:0:
84,317,102609,1,0,0:0:0:0:
107,290,102677,1,0,0:0:0:0:
118,256,102745,6,0,L|136:332,1,72,6|2,0:0|0:0,0:0:0:0:
144,356,103018,6,0,L|308:364,1,144.000005493164,0|0,1:0|0:0,0:0:0:0:
287,363,103291,2,0,P|304:300|392:292,1,144.000005493164,0|0,1:0|0:0,0:0:0:0:
374,283,103564,6,0,L|210:291,1,144.000005493164,0|0,1:0|0:0,0:0:0:0:
230,290,103837,2,0,P|213:226|125:218,1,144.000005493164,0|0,1:0|0:0,0:0:0:0:
144,209,104109,6,0,L|308:217,1,144.000005493164,0|0,1:0|0:0,0:0:0:0:
373,135,104382,1,0,1:0:0:0:
376,132,104450,1,0,1:0:0:0:
380,128,104518,1,0,1:0:0:0:
384,124,104586,1,0,1:0:0:0:
388,120,104655,6,0,P|328:92|256:112,1,144.000005493164,4|0,1:0|0:0,0:0:0:0:
136,124,104927,2,0,L|172:148,7,36.0000013732911,2|2|2|2|2|2|2|0,0:0|0:0|0:0|0:0|0:0|0:0|0:0|0:0,0:0:0:0:
124,120,105200,6,0,P|184:92|256:112,1,144.000005493164,4|0,1:0|0:0,0:0:0:0:
464,296,105473,6,0,B|436:324|436:324|324:316,1,144.000005493164,0|0,1:0|0:0,0:0:0:0:
156,268,105745,2,0,B|184:240|184:240|296:248,1,144.000005493164,0|0,1:0|0:0,0:0:0:0:
104,328,106018,6,2,L|112:372,1,36.0000013732911,0|0,1:0|0:0,0:0:0:0:
80,312,106086,2,0,L|88:356,1,36.0000013732911,0|0,0:0|0:0,0:0:0:0:
56,296,106155,2,0,L|64:340,1,36.0000013732911,0|0,0:0|0:0,0:0:0:0:
32,280,106223,2,0,L|40:324,1,36.0000013732911,0|0,0:0|0:0,0:0:0:0:
8,264,106291,6,0,B|0:96|0:96|32:112|32:160,1,216.000008239746,4|0,1:0|0:0,0:0:0:0:
104,64,106564,2,0,B|96:232|96:232|128:216|128:168,1,216.000008239746,4|0,1:0|0:0,0:0:0:0:
200,244,106836,2,0,B|192:76|192:76|224:92|224:140,1,216.000008239746,4|0,1:0|0:0,0:0:0:0:
272,172,107109,6,0,P|360:176|400:32,1,216.000008239746,4|0,1:0|1:0,0:0:0:0:
344,28,107382,6,0,L|220:36,1,115.199996484375,6|0,1:0|0:0,0:0:0:0:
272,172,107655,1,0,0:0:0:0:
188,116,107791,6,0,L|64:124,1,115.199996484375,6|0,1:0|0:0,0:0:0:0:
116,260,108064,1,0,0:0:0:0:
48,200,108200,5,4,2:0:0:0:
116,260,108336,1,0,0:0:0:0:
208,284,108473,6,0,B|360:272|360:272|348:296,1,172.799994726563,4|0,1:0|0:0,0:0:0:0:
448,284,108745,2,0,B|416:216|424:144|424:144|456:176,1,172.799994726563,4|0,1:0|0:0,0:0:0:0:
432,52,109018,2,0,B|280:64|280:64|292:40,1,172.799994726563,4|0,1:0|0:0,0:0:0:0:
192,52,109290,2,0,B|224:120|216:192|216:192|184:160,1,172.799994726563,4|0,1:0|0:0,0:0:0:0:
208,284,109564,6,0,B|152:304|152:304|116:260,1,115.199996484375,6|0,1:0|0:0,0:0:0:0:
304,304,109836,1,0,0:0:0:0:
332,212,109973,6,0,B|388:192|388:192|424:236,1,115.199996484375,6|0,1:0|0:0,0:0:0:0:
236,192,110245,1,0,0:0:0:0:
208,284,110382,6,0,B|152:304|152:304|116:260,1,115.199996484375,4|0,0:0|0:0,0:0:0:0:
44,252,110655,6,0,B|68:152|56:112|56:112|32:136,1,172.799994726563,4|0,1:0|0:0,0:0:0:0:
64,36,110927,2,0,B|216:48|216:48|196:24,1,172.799994726563,4|0,1:0|0:0,0:0:0:0:
300,60,111200,2,0,B|276:160|288:200|288:200|312:176,1,172.799994726563,4|0,1:0|0:0,0:0:0:0:
280,276,111473,6,0,L|280:320,1,28.7999991210938,4|0,1:0|0:0,0:0:0:0:
248,284,111541,2,0,L|256:324,1,28.7999991210938,0|0,0:0|0:0,0:0:0:0:
220,300,111609,2,0,L|228:336,1,28.7999991210938,0|0,0:0|0:0,0:0:0:0:
196,324,111677,2,0,L|212:356,1,28.7999991210938,0|0,0:0|0:0,0:0:0:0:
176,352,111745,6,0,L|108:344,1,57.5999982421876,0|0,1:0|0:0,0:0:0:0:
44,252,111882,2,0,L|112:260,1,57.5999982421876,0|0,1:0|0:0,0:0:0:0:
208,188,112018,2,0,L|140:180,1,57.5999982421876,0|0,1:0|0:0,0:0:0:0:
76,88,112155,2,0,L|144:96,1,57.5999982421876,0|0,1:0|0:0,0:0:0:0:
240,32,112291,6,0,B|312:32|348:108|348:108|364:64,1,172.799994726563,4|0,0:0|0:0,0:0:0:0:
440,52,112564,2,0,L|408:164,1,115.199996484375,8|4,0:0|0:0,0:0:0:0:
376,308,112836,6,0,P|304:324|380:104,1,504.000019226075,4|0,1:0|0:0,0:0:0:0:
428,192,113382,6,0,L|432:220,1,28.7999991210938,2|2,0:3|0:0,0:0:0:0:
304,176,113518,2,0,L|308:148,1,28.7999991210938,2|2,0:0|0:0,0:0:0:0:
172,192,113655,2,0,L|176:220,1,28.7999991210938,2|0,0:0|0:0,0:0:0:0:
48,176,113791,2,0,L|52:148,1,28.7999991210938,2|0,0:0|0:0,0:0:0:0:
32,324,113927,5,2,0:0:0:0:
120,364,114064,1,0,1:0:0:0:
212,368,114200,1,2,0:0:0:0:
296,328,114336,1,2,0:0:0:0:
356,260,114473,1,0,1:0:0:0:
364,168,114609,1,2,0:0:0:0:
340,80,114745,1,2,0:0:0:0:
268,24,114882,1,0,1:0:0:0:
180,112,115018,6,0,P|147:123|108:124,1,72,4|0,0:0|0:0,0:0:0:0:
32,88,115291,1,8,0:0:0:0:
448,28,115564,1,8,0:0:0:0:
256,240,115836,6,0,L|256:396,1,144.000005493164,4|0,0:0|0:0,0:0:0:0:
