osu file format v14

[General]
AudioFilename: Crack Traxxxx.mp3
AudioLeadIn: 0
PreviewTime: 63745
Countdown: 0
SampleSet: Normal
StackLeniency: 0.7
Mode: 1
LetterboxInBreaks: 0
EpilepsyWarning: 1
WidescreenStoryboard: 0

[Editor]
DistanceSpacing: 0.8
BeatDivisor: 4
GridSize: 32
TimelineZoom: 2.799999

[Metadata]
Title:Crack Traxxxx
TitleUnicode:Crack Traxxxx
Artist:Lite Show Magic (t+pazolite vs C-Show)
ArtistUnicode:Lite Show Magic (t+pazolite vs C-Show)
Creator:Fatfan Kolek
Version:TK'S Oni
Source:SOUND VOLTEX II -infinite infection-
Tags:t+pazolite c-show TKSalt TKS Dariano Fanzhen0019 Oracle Natsu P_A_N Aka EvilElvis Gero Onosakihito DJNightmare Fast Spectator sukiNathan Okoratu
BeatmapID:361159
BeatmapSetID:139525

[Difficulty]
HPDrainRate:6
CircleSize:4
OverallDifficulty:6
ApproachRate:7
SliderMultiplier:1.4
SliderTickRate:1

[Events]
//Background and Video events
0,0,"TaikoBG_tks.jpg",0,154
//Break Periods
//Storyboard Layer 0 (Background)
//Storyboard Layer 1 (Fail)
//Storyboard Layer 2 (Pass)
//Storyboard Layer 3 (Foreground)
//Storyboard Sound Samples

[TimingPoints]
2655,272.727272727273,4,1,0,100,1,0
12473,-90.9090909090909,4,1,0,100,0,0
13564,-100,4,1,0,100,0,0
14655,-90.9090909090909,4,1,0,100,0,0
15745,-100,4,1,0,100,0,0
19836,-83.3333333333333,4,1,0,100,0,0
20109,-100,4,1,0,100,0,0
55291,-111.111111111111,4,1,0,80,0,0
58495,-117.647058823529,4,1,0,60,0,0
58768,-125,4,1,0,40,0,0
59041,-133.333333333333,4,1,0,20,0,0
59314,-100,4,1,0,100,0,0
63745,-100,4,1,0,100,0,1
67564,-90.9090909090909,4,1,0,100,0,1
68109,-100,4,1,0,100,0,1
81200,-100,4,1,0,80,0,0
81473,-111.111111111111,4,1,0,80,0,0
84677,-111.111111111111,4,1,0,60,0,0
84950,-111.111111111111,4,1,0,40,0,0
85223,-111.111111111111,4,1,0,20,0,0
85495,-111.111111111111,4,1,0,80,0,0
87473,-100,4,1,0,80,0,0
87745,-100,4,1,0,100,0,0
108473,-90.9090909090909,4,1,0,100,0,0
109564,-100,4,1,0,100,0,0
110586,-90.9090909090909,4,1,0,100,0,0
111745,-100,4,1,0,100,0,0

[Colours]
Combo1 : 128,0,255
Combo2 : 255,0,0
Combo3 : 0,255,255
Combo4 : 255,128,64

[HitObjects]
256,192,473,12,0,2382,0:0:0:0:
256,192,2655,5,4,0:0:0:0:
256,192,2927,1,0,0:0:0:0:
256,192,3200,1,8,0:0:0:0:
256,192,3336,1,8,0:0:0:0:
256,192,3473,1,0,0:0:0:0:
256,192,3609,1,8,0:0:0:0:
256,192,3882,1,0,0:0:0:0:
256,192,3950,1,0,0:0:0:0:
256,192,4018,1,8,0:0:0:0:
256,192,4155,1,8,0:0:0:0:
256,192,4291,1,0,0:0:0:0:
256,192,4427,1,8,0:0:0:0:
256,192,4700,1,8,0:0:0:0:
256,192,4836,1,0,0:0:0:0:
256,192,5109,1,0,0:0:0:0:
256,192,5382,1,8,0:0:0:0:
256,192,5518,1,8,0:0:0:0:
256,192,5655,1,0,0:0:0:0:
256,192,5791,1,0,0:0:0:0:
256,192,5927,1,8,0:0:0:0:
256,192,6064,1,8,0:0:0:0:
256,192,6336,1,8,0:0:0:0:
256,192,6473,1,0,0:0:0:0:
256,192,6609,1,8,0:0:0:0:
256,192,6745,1,8,0:0:0:0:
256,192,6882,1,8,0:0:0:0:
256,192,7018,1,4,0:0:0:0:
256,192,7155,1,0,0:0:0:0:
256,192,7223,1,0,0:0:0:0:
256,192,7291,1,0,0:0:0:0:
256,192,7427,1,4,0:0:0:0:
256,192,7836,1,8,0:0:0:0:
256,192,7905,1,8,0:0:0:0:
256,192,7973,1,8,0:0:0:0:
256,192,8041,1,8,0:0:0:0:
256,192,8109,1,0,0:0:0:0:
256,192,8382,1,8,0:0:0:0:
256,192,8655,1,8,0:0:0:0:
256,192,8791,1,0,0:0:0:0:
256,192,8927,1,0,0:0:0:0:
256,192,9064,1,8,0:0:0:0:
256,192,9336,1,8,0:0:0:0:
256,192,9473,1,0,0:0:0:0:
256,192,9609,1,8,0:0:0:0:
256,192,9745,1,0,0:0:0:0:
256,192,9882,1,0,0:0:0:0:
256,192,10018,1,8,0:0:0:0:
256,192,10291,1,8,0:0:0:0:
256,192,10359,1,8,0:0:0:0:
256,192,10427,1,8,0:0:0:0:
256,192,10495,1,8,0:0:0:0:
256,192,10564,1,0,0:0:0:0:
256,192,10632,1,0,0:0:0:0:
256,192,10700,1,0,0:0:0:0:
256,192,10768,1,0,0:0:0:0:
256,192,10836,1,8,0:0:0:0:
256,192,10973,1,0,0:0:0:0:
256,192,11109,1,12,0:0:0:0:
256,192,11382,1,0,0:0:0:0:
256,192,11518,1,0,0:0:0:0:
256,192,11586,1,0,0:0:0:0:
256,192,11655,1,8,0:0:0:0:
256,192,11791,1,0,0:0:0:0:
256,192,11927,1,8,0:0:0:0:
256,192,12064,1,8,0:0:0:0:
256,192,12200,1,0,0:0:0:0:
256,192,12336,1,0,0:0:0:0:
256,192,12473,1,12,0:0:0:0:
256,192,12745,1,4,0:0:0:0:
256,192,13018,1,12,0:0:0:0:
256,192,13291,1,4,0:0:0:0:
256,192,13564,1,0,0:0:0:0:
256,192,13700,1,0,0:0:0:0:
256,192,13768,1,0,0:0:0:0:
256,192,13836,1,8,0:0:0:0:
256,192,13973,1,0,0:0:0:0:
256,192,14109,1,8,0:0:0:0:
256,192,14177,1,8,0:0:0:0:
256,192,14245,1,0,0:0:0:0:
256,192,14382,1,8,0:0:0:0:
256,192,14518,1,8,0:0:0:0:
256,192,14655,1,4,0:0:0:0:
256,192,14927,1,12,0:0:0:0:
256,192,15200,1,4,0:0:0:0:
256,192,15473,1,12,0:0:0:0:
256,192,15745,1,0,0:0:0:0:
256,192,15882,1,0,0:0:0:0:
256,192,16018,1,8,0:0:0:0:
256,192,16155,1,0,0:0:0:0:
256,192,16291,1,8,0:0:0:0:
256,192,16427,1,0,0:0:0:0:
256,192,16564,1,8,0:0:0:0:
256,192,16700,1,8,0:0:0:0:
256,192,16836,1,0,0:0:0:0:
256,192,16905,1,0,0:0:0:0:
256,192,16973,1,0,0:0:0:0:
256,192,17041,1,0,0:0:0:0:
256,192,17109,1,8,0:0:0:0:
256,192,17177,1,8,0:0:0:0:
256,192,17245,1,0,0:0:0:0:
256,192,17314,1,0,0:0:0:0:
256,192,17382,1,8,0:0:0:0:
256,192,17518,1,0,0:0:0:0:
256,192,17655,1,8,0:0:0:0:
256,192,17927,1,4,0:0:0:0:
256,192,18064,1,8,0:0:0:0:
256,192,18200,1,8,0:0:0:0:
256,192,18336,1,4,0:0:0:0:
256,192,18473,1,8,0:0:0:0:
256,192,18609,1,8,0:0:0:0:
256,192,18745,1,4,0:0:0:0:
256,192,18882,1,8,0:0:0:0:
256,192,19018,1,4,0:0:0:0:
256,192,19291,1,0,0:0:0:0:
256,192,19564,1,8,0:0:0:0:
256,192,19836,1,12,0:0:0:0:
256,192,20109,1,0,0:0:0:0:
256,192,20245,1,0,0:0:0:0:
256,192,20314,1,0,0:0:0:0:
256,192,20382,1,8,0:0:0:0:
256,192,20518,1,8,0:0:0:0:
256,192,20586,1,8,0:0:0:0:
256,192,20655,1,0,0:0:0:0:
256,192,20791,1,8,0:0:0:0:
256,192,21064,1,8,0:0:0:0:
256,192,21200,1,0,0:0:0:0:
256,192,21268,1,0,0:0:0:0:
256,192,21336,1,0,0:0:0:0:
256,192,21473,1,8,0:0:0:0:
256,192,21609,1,8,0:0:0:0:
256,192,21745,1,0,0:0:0:0:
256,192,21814,1,0,0:0:0:0:
256,192,21882,1,8,0:0:0:0:
256,192,22018,1,0,0:0:0:0:
256,192,22291,1,0,0:0:0:0:
256,192,22427,1,8,0:0:0:0:
256,192,22495,1,0,0:0:0:0:
256,192,22564,1,8,0:0:0:0:
256,192,22700,1,8,0:0:0:0:
256,192,22768,1,8,0:0:0:0:
256,192,22836,1,0,0:0:0:0:
256,192,22973,1,8,0:0:0:0:
256,192,23109,1,0,0:0:0:0:
256,192,23177,1,0,0:0:0:0:
256,192,23245,1,8,0:0:0:0:
256,192,23382,1,0,0:0:0:0:
256,192,23518,1,8,0:0:0:0:
256,192,23586,1,8,0:0:0:0:
256,192,23655,1,0,0:0:0:0:
256,192,23791,1,8,0:0:0:0:
256,192,23927,1,0,0:0:0:0:
256,192,24200,1,12,0:0:0:0:
256,192,24473,1,0,0:0:0:0:
256,192,24609,1,0,0:0:0:0:
256,192,24678,1,0,0:0:0:0:
256,192,24746,1,8,0:0:0:0:
256,192,24882,1,8,0:0:0:0:
256,192,24950,1,8,0:0:0:0:
256,192,25019,1,0,0:0:0:0:
256,192,25155,1,8,0:0:0:0:
256,192,25428,1,8,0:0:0:0:
256,192,25564,1,0,0:0:0:0:
256,192,25632,1,0,0:0:0:0:
256,192,25700,1,0,0:0:0:0:
256,192,25837,1,8,0:0:0:0:
256,192,25973,1,8,0:0:0:0:
256,192,26109,1,0,0:0:0:0:
256,192,26178,1,0,0:0:0:0:
256,192,26246,1,8,0:0:0:0:
256,192,26382,1,0,0:0:0:0:
256,192,26655,1,8,0:0:0:0:
256,192,26723,1,8,0:0:0:0:
256,192,26791,1,8,0:0:0:0:
256,192,26859,1,8,0:0:0:0:
256,192,26927,1,0,0:0:0:0:
256,192,27064,1,8,0:0:0:0:
256,192,27200,1,0,0:0:0:0:
256,192,27336,1,0,0:0:0:0:
256,192,27473,1,8,0:0:0:0:
256,192,27541,1,8,0:0:0:0:
256,192,27609,1,8,0:0:0:0:
256,192,27745,1,4,0:0:0:0:
256,192,28018,1,4,0:0:0:0:
256,192,28291,1,8,0:0:0:0:
256,192,28564,1,12,0:0:0:0:
256,192,28836,1,0,0:0:0:0:
256,192,28905,1,0,0:0:0:0:
256,192,28973,1,0,0:0:0:0:
256,192,29041,1,0,0:0:0:0:
256,192,29109,1,8,0:0:0:0:
256,192,29245,1,8,0:0:0:0:
256,192,29382,1,0,0:0:0:0:
256,192,29518,1,8,0:0:0:0:
256,192,29791,1,8,0:0:0:0:
256,192,29927,1,0,0:0:0:0:
256,192,29995,1,0,0:0:0:0:
256,192,30064,1,0,0:0:0:0:
256,192,30200,1,8,0:0:0:0:
256,192,30336,1,0,0:0:0:0:
256,192,30473,1,8,0:0:0:0:
256,192,30541,1,8,0:0:0:0:
256,192,30609,1,0,0:0:0:0:
256,192,30745,1,8,0:0:0:0:
256,192,30814,1,0,0:0:0:0:
256,192,30882,1,8,0:0:0:0:
256,192,30950,1,0,0:0:0:0:
256,192,31018,1,8,0:0:0:0:
256,192,31155,1,0,0:0:0:0:
256,192,31223,1,0,0:0:0:0:
256,192,31291,1,8,0:0:0:0:
256,192,31427,1,8,0:0:0:0:
256,192,31564,1,0,0:0:0:0:
256,192,31700,1,8,0:0:0:0:
256,192,31973,1,8,0:0:0:0:
256,192,32109,1,0,0:0:0:0:
256,192,32177,1,0,0:0:0:0:
256,192,32246,1,0,0:0:0:0:
256,192,32382,1,8,0:0:0:0:
256,192,32518,1,0,0:0:0:0:
256,192,32655,1,8,0:0:0:0:
256,192,32723,1,8,0:0:0:0:
256,192,32791,1,0,0:0:0:0:
256,192,32927,1,0,0:0:0:0:
256,192,32996,1,8,0:0:0:0:
256,192,33064,1,0,0:0:0:0:
256,192,33132,1,8,0:0:0:0:
256,192,33200,1,0,0:0:0:0:
256,192,33337,1,0,0:0:0:0:
256,192,33405,1,0,0:0:0:0:
256,192,33473,1,8,0:0:0:0:
256,192,33609,1,8,0:0:0:0:
256,192,33746,1,0,0:0:0:0:
256,192,33882,1,8,0:0:0:0:
256,192,34018,1,8,0:0:0:0:
256,192,34086,1,8,0:0:0:0:
256,192,34155,1,0,0:0:0:0:
256,192,34223,1,0,0:0:0:0:
256,192,34291,1,0,0:0:0:0:
256,192,34427,1,8,0:0:0:0:
256,192,34564,1,0,0:0:0:0:
256,192,34700,1,8,0:0:0:0:
256,192,34836,1,0,0:0:0:0:
256,192,34905,1,0,0:0:0:0:
256,192,34973,1,0,0:0:0:0:
256,192,35109,1,12,0:0:0:0:
256,192,35382,1,4,0:0:0:0:
256,192,35655,1,0,0:0:0:0:
256,192,35791,1,0,0:0:0:0:
256,192,35927,1,8,0:0:0:0:
256,192,36064,1,0,0:0:0:0:
256,192,36200,1,8,0:0:0:0:
256,192,36268,1,8,0:0:0:0:
256,192,36336,1,8,0:0:0:0:
256,192,36473,1,4,0:0:0:0:
256,192,36609,1,8,0:0:0:0:
256,192,36677,1,8,0:0:0:0:
256,192,36745,1,0,0:0:0:0:
256,192,36882,1,8,0:0:0:0:
256,192,37018,1,4,0:0:0:0:
256,192,37155,1,8,0:0:0:0:
256,192,37223,1,8,0:0:0:0:
256,192,37291,1,0,0:0:0:0:
256,192,37427,1,8,0:0:0:0:
256,192,37564,1,0,0:0:0:0:
256,192,37632,1,0,0:0:0:0:
256,192,37700,1,0,0:0:0:0:
256,192,37768,1,0,0:0:0:0:
256,192,37836,1,0,0:0:0:0:
256,192,38109,1,12,0:0:0:0:
256,192,38655,1,0,0:0:0:0:
256,192,38791,1,0,0:0:0:0:
256,192,38927,1,8,0:0:0:0:
256,192,39064,1,0,0:0:0:0:
256,192,39200,1,8,0:0:0:0:
256,192,39336,1,8,0:0:0:0:
256,192,39473,1,0,0:0:0:0:
256,192,39609,1,8,0:0:0:0:
256,192,39745,1,0,0:0:0:0:
256,192,40018,1,8,0:0:0:0:
256,192,40155,1,8,0:0:0:0:
256,192,40291,1,0,0:0:0:0:
256,192,40427,1,0,0:0:0:0:
256,192,40564,1,8,0:0:0:0:
256,192,40700,1,8,0:0:0:0:
256,192,40836,1,0,0:0:0:0:
256,192,40973,1,8,0:0:0:0:
256,192,41245,1,8,0:0:0:0:
256,192,41382,1,0,0:0:0:0:
256,192,41518,1,0,0:0:0:0:
256,192,41655,1,12,0:0:0:0:
256,192,41927,1,0,0:0:0:0:
256,192,41995,1,0,0:0:0:0:
256,192,42064,1,0,0:0:0:0:
256,192,42132,1,0,0:0:0:0:
256,192,42200,1,0,0:0:0:0:
256,192,42473,1,12,0:0:0:0:
256,192,43018,1,0,0:0:0:0:
256,192,43155,1,0,0:0:0:0:
256,192,43291,1,8,0:0:0:0:
256,192,43427,1,0,0:0:0:0:
256,192,43564,1,0,0:0:0:0:
256,192,43700,1,8,0:0:0:0:
256,192,43836,1,8,0:0:0:0:
256,192,43973,1,8,0:0:0:0:
256,192,44109,1,0,0:0:0:0:
256,192,44245,1,8,0:0:0:0:
256,192,44518,1,8,0:0:0:0:
256,192,44655,1,0,0:0:0:0:
256,192,44927,1,0,0:0:0:0:
256,192,45064,1,8,0:0:0:0:
256,192,45200,1,4,0:0:0:0:
256,192,45473,1,4,0:0:0:0:
256,192,45745,1,4,0:0:0:0:
256,192,46018,1,12,0:0:0:0:
256,192,46291,1,0,0:0:0:0:
256,192,46359,1,0,0:0:0:0:
256,192,46427,1,0,0:0:0:0:
256,192,46495,1,0,0:0:0:0:
256,192,46563,1,0,0:0:0:0:
256,192,46836,1,12,0:0:0:0:
256,192,47382,1,0,0:0:0:0:
256,192,47518,1,0,0:0:0:0:
256,192,47654,1,8,0:0:0:0:
256,192,47791,1,0,0:0:0:0:
256,192,47927,1,8,0:0:0:0:
256,192,48063,1,8,0:0:0:0:
256,192,48200,1,0,0:0:0:0:
256,192,48336,1,8,0:0:0:0:
256,192,48472,1,0,0:0:0:0:
256,192,48745,1,8,0:0:0:0:
256,192,48882,1,8,0:0:0:0:
256,192,49018,1,0,0:0:0:0:
256,192,49154,1,0,0:0:0:0:
256,192,49291,1,8,0:0:0:0:
256,192,49427,1,8,0:0:0:0:
256,192,49563,1,0,0:0:0:0:
256,192,49700,1,8,0:0:0:0:
256,192,49972,1,8,0:0:0:0:
256,192,50109,1,0,0:0:0:0:
256,192,50245,1,0,0:0:0:0:
256,192,50382,1,12,0:0:0:0:
256,192,50654,1,0,0:0:0:0:
256,192,50722,1,0,0:0:0:0:
256,192,50791,1,0,0:0:0:0:
256,192,50859,1,0,0:0:0:0:
256,192,50927,1,0,0:0:0:0:
256,192,51200,1,12,0:0:0:0:
256,192,51473,1,0,0:0:0:0:
256,192,51745,1,0,0:0:0:0:
256,192,51814,1,0,0:0:0:0:
256,192,51882,1,0,0:0:0:0:
256,192,51950,1,0,0:0:0:0:
256,192,52018,1,0,0:0:0:0:
256,192,52155,1,0,0:0:0:0:
256,192,52291,1,8,0:0:0:0:
256,192,52563,1,8,0:0:0:0:
256,192,52700,1,8,0:0:0:0:
256,192,52836,1,0,0:0:0:0:
256,192,53245,1,0,0:0:0:0:
256,192,53518,1,0,0:0:0:0:
256,192,53791,1,0,0:0:0:0:
256,192,53927,1,8,0:0:0:0:
256,192,54064,1,8,0:0:0:0:
256,192,54200,1,0,0:0:0:0:
256,192,54336,1,8,0:0:0:0:
256,192,54473,1,0,0:0:0:0:
256,192,54609,1,0,0:0:0:0:
256,192,54745,1,8,0:0:0:0:
256,192,54882,1,8,0:0:0:0:
256,192,55018,1,4,0:0:0:0:
256,192,55291,1,8,0:0:0:0:
256,192,55564,1,8,0:0:0:0:
256,192,55836,1,8,0:0:0:0:
256,192,55973,1,8,0:0:0:0:
256,192,56109,1,8,0:0:0:0:
256,192,56382,1,8,0:0:0:0:
256,192,56655,1,8,0:0:0:0:
256,192,56927,1,8,0:0:0:0:
256,192,57200,1,8,0:0:0:0:
256,192,57609,1,8,0:0:0:0:
256,192,57882,1,8,0:0:0:0:
256,192,58155,1,8,0:0:0:0:
256,192,58291,1,8,0:0:0:0:
256,192,58564,1,8,0:0:0:0:
256,192,58836,1,8,0:0:0:0:
256,192,59109,1,8,0:0:0:0:
256,192,59382,1,4,0:0:0:0:
256,192,59655,1,8,0:0:0:0:
256,192,59791,1,0,0:0:0:0:
256,192,60064,1,0,0:0:0:0:
256,192,60200,1,8,0:0:0:0:
256,192,60336,1,8,0:0:0:0:
256,192,60473,1,0,0:0:0:0:
256,192,60745,1,8,0:0:0:0:
256,192,60882,1,0,0:0:0:0:
256,192,61155,1,0,0:0:0:0:
256,192,61291,1,8,0:0:0:0:
256,192,61427,1,0,0:0:0:0:
256,192,61564,1,4,0:0:0:0:
256,192,61973,1,12,0:0:0:0:
256,192,62245,1,0,0:0:0:0:
256,192,62382,1,8,0:0:0:0:
256,192,62518,1,8,0:0:0:0:
256,192,62655,12,0,63336,0:0:0:0:
256,192,63473,5,12,0:0:0:0:
256,192,63609,1,12,0:0:0:0:
256,192,63745,1,0,0:0:0:0:
256,192,63814,1,0,0:0:0:0:
256,192,63882,1,0,0:0:0:0:
256,192,63950,1,0,0:0:0:0:
256,192,64018,1,8,0:0:0:0:
256,192,64155,1,8,0:0:0:0:
256,192,64291,1,0,0:0:0:0:
256,192,64427,1,0,0:0:0:0:
256,192,64495,1,0,0:0:0:0:
256,192,64564,1,8,0:0:0:0:
256,192,64700,1,8,0:0:0:0:
256,192,64836,1,0,0:0:0:0:
256,192,64973,1,8,0:0:0:0:
256,192,65109,1,0,0:0:0:0:
256,192,65177,1,8,0:0:0:0:
256,192,65245,1,8,0:0:0:0:
256,192,65314,1,0,0:0:0:0:
256,192,65382,1,8,0:0:0:0:
256,192,65518,1,0,0:0:0:0:
256,192,65586,1,8,0:0:0:0:
256,192,65655,1,0,0:0:0:0:
256,192,65791,1,8,0:0:0:0:
256,192,65927,1,0,0:0:0:0:
256,192,66064,1,8,0:0:0:0:
256,192,66132,1,8,0:0:0:0:
256,192,66200,1,0,0:0:0:0:
256,192,66336,1,8,0:0:0:0:
256,192,66473,1,0,0:0:0:0:
256,192,66541,1,0,0:0:0:0:
256,192,66609,1,8,0:0:0:0:
256,192,66677,1,8,0:0:0:0:
256,192,66745,1,0,0:0:0:0:
256,192,66814,1,0,0:0:0:0:
256,192,66882,1,8,0:0:0:0:
256,192,67018,1,0,0:0:0:0:
256,192,67155,1,8,0:0:0:0:
256,192,67223,1,8,0:0:0:0:
256,192,67291,1,8,0:0:0:0:
256,192,67427,1,0,0:0:0:0:
256,192,67564,1,12,0:0:0:0:
256,192,67836,1,12,0:0:0:0:
256,192,68109,1,0,0:0:0:0:
256,192,68177,1,0,0:0:0:0:
256,192,68245,1,0,0:0:0:0:
256,192,68314,1,0,0:0:0:0:
256,192,68382,1,8,0:0:0:0:
256,192,68518,1,8,0:0:0:0:
256,192,68655,1,0,0:0:0:0:
256,192,68791,1,0,0:0:0:0:
256,192,68859,1,0,0:0:0:0:
256,192,68927,1,8,0:0:0:0:
256,192,69064,1,8,0:0:0:0:
256,192,69200,1,0,0:0:0:0:
256,192,69336,1,8,0:0:0:0:
256,192,69405,1,0,0:0:0:0:
256,192,69473,1,8,0:0:0:0:
256,192,69541,1,8,0:0:0:0:
256,192,69609,1,0,0:0:0:0:
256,192,69745,1,8,0:0:0:0:
256,192,69814,1,0,0:0:0:0:
256,192,69882,1,0,0:0:0:0:
256,192,69950,1,0,0:0:0:0:
256,192,70018,1,8,0:0:0:0:
256,192,70086,1,8,0:0:0:0:
256,192,70155,1,0,0:0:0:0:
256,192,70223,1,0,0:0:0:0:
256,192,70291,1,8,0:0:0:0:
256,192,70359,1,8,0:0:0:0:
256,192,70427,1,8,0:0:0:0:
256,192,70495,1,8,0:0:0:0:
256,192,70564,1,0,0:0:0:0:
256,192,70836,1,0,0:0:0:0:
256,192,70905,1,0,0:0:0:0:
256,192,70973,1,0,0:0:0:0:
256,192,71041,1,0,0:0:0:0:
256,192,71109,1,8,0:0:0:0:
256,192,71245,1,0,0:0:0:0:
256,192,71382,1,8,0:0:0:0:
256,192,71518,1,0,0:0:0:0:
256,192,71586,1,0,0:0:0:0:
256,192,71655,1,8,0:0:0:0:
256,192,71791,1,0,0:0:0:0:
256,192,71859,1,0,0:0:0:0:
256,192,71927,1,8,0:0:0:0:
256,192,71995,1,8,0:0:0:0:
256,192,72064,1,0,0:0:0:0:
256,192,72200,1,12,0:0:0:0:
256,192,72473,1,8,0:0:0:0:
256,192,72541,1,0,0:0:0:0:
256,192,72609,1,0,0:0:0:0:
256,192,72677,1,0,0:0:0:0:
256,192,72745,1,8,0:0:0:0:
256,192,72882,1,8,0:0:0:0:
256,192,73018,1,0,0:0:0:0:
256,192,73155,1,8,0:0:0:0:
256,192,73223,1,8,0:0:0:0:
256,192,73291,1,0,0:0:0:0:
256,192,73359,1,0,0:0:0:0:
256,192,73427,1,8,0:0:0:0:
256,192,73564,1,0,0:0:0:0:
256,192,73701,1,8,0:0:0:0:
256,192,73837,1,0,0:0:0:0:
256,192,73905,1,8,0:0:0:0:
256,192,73973,1,0,0:0:0:0:
256,192,74042,1,8,0:0:0:0:
256,192,74110,1,8,0:0:0:0:
256,192,74245,1,8,0:0:0:0:
256,192,74314,1,8,0:0:0:0:
256,192,74383,1,0,0:0:0:0:
256,192,74519,1,8,0:0:0:0:
256,192,74655,1,0,0:0:0:0:
256,192,74792,1,8,0:0:0:0:
256,192,74860,1,0,0:0:0:0:
256,192,74928,1,0,0:0:0:0:
256,192,74995,1,0,0:0:0:0:
256,192,75064,1,8,0:0:0:0:
256,192,75201,1,0,0:0:0:0:
256,192,75269,1,0,0:0:0:0:
256,192,75337,1,8,0:0:0:0:
256,192,75405,1,8,0:0:0:0:
256,192,75473,1,0,0:0:0:0:
256,192,75542,1,0,0:0:0:0:
256,192,75610,1,8,0:0:0:0:
256,192,75746,1,0,0:0:0:0:
256,192,75883,1,8,0:0:0:0:
256,192,75951,1,8,0:0:0:0:
256,192,76019,1,8,0:0:0:0:
256,192,76155,1,0,0:0:0:0:
256,192,76291,1,8,0:0:0:0:
256,192,76427,1,0,0:0:0:0:
256,192,76495,1,0,0:0:0:0:
256,192,76564,1,8,0:0:0:0:
256,192,76632,1,8,0:0:0:0:
256,192,76700,1,8,0:0:0:0:
256,192,76836,1,4,0:0:0:0:
256,192,77109,1,8,0:0:0:0:
256,192,77245,1,4,0:0:0:0:
256,192,77382,1,8,0:0:0:0:
256,192,77655,1,4,0:0:0:0:
256,192,77791,1,8,0:0:0:0:
256,192,78064,1,4,0:0:0:0:
256,192,78336,1,4,0:0:0:0:
256,192,78473,1,8,0:0:0:0:
256,192,78541,1,8,0:0:0:0:
256,192,78609,1,0,0:0:0:0:
256,192,78677,1,0,0:0:0:0:
256,192,78745,1,8,0:0:0:0:
256,192,78814,1,8,0:0:0:0:
256,192,78882,1,8,0:0:0:0:
256,192,78950,1,8,0:0:0:0:
256,192,79155,1,0,0:0:0:0:
256,192,79291,1,8,0:0:0:0:
256,192,79427,1,0,0:0:0:0:
256,192,79564,1,8,0:0:0:0:
256,192,79700,1,8,0:0:0:0:
256,192,79836,1,0,0:0:0:0:
256,192,79973,1,8,0:0:0:0:
256,192,80109,2,0,L|224:224,10,35
256,192,80927,1,12,0:0:0:0:
256,192,81200,1,4,0:0:0:0:
256,192,81473,1,8,0:0:0:0:
256,192,81745,1,0,0:0:0:0:
256,192,82018,1,8,0:0:0:0:
256,192,82155,1,8,0:0:0:0:
256,192,82291,1,8,0:0:0:0:
256,192,82564,1,8,0:0:0:0:
256,192,82836,1,0,0:0:0:0:
256,192,83109,1,8,0:0:0:0:
256,192,83382,1,0,0:0:0:0:
256,192,83791,1,8,0:0:0:0:
256,192,84064,1,8,0:0:0:0:
256,192,84336,1,0,0:0:0:0:
256,192,84473,1,8,0:0:0:0:
256,192,84745,1,8,0:0:0:0:
256,192,85018,1,8,0:0:0:0:
256,192,85291,1,8,0:0:0:0:
256,192,85564,1,0,0:0:0:0:
256,192,85836,1,8,0:0:0:0:
256,192,86109,1,0,0:0:0:0:
256,192,86382,1,8,0:0:0:0:
256,192,86518,1,8,0:0:0:0:
256,192,86655,1,4,0:0:0:0:
256,192,86927,1,8,0:0:0:0:
256,192,87473,1,8,0:0:0:0:
256,192,87541,1,8,0:0:0:0:
256,192,87609,1,8,0:0:0:0:
256,192,87677,1,8,0:0:0:0:
256,192,87745,1,0,0:0:0:0:
256,192,87882,1,0,0:0:0:0:
256,192,88018,1,12,0:0:0:0:
256,192,88291,1,0,0:0:0:0:
256,192,88427,1,0,0:0:0:0:
256,192,88564,1,12,0:0:0:0:
256,192,88836,12,0,89518,0:0:0:0:
256,192,89655,5,12,0:0:0:0:
256,192,89927,5,0,0:0:0:0:
256,192,90063,1,0,0:0:0:0:
256,192,90132,1,0,0:0:0:0:
256,192,90200,1,8,0:0:0:0:
256,192,90336,1,8,0:0:0:0:
256,192,90404,1,8,0:0:0:0:
256,192,90473,1,0,0:0:0:0:
256,192,90609,1,8,0:0:0:0:
256,192,90882,1,8,0:0:0:0:
256,192,91018,1,0,0:0:0:0:
256,192,91086,1,0,0:0:0:0:
256,192,91154,1,0,0:0:0:0:
256,192,91291,1,8,0:0:0:0:
256,192,91427,1,8,0:0:0:0:
256,192,91563,1,4,0:0:0:0:
256,192,91836,1,4,0:0:0:0:
256,192,92109,1,0,0:0:0:0:
256,192,92245,1,8,0:0:0:0:
256,192,92313,1,8,0:0:0:0:
256,192,92382,1,8,0:0:0:0:
256,192,92518,1,8,0:0:0:0:
256,192,92654,1,0,0:0:0:0:
256,192,92723,1,0,0:0:0:0:
256,192,92791,1,0,0:0:0:0:
256,192,92859,1,0,0:0:0:0:
256,192,92927,1,8,0:0:0:0:
256,192,92995,1,8,0:0:0:0:
256,192,93064,1,0,0:0:0:0:
256,192,93132,1,0,0:0:0:0:
256,192,93200,1,8,0:0:0:0:
256,192,93336,1,8,0:0:0:0:
256,192,93404,1,8,0:0:0:0:
256,192,93473,1,0,0:0:0:0:
256,192,93609,1,8,0:0:0:0:
256,192,93745,1,0,0:0:0:0:
256,192,93882,1,0,0:0:0:0:
256,192,94018,1,12,0:0:0:0:
256,192,94291,1,0,0:0:0:0:
256,192,94427,1,0,0:0:0:0:
256,192,94496,1,0,0:0:0:0:
256,192,94564,1,8,0:0:0:0:
256,192,94700,1,8,0:0:0:0:
256,192,94768,1,8,0:0:0:0:
256,192,94837,1,0,0:0:0:0:
256,192,94973,1,8,0:0:0:0:
256,192,95246,1,8,0:0:0:0:
256,192,95382,1,0,0:0:0:0:
256,192,95450,1,0,0:0:0:0:
256,192,95518,1,0,0:0:0:0:
256,192,95655,1,8,0:0:0:0:
256,192,95791,1,8,0:0:0:0:
256,192,95927,1,4,0:0:0:0:
256,192,96200,1,4,0:0:0:0:
256,192,96473,1,8,0:0:0:0:
256,192,96609,1,0,0:0:0:0:
256,192,96677,1,0,0:0:0:0:
256,192,96745,1,0,0:0:0:0:
256,192,96882,1,0,0:0:0:0:
256,192,97018,1,8,0:0:0:0:
256,192,97086,1,8,0:0:0:0:
256,192,97154,1,0,0:0:0:0:
256,192,97291,1,8,0:0:0:0:
256,192,97563,1,4,0:0:0:0:
256,192,97836,1,4,0:0:0:0:
256,192,98109,1,8,0:0:0:0:
256,192,98382,1,12,0:0:0:0:
256,192,98654,1,0,0:0:0:0:
256,192,98723,1,0,0:0:0:0:
256,192,98791,1,0,0:0:0:0:
256,192,98859,1,0,0:0:0:0:
256,192,98927,1,8,0:0:0:0:
256,192,99063,1,8,0:0:0:0:
256,192,99200,1,0,0:0:0:0:
256,192,99336,1,8,0:0:0:0:
256,192,99609,1,8,0:0:0:0:
256,192,99745,1,0,0:0:0:0:
256,192,99813,1,0,0:0:0:0:
256,192,99882,1,0,0:0:0:0:
256,192,100018,1,8,0:0:0:0:
256,192,100154,1,8,0:0:0:0:
256,192,100291,1,4,0:0:0:0:
256,192,100563,1,4,0:0:0:0:
256,192,100836,1,8,0:0:0:0:
256,192,100973,1,0,0:0:0:0:
256,192,101041,1,0,0:0:0:0:
256,192,101109,1,8,0:0:0:0:
256,192,101245,1,8,0:0:0:0:
256,192,101382,1,0,0:0:0:0:
256,192,101518,1,8,0:0:0:0:
256,192,101655,1,8,0:0:0:0:
256,192,101723,1,8,0:0:0:0:
256,192,101791,1,0,0:0:0:0:
256,192,101859,1,0,0:0:0:0:
256,192,101927,1,8,0:0:0:0:
256,192,102064,1,0,0:0:0:0:
256,192,102200,1,8,0:0:0:0:
256,192,102336,1,0,0:0:0:0:
256,192,102473,1,8,0:0:0:0:
256,192,102541,1,8,0:0:0:0:
256,192,102609,1,0,0:0:0:0:
256,192,102745,1,12,0:0:0:0:
256,192,103018,1,0,0:0:0:0:
256,192,103155,1,0,0:0:0:0:
256,192,103223,1,0,0:0:0:0:
256,192,103291,1,8,0:0:0:0:
256,192,103427,1,8,0:0:0:0:
256,192,103564,1,0,0:0:0:0:
256,192,103700,1,8,0:0:0:0:
256,192,103836,1,8,0:0:0:0:
256,192,103973,1,0,0:0:0:0:
256,192,104041,1,0,0:0:0:0:
256,192,104109,1,0,0:0:0:0:
256,192,104245,1,8,0:0:0:0:
256,192,104382,1,0,0:0:0:0:
256,192,104450,1,0,0:0:0:0:
256,192,104518,1,0,0:0:0:0:
256,192,104586,1,0,0:0:0:0:
256,192,104655,1,8,0:0:0:0:
256,192,104927,1,8,0:0:0:0:
256,192,104973,1,8,0:0:0:0:
256,192,105018,1,8,0:0:0:0:
256,192,105064,1,8,0:0:0:0:
256,192,105200,1,0,0:0:0:0:
256,192,105336,1,0,0:0:0:0:
256,192,105473,1,8,0:0:0:0:
256,192,105609,1,0,0:0:0:0:
256,192,105745,2,0,L|224:224,6,35
256,192,106291,1,12,0:0:0:0:
256,192,106427,1,0,0:0:0:0:
256,192,106495,1,0,0:0:0:0:
256,192,106564,1,0,0:0:0:0:
256,192,106700,1,0,0:0:0:0:
256,192,106836,1,12,0:0:0:0:
256,192,107382,1,0,0:0:0:0:
256,192,107518,1,0,0:0:0:0:
256,192,107586,1,0,0:0:0:0:
256,192,107655,1,8,0:0:0:0:
256,192,107791,1,0,0:0:0:0:
256,192,107927,1,8,0:0:0:0:
256,192,108064,1,8,0:0:0:0:
256,192,108200,1,0,0:0:0:0:
256,192,108336,1,0,0:0:0:0:
256,192,108473,1,12,0:0:0:0:
256,192,108745,1,4,0:0:0:0:
256,192,109018,1,12,0:0:0:0:
256,192,109291,1,4,0:0:0:0:
256,192,109564,1,0,0:0:0:0:
256,192,109700,1,0,0:0:0:0:
256,192,109768,1,0,0:0:0:0:
256,192,109836,1,8,0:0:0:0:
256,192,109973,1,0,0:0:0:0:
256,192,110109,1,8,0:0:0:0:
256,192,110177,1,8,0:0:0:0:
256,192,110245,1,0,0:0:0:0:
256,192,110382,1,8,0:0:0:0:
256,192,110518,1,8,0:0:0:0:
256,192,110655,1,4,0:0:0:0:
256,192,110927,1,12,0:0:0:0:
256,192,111200,1,4,0:0:0:0:
256,192,111473,1,12,0:0:0:0:
256,192,111745,1,0,0:0:0:0:
256,192,111814,1,0,0:0:0:0:
256,192,111882,1,0,0:0:0:0:
256,192,111950,1,0,0:0:0:0:
256,192,112018,1,8,0:0:0:0:
256,192,112086,1,8,0:0:0:0:
256,192,112155,1,0,0:0:0:0:
256,192,112223,1,0,0:0:0:0:
256,192,112291,1,8,0:0:0:0:
256,192,112427,1,0,0:0:0:0:
256,192,112564,1,8,0:0:0:0:
256,192,112700,1,8,0:0:0:0:
256,192,112836,1,0,0:0:0:0:
256,192,112973,1,0,0:0:0:0:
256,192,113109,1,8,0:0:0:0:
256,192,113245,1,0,0:0:0:0:
256,192,113382,1,8,0:0:0:0:
256,192,113518,1,8,0:0:0:0:
256,192,113655,1,8,0:0:0:0:
256,192,113791,1,8,0:0:0:0:
256,192,113927,1,4,0:0:0:0:
256,192,114336,1,4,0:0:0:0:
256,192,114745,1,4,0:0:0:0:
256,192,115018,1,0,0:0:0:0:
256,192,115291,1,0,0:0:0:0:
256,192,115564,1,8,0:0:0:0:
256,192,115836,1,12,0:0:0:0:
