osu file format v14

[General]
AudioFilename: Crack Traxxxx.mp3
AudioLeadIn: 0
PreviewTime: 63745
Countdown: 0
SampleSet: Soft
StackLeniency: 0.2
Mode: 2
LetterboxInBreaks: 0
EpilepsyWarning: 1
WidescreenStoryboard: 0

[Editor]
Bookmarks: 70155
DistanceSpacing: 0.6
BeatDivisor: 8
GridSize: 4
TimelineZoom: 2.999999

[Metadata]
Title:Crack Traxxxx
TitleUnicode:Crack Traxxxx
Artist:Lite Show Magic (t+pazolite vs C-Show)
ArtistUnicode:Lite Show Magic (t+pazolite vs C-Show)
Creator:Fatfan Kolek
Version:Spec's Hi-Speed Overdose
Source:SOUND VOLTEX II -infinite infection-
Tags:t+pazolite c-show TKSalt TKS Dariano Fanzhen0019 Oracle Natsu P_A_N Aka EvilElvis Gero Onosakihito DJNightmare Fast Spectator sukiNathan Okoratu
BeatmapID:481938
BeatmapSetID:139525

[Difficulty]
HPDrainRate:5.7
CircleSize:3.8
OverallDifficulty:9.3
ApproachRate:9.3
SliderMultiplier:1.75
SliderTickRate:2

[Events]
//Background and Video events
0,0,"bg.jpg",0,0
//Break Periods
//Storyboard Layer 0 (Background)
//Storyboard Layer 1 (Fail)
//Storyboard Layer 2 (Pass)
//Storyboard Layer 3 (Foreground)
Sprite,Foreground,Centre,"SB/glowmap.png",320,240 P,0,0,119170,A F,0,2382,,0 M,0,2655,,320,240 S,0,2655,,0.7963637 F,0,2655,4836,1,0 F,0,7018,7291,1,0 F,0,7427,9200,1,0 F,0,12473,12609,1,0 F,0,12745,12882,1,0 F,0,13018,13155,1,0 F,0,13291,13427,1,0 F,0,14655,14791,1,0 F,0,14927,15064,1,0 F,0,15200,15336,1,0 F,0,15473,15609,1,0 F,0,15745,,0.08145462 F,0,15882,,0.4319658 F,0,16018,,0.6533606 F,0,16155,,0.9287182 F,0,16291,16836,1,0 F,0,16905,,0.5032727 F,0,16973,,0.1803636 F,0,17041,,0.5789091 F,0,17109,,0.2065455 F,0,17177,,0.7301819 F,0,17245,,0.1396364 F,0,17314,,0.7883637 F,0,17382,17927,1,0 F,0,19836,20041,1,0 F,0,20109,22291,1,0 F,0,24200,24473,1,0 F,0,30745,,1 F,0,30814,,0 F,0,30882,,1 F,0,30950,,0 F,0,32927,,1 F,0,32995,,0 F,0,33064,,1 F,0,33132,,0 F,0,34018,,1 F,0,34086,,0 F,0,34155,,1 F,0,34223,,0 F,2,35109,35382,0.2589091,1 F,0,35382,36405,1,0 F,0,36473,36677,1,0 F,0,36745,36950,1,0 F,0,37018,37223,1,0 F,0,37291,37495,1,0 F,0,55018,57200,1,0 F,0,62689,,1 F,0,62723,,0 F,0,62791,,1 F,0,62825,,0 F,0,62893,,1 F,0,62927,,0 F,0,62995,,1 F,0,63030,,0 F,0,63098,,1 F,0,63132,,0 F,0,63200,,1 F,0,63234,,0 F,0,63302,,1 F,0,63336,,0 F,0,63405,,1 F,0,63439,,0 F,0,63473,63745,1,0 F,0,67564,67791,1,0 F,0,67836,68064,1,0 F,0,71382,71620,1,0 F,0,71655,71893,1,0 F,0,71927,72166,1,0 F,0,72200,72439,1,0 F,0,76291,,0.3309091 F,0,76359,,0 F,0,76427,,0.674909 F,0,76495,,0 F,0,76564,,1 F,0,76598,,0 F,0,76632,,1 F,0,76666,,0 F,0,76700,,1 F,0,76734,,0 F,0,76768,,1 F,0,76802,,0 F,0,80927,81064,1,0 F,0,81200,82291,1,0 F,0,87745,87814,0.1716364,0 F,0,87882,87950,0.3316363,0 F,0,88018,88223,1,0 F,0,88291,88359,0.1396364,0 F,0,88427,88495,0.3141819,0 F,0,88564,88768,1,0 F,0,88836,89586,1,0 F,0,89655,89927,1,0 F,0,107382,107655,0.5789091,0 F,0,107791,108064,1,0 F,0,108200,108405,0.994909,0 F,0,108473,108950,1,0 F,0,109018,109495,1,0 F,0,109564,109905,1,0 F,0,109973,110245,1,0 F,0,110382,110586,0.9163637,0 F,0,110655,111132,1,0 F,0,111200,111677,1,0 F,0,115836,116109,1,0
Sprite,Foreground,Centre,"SB/glowmap.png",320,240 P,0,0,119170,A F,0,63677,,0 S,0,63745,,0.7963637 F,0,63745,63984,1,0 F,0,64018,64257,1,0 F,0,64291,64530,1,0 F,0,64564,64803,1,0 F,0,64836,65075,1,0 F,0,65109,65348,1,0 F,0,65382,65621,1,0 F,0,65655,65894,1,0 F,0,65927,66166,1,0 F,0,66200,66439,1,0 F,0,66473,66712,1,0 F,0,66745,66984,1,0 F,0,67018,67257,1,0 F,0,67291,67530,1,0 F,0,68109,68348,1,0 F,0,68382,68621,1,0 F,0,68655,68894,1,0 F,0,68927,69166,1,0 F,0,69200,69439,1,0 F,0,69473,69712,1,0 F,0,69745,69984,1,0 F,0,70018,70257,1,0 F,0,70291,70530,1,0 F,0,70564,70803,1,0 F,0,70836,71075,1,0 F,0,71109,71348,1,0 F,0,72473,72712,1,0 F,0,72745,72984,1,0 F,0,73018,73257,1,0 F,0,73291,73530,1,0 F,0,73564,73803,1,0 F,0,73836,74075,1,0 F,0,74109,74348,1,0 F,0,74382,74621,1,0 F,0,74655,74894,1,0 F,0,74927,75166,1,0 F,0,75200,75439,1,0 F,0,75473,75712,1,0 F,0,75745,75984,1,0 F,0,76018,76257,1,0 F,0,76836,77075,1,0 F,0,77245,77484,1,0 F,0,77655,77894,1,0 F,0,78064,78303,1,0 F,0,78336,78575,1,0
Sprite,Foreground,Centre,"SB/glowmap.png",320,240 P,0,0,119170,A S,0,63745,,0.7963637 F,0,78405,,0 F,0,78473,78712,1,0 F,0,79155,79394,1,0 F,0,79427,79666,1,0 F,0,79700,79939,1,0 F,0,79973,80212,1,0
Sprite,Foreground,Centre,"SB/glowmap.png",320,240 P,0,0,119170,A S,0,63745,,0.7963637 F,0,80041,,0 F,0,80109,80348,1,0 F,0,100836,101382,0.541091,0
//Storyboard Sound Samples

[TimingPoints]
2655,272.727272727273,4,2,0,75,1,0
7018,-100,4,1,0,75,0,0
7836,-100,4,2,0,75,0,0
8109,-100,4,1,0,75,0,0
8245,-100,4,2,0,75,0,0
8518,-100,4,1,0,75,0,0
8655,-100,4,2,0,75,0,0
8927,-100,4,1,0,75,0,0
9064,-100,4,2,0,75,0,0
9200,-100,4,1,0,75,0,0
9336,-100,4,2,0,75,0,0
9609,-100,4,1,0,75,0,0
9745,-100,4,2,0,75,0,0
11109,-66.6666666666667,4,1,0,75,0,0
11245,-66.6666666666667,4,2,0,75,0,0
11382,-100,4,1,0,75,0,0
11518,-100,4,2,0,75,0,0
11791,-100,4,1,0,75,0,0
11927,-100,4,2,0,75,0,0
12200,-100,4,1,0,75,0,0
12405,-100,4,2,0,75,0,0
12473,-100,4,1,0,75,0,0
12677,-100,4,2,0,75,0,0
12745,-100,4,1,0,75,0,0
12882,-100,4,2,0,75,0,0
13018,-100,4,1,0,75,0,0
13155,-100,4,2,0,75,0,0
13291,-100,4,1,0,75,0,0
13427,-100,4,2,0,75,0,0
13564,-100,4,1,0,75,0,0
13700,-100,4,2,0,75,0,0
13973,-100,4,1,0,75,0,0
14109,-100,4,2,0,75,0,0
14655,-100,4,1,0,75,0,0
14791,-100,4,2,0,75,0,0
14927,-100,4,1,0,75,0,0
15064,-100,4,2,0,75,0,0
15200,-100,4,1,0,75,0,0
15336,-100,4,2,0,75,0,0
15473,-100,4,1,0,75,0,0
15609,-100,4,2,0,75,0,0
15745,-100,4,1,0,75,0,0
15882,-100,4,2,0,75,0,0
16291,-100,4,1,1,80,0,0
16427,-100,4,2,0,80,0,0
16905,-100,4,2,0,80,0,0
17382,-100,4,1,1,80,0,0
17518,-100,4,2,1,80,0,0
17927,-100,4,3,0,80,0,0
18064,-100,4,2,0,80,0,0
18336,-100,4,3,0,80,0,0
18473,-100,4,2,0,80,0,0
18745,-100,4,3,0,80,0,0
18882,-100,4,2,0,80,0,0
19018,-100,4,1,0,80,0,0
19223,-100,4,2,0,80,0,0
19836,-50,4,1,0,80,0,0
19973,-50,4,2,0,80,0,0
20109,-100,4,1,0,80,0,0
20791,-100,4,2,0,80,0,0
20927,-100,4,1,0,80,0,0
21064,-100,4,2,0,80,0,0
21200,-100,4,1,0,80,0,0
21336,-100,4,2,0,80,0,0
21473,-100,4,1,0,80,0,0
21609,-100,4,2,0,80,0,0
21745,-100,4,1,0,80,0,0
21882,-100,4,2,0,80,0,0
22018,-100,4,1,0,80,0,0
22155,-100,4,2,0,80,0,0
22291,-100,4,1,0,80,0,0
22427,-100,4,2,0,80,0,0
22564,-100,4,1,0,80,0,0
22700,-100,4,2,0,80,0,0
22836,-100,4,1,0,80,0,0
22973,-100,4,2,0,80,0,0
23109,-100,4,1,0,80,0,0
23382,-100,4,1,0,80,0,0
23518,-100,4,2,0,80,0,0
23655,-100,4,1,0,80,0,0
23791,-100,4,2,0,80,0,0
23927,-100,4,2,1,80,0,0
24200,-66.6666666666667,4,1,0,80,0,0
24336,-66.6666666666667,4,2,0,80,0,0
24473,-100,4,1,0,80,0,0
25155,-100,4,2,0,80,0,0
25291,-100,4,1,0,80,0,0
25427,-100,4,2,0,80,0,0
25564,-100,4,1,0,80,0,0
25700,-100,4,2,0,80,0,0
25836,-100,4,1,0,80,0,0
25973,-100,4,2,0,80,0,0
26109,-100,4,1,0,80,0,0
26245,-100,4,2,0,80,0,0
26382,-100,4,1,0,80,0,0
26518,-100,4,2,0,80,0,0
27473,-100,4,2,0,75,0,0
27745,-100,4,1,0,80,0,0
27882,-100,4,2,0,80,0,0
28018,-100,4,1,0,80,0,0
28155,-100,4,2,0,80,0,0
28291,-100,4,1,0,80,0,0
28427,-100,4,2,0,80,0,0
28836,-100,4,1,0,75,0,0
29109,-100,4,2,0,75,0,0
29245,-100,4,1,0,75,0,0
29382,-100,4,2,0,75,0,0
29518,-100,4,1,0,75,0,0
29655,-100,4,2,0,75,0,0
29791,-100,4,1,0,75,0,0
29927,-100,4,2,0,75,0,0
30064,-100,4,1,0,75,0,0
30200,-100,4,2,0,75,0,0
30473,-100,4,1,0,75,0,0
30609,-100,4,2,0,75,0,0
31018,-100,4,1,0,75,0,0
31291,-100,4,2,0,75,0,0
31427,-100,4,1,0,75,0,0
31564,-100,4,2,0,75,0,0
31700,-100,4,1,0,75,0,0
31836,-100,4,2,0,75,0,0
31973,-100,4,1,0,75,0,0
32109,-100,4,2,0,75,0,0
32245,-100,4,1,0,75,0,0
32382,-100,4,2,0,75,0,0
32518,-100,4,1,0,75,0,0
32655,-100,4,2,0,75,0,0
32791,-100,4,1,0,75,0,0
32927,-100,4,2,0,75,0,0
32995,-100,4,3,0,75,0,0
33200,-100,4,1,0,75,0,0
33473,-100,4,2,0,75,0,0
33609,-100,4,1,0,75,0,0
33745,-100,4,2,0,75,0,0
33882,-100,4,1,0,75,0,0
34018,-100,4,3,0,75,0,0
34291,-100,4,1,0,75,0,0
34564,-100,4,2,0,75,0,0
34700,-100,4,1,0,75,0,0
34836,-100,4,2,0,75,0,0
34973,-100,4,1,0,75,0,0
35382,-100,4,1,0,60,0,0
35518,-100,4,2,0,60,0,0
35995,-100,4,2,0,5,0,0
36473,-100,4,1,0,80,0,0
36609,-100,4,2,0,80,0,0
36745,-100,4,1,0,80,0,0
36882,-100,4,2,0,80,0,0
37018,-100,4,1,0,80,0,0
37155,-100,4,2,0,80,0,0
37291,-100,4,1,0,80,0,0
37359,-100,4,2,0,80,0,0
37564,-100,4,3,0,80,0,0
37836,-100,4,2,0,75,0,0
38109,-100,4,1,0,75,0,1
38245,-100,4,2,0,75,0,0
38382,-100,4,2,0,80,0,0
38655,-100,4,2,0,75,0,0
38689,-100,4,1,0,75,0,0
38825,-100,4,2,0,75,0,0
38927,-100,4,1,0,75,0,0
38961,-100,4,2,0,75,0,0
39064,-100,4,1,0,75,0,0
39098,-100,4,2,0,75,0,0
39200,-100,4,1,0,75,0,0
39336,-100,4,2,0,75,0,0
39609,-100,4,1,0,75,0,0
40018,-100,4,2,0,75,0,0
40291,-100,4,1,0,75,0,0
40359,-100,4,2,0,5,0,0
40700,-100,4,2,0,75,0,0
40973,-100,4,1,0,75,0,0
41109,-100,4,2,0,75,0,0
41245,-100,4,1,0,75,0,0
41382,-100,4,2,0,75,0,0
41655,-100,4,1,0,75,0,0
41791,-100,4,2,0,75,0,0
42200,-100,4,1,0,75,0,0
42268,-100,4,2,0,75,0,0
42473,-100,4,1,0,75,0,0
42609,-100,4,2,0,75,0,0
42882,-100,4,1,0,75,0,0
43018,-100,4,2,0,75,0,0
43086,-100,4,1,0,75,0,0
43189,-100,4,2,0,75,0,0
43291,-100,4,1,0,75,0,0
43325,-100,4,2,0,75,0,0
43427,-100,4,1,0,75,0,0
43461,-100,4,2,0,75,0,0
43564,-100,4,1,0,75,0,0
43700,-100,4,2,0,75,0,0
43973,-100,4,1,0,75,0,0
44245,-100,4,2,0,75,0,0
44723,-100,4,2,0,5,0,0
45064,-100,4,2,0,70,0,0
45200,-100,4,1,0,75,0,0
45268,-100,4,2,0,75,0,0
45473,-100,4,1,0,75,0,0
45541,-100,4,2,0,75,0,0
45745,-100,4,1,0,75,0,0
45814,-100,4,2,0,75,0,0
46018,-76.9230769230769,4,2,0,75,0,0
46291,-100,4,1,0,50,0,0
46564,-100,4,1,0,75,0,0
46973,-100,4,2,0,75,0,0
47109,-100,4,1,0,75,0,0
47245,-100,4,2,0,75,0,0
47518,-100,4,1,0,75,0,0
47552,-100,4,2,0,75,0,0
47655,-100,4,1,0,75,0,0
47689,-100,4,2,0,75,0,0
47791,-100,4,1,0,75,0,0
47825,-100,4,2,0,75,0,0
47927,-100,4,1,0,75,0,0
48064,-100,4,2,0,75,0,0
48336,-100,4,1,0,75,0,0
48541,-100,4,2,0,75,0,0
48745,-100,4,1,0,75,0,0
48882,-100,4,2,0,75,0,0
49018,-100,4,1,0,75,0,0
49155,-100,4,2,0,75,0,0
49427,-100,4,1,0,75,0,0
49632,-100,4,2,0,75,0,0
50109,-50,4,2,0,75,0,0
50382,-50,4,1,0,75,0,0
50655,-100,4,1,0,75,0,0
51064,-100,4,2,0,75,0,0
51200,-100,4,1,0,75,0,0
51336,-100,4,2,0,75,0,0
51473,-100,4,1,0,75,0,0
51609,-100,4,2,0,75,0,0
51745,-100,4,1,0,60,0,0
52018,-100,4,1,0,75,0,0
52155,-100,4,2,0,75,0,0
52700,-100,4,1,0,75,0,0
52836,-66.6666666666667,4,1,0,75,0,0
52905,-66.6666666666667,4,1,0,5,0,0
53245,-66.6666666666667,4,1,0,75,0,0
53518,-50,4,1,0,75,0,0
53586,-50,4,1,0,5,0,0
53791,-50,4,1,0,60,0,0
54064,-50,4,2,0,75,0,0
54336,-50,4,1,0,75,0,0
54473,-50,4,3,0,75,0,0
54745,-50,4,1,0,75,0,0
55018,-50,4,1,0,75,0,0
55291,-133.333333333333,4,2,0,60,0,0
55427,-133.333333333333,4,2,0,5,0,0
55564,-133.333333333333,4,2,0,60,0,0
55973,-133.333333333333,4,2,0,30,0,0
56109,-133.333333333333,4,2,0,60,0,0
56245,-133.333333333333,4,2,0,5,0,0
56382,-133.333333333333,4,2,0,60,0,0
56791,-133.333333333333,4,2,0,5,0,0
56927,-133.333333333333,4,2,0,60,0,0
57200,-133.333333333333,4,2,0,50,0,0
57268,-133.333333333333,4,2,0,5,0,0
57609,-133.333333333333,4,2,0,40,0,0
57950,-133.333333333333,4,2,0,5,0,0
58155,-133.333333333333,4,2,1,20,0,0
58291,-133.333333333333,4,2,1,58,0,0
58564,-133.333333333333,4,2,1,48,0,0
58836,-133.333333333333,4,2,1,38,0,0
59109,-133.333333333333,4,2,1,28,0,0
59382,-100,4,1,1,60,0,0
59791,-100,4,1,1,5,0,0
59927,-100,4,2,1,60,0,0
60064,-100,4,1,1,60,0,0
60200,-100,4,1,1,40,0,0
60473,-100,4,1,1,60,0,0
60882,-100,4,1,1,5,0,0
61018,-100,4,2,1,60,0,0
61155,-100,4,3,1,60,0,0
61291,-100,4,1,1,40,0,0
61564,-100,4,1,1,60,0,0
61700,-100,4,2,1,5,0,0
61836,-100,4,2,1,60,0,0
61973,-100,4,1,1,60,0,0
62109,-100,4,2,1,5,0,0
62245,-100,4,2,1,75,0,0
62382,-100,4,2,1,5,0,0
62518,-100,4,1,1,40,0,0
62655,-100,4,1,1,75,0,0
62745,-100,4,2,1,40,0,0
63473,-50,4,1,1,75,0,0
63745,-100,4,1,1,75,0,1
64155,-100,4,2,1,75,0,1
64291,-100,4,1,1,75,0,1
64427,-100,4,2,1,75,0,1
64564,-100,4,1,1,75,0,1
64700,-100,4,2,1,75,0,1
64836,-100,4,1,1,75,0,1
64973,-100,4,2,1,75,0,1
65109,-100,4,1,1,75,0,1
65177,-100,4,2,1,75,0,1
65382,-100,4,1,1,75,0,1
65518,-100,4,2,1,75,0,1
65655,-100,4,1,1,75,0,1
65791,-100,4,2,1,75,0,1
65927,-100,4,1,1,75,0,1
66064,-100,4,2,1,75,0,1
66200,-100,4,1,1,75,0,1
66336,-100,4,2,1,75,0,1
66473,-100,4,1,1,75,0,1
66609,-100,4,2,1,75,0,1
66745,-100,4,1,1,75,0,1
66882,-100,4,2,1,75,0,1
67018,-100,4,1,1,75,0,1
67155,-100,4,2,1,75,0,1
67291,-100,4,1,1,75,0,1
67427,-100,4,2,1,75,0,1
67564,-100,4,2,1,75,0,1
67836,-100,4,1,1,80,0,1
68109,-100,4,1,1,75,0,1
68518,-100,4,2,1,75,0,1
68655,-100,4,1,1,75,0,1
68791,-100,4,2,1,75,0,1
68927,-100,4,1,1,75,0,1
69064,-100,4,2,1,75,0,1
69200,-100,4,1,1,75,0,1
69336,-100,4,2,1,75,0,1
69473,-100,4,1,1,75,0,1
69541,-100,4,2,1,75,0,1
69745,-100,4,1,1,75,0,1
69814,-100,4,2,1,75,0,1
70018,-100,4,1,1,75,0,1
70291,-100,4,2,1,75,0,1
70564,-100,4,1,0,75,0,1
70836,-100,4,2,1,75,0,1
71109,-100,4,1,0,75,0,1
71382,-50,4,2,1,100,0,1
71518,-50,4,2,1,75,0,1
71655,-50,4,2,1,100,0,1
71791,-50,4,2,1,75,0,1
71927,-50,4,2,1,100,0,1
72064,-50,4,2,1,75,0,1
72200,-100,4,1,0,75,0,1
72473,-100,4,1,1,75,0,1
72609,-100,4,2,1,75,0,1
72745,-100,4,1,1,75,0,1
72882,-100,4,2,1,75,0,1
73018,-100,4,1,1,75,0,1
73155,-100,4,2,1,75,0,1
73291,-100,4,1,1,75,0,1
73427,-100,4,2,1,75,0,1
73564,-100,4,1,1,75,0,1
73700,-100,4,2,1,75,0,1
73836,-100,4,1,1,75,0,1
73905,-100,4,2,1,75,0,1
74109,-100,4,1,1,75,0,1
74245,-100,4,2,1,75,0,1
74382,-100,4,1,1,75,0,1
74518,-100,4,2,1,75,0,1
74655,-100,4,1,1,75,0,1
74791,-100,4,2,1,75,0,1
74927,-100,4,1,1,75,0,1
75064,-100,4,2,1,75,0,1
75200,-100,4,1,1,75,0,1
75336,-100,4,2,1,75,0,1
75473,-100,4,1,1,75,0,1
75609,-100,4,2,1,75,0,1
75745,-100,4,1,1,75,0,1
75882,-100,4,2,1,75,0,1
76018,-100,4,1,1,75,0,1
76155,-100,4,2,1,75,0,1
76836,-100,4,1,1,75,0,1
76973,-100,4,2,1,75,0,1
77245,-100,4,1,1,75,0,1
77382,-100,4,2,1,75,0,1
77655,-100,4,1,1,75,0,1
77791,-100,4,2,1,75,0,1
78064,-100,4,1,1,75,0,1
78200,-100,4,2,1,75,0,1
78336,-100,4,1,1,75,0,1
78405,-100,4,2,1,75,0,1
78473,-100,4,1,1,75,0,1
78541,-100,4,2,1,75,0,1
78745,-100,4,2,1,65,0,1
79155,-100,4,1,1,65,0,1
79291,-100,4,2,1,65,0,1
79427,-100,4,1,1,65,0,1
79564,-100,4,2,1,65,0,1
79700,-100,4,1,1,65,0,1
79836,-100,4,2,1,65,0,1
80109,-100,4,1,1,75,0,0
80143,-100,4,2,1,5,0,0
80927,-100,4,1,0,75,0,0
81200,-100,4,1,0,75,0,0
81473,-133.333333333333,4,2,1,75,0,0
81609,-133.333333333333,4,2,1,5,0,0
81745,-133.333333333333,4,2,1,60,0,0
82155,-133.333333333333,4,2,1,30,0,0
82291,-133.333333333333,4,2,1,60,0,0
82427,-133.333333333333,4,2,1,5,0,0
82564,-133.333333333333,4,2,1,40,0,0
82836,-133.333333333333,4,2,1,60,0,0
82973,-133.333333333333,4,2,1,5,0,0
83109,-133.333333333333,4,2,1,40,0,0
83382,-133.333333333333,4,2,1,60,0,0
83450,-133.333333333333,4,2,1,5,0,0
83791,-133.333333333333,4,2,1,40,0,0
84064,-133.333333333333,4,2,1,35,0,0
84200,-133.333333333333,4,2,1,5,0,0
84473,-133.333333333333,4,3,1,58,0,0
84745,-100,4,3,1,48,0,0
85018,-100,4,3,1,38,0,0
85291,-100,4,3,1,28,0,0
85564,-100,4,2,1,60,0,0
85700,-100,4,2,1,5,0,0
85836,-100,4,2,1,40,0,0
86245,-100,4,2,1,5,0,0
86382,-100,4,2,1,40,0,0
86655,-100,4,1,0,90,0,0
86723,-100,4,2,0,5,0,0
87473,-100,4,2,0,40,0,0
87745,-100,4,1,0,40,0,0
88018,-66.6666666666667,4,1,0,85,0,0
88155,-66.6666666666667,4,2,0,85,0,0
88291,-100,4,1,0,40,0,0
88564,-66.6666666666667,4,1,0,85,0,0
88700,-66.6666666666667,4,2,0,85,0,0
88836,-100,4,1,0,85,0,0
88905,-66.6666666666667,4,2,0,50,0,0
89018,-66.6666666666667,4,2,0,5,0,0
89109,-66.6666666666667,4,2,0,50,0,0
89200,-66.6666666666667,4,2,0,15,0,0
89382,-66.6666666666667,4,2,0,50,0,0
89473,-66.6666666666667,4,2,0,15,0,0
89655,-66.6666666666667,4,1,0,60,0,0
89791,-66.6666666666667,4,2,0,60,0,0
89927,-100,4,1,0,75,0,0
90200,-100,4,2,0,75,0,0
90336,-100,4,1,0,75,0,0
90473,-100,4,2,0,75,0,0
90609,-100,4,1,0,75,0,0
90745,-100,4,2,0,75,0,0
90882,-100,4,1,0,75,0,0
91018,-100,4,2,0,75,0,0
91155,-100,4,1,0,75,0,0
91223,-100,4,2,0,75,0,0
91427,-100,4,1,0,75,0,0
91564,-50,4,1,0,75,0,0
91700,-50,4,2,0,75,0,0
91836,-50,4,1,0,75,0,0
91973,-50,4,2,0,75,0,0
92109,-100,4,1,0,75,0,0
92245,-100,4,2,0,75,0,0
92655,-100,4,2,0,40,0,0
93200,-100,4,1,0,40,0,0
93336,-100,4,2,0,40,0,0
93473,-100,4,1,0,40,0,0
93609,-100,4,2,0,40,0,0
93745,-100,4,1,0,40,0,0
94018,-100,4,1,0,75,0,0
94155,-100,4,2,0,75,0,0
94291,-100,4,1,0,75,0,0
94564,-100,4,2,0,75,0,0
94700,-100,4,1,0,75,0,0
94836,-100,4,2,0,75,0,0
94973,-100,4,1,0,75,0,0
95109,-100,4,2,0,75,0,0
95245,-100,4,1,0,75,0,0
95382,-100,4,2,0,75,0,0
95518,-100,4,1,0,75,0,0
95655,-100,4,2,0,75,0,0
95791,-100,4,1,0,75,0,0
95927,-100,4,1,0,80,0,0
96473,-100,4,1,0,65,0,0
96882,-100,4,2,0,65,0,0
97018,-100,4,1,0,40,0,0
97223,-100,4,2,0,9,0,0
97564,-50,4,1,0,65,0,0
97700,-50,4,2,0,65,0,0
97836,-50,4,1,0,65,0,0
97973,-50,4,2,0,65,0,0
98109,-50,4,1,0,65,0,0
98245,-50,4,2,0,65,0,0
98382,-50,4,1,0,65,0,0
98518,-50,4,2,0,65,0,0
98655,-100,4,1,0,75,0,0
98927,-100,4,2,0,75,0,0
99064,-100,4,1,0,75,0,0
99200,-100,4,2,0,75,0,0
99336,-100,4,1,0,75,0,0
99473,-100,4,2,0,75,0,0
99609,-100,4,1,0,75,0,0
99745,-100,4,2,0,75,0,0
99882,-100,4,1,0,75,0,0
100018,-100,4,2,0,75,0,0
100155,-100,4,1,0,75,0,0
100291,-100,4,1,0,85,0,0
100836,-100,4,1,0,75,0,0
100973,-100,4,2,0,75,0,0
101382,-100,4,2,0,40,0,0
101927,-100,4,1,0,40,0,0
102064,-100,4,2,0,40,0,0
102745,-100,4,1,0,40,0,0
103018,-100,4,1,0,75,0,0
103291,-100,4,2,0,75,0,0
103427,-100,4,1,0,75,0,0
103564,-100,4,2,0,75,0,0
103700,-100,4,1,0,75,0,0
103836,-100,4,2,0,75,0,0
103973,-100,4,1,0,75,0,0
104109,-100,4,2,0,75,0,0
104245,-100,4,1,0,75,0,0
104382,-100,4,1,0,30,0,0
104655,-100,4,1,0,75,0,0
104791,-100,4,2,0,75,0,0
104927,-100,4,2,0,50,0,0
105200,-100,4,1,0,50,0,0
105336,-100,4,2,0,50,0,0
105473,-100,4,2,0,80,0,0
105609,-100,4,2,0,50,0,0
105745,-100,4,1,0,50,0,0
105814,-100,4,2,0,5,0,0
106291,-51.2820512820513,4,1,0,75,0,0
106427,-51.2820512820513,4,2,0,75,0,0
106564,-51.2820512820513,4,1,0,75,0,0
106700,-51.2820512820513,4,2,0,75,0,0
106836,-51.2820512820513,4,1,0,75,0,0
106973,-51.2820512820513,4,2,0,75,0,0
107109,-51.2820512820513,4,1,0,75,0,0
107245,-51.2820512820513,4,2,0,75,0,0
107382,-100,4,1,1,75,0,0
107518,-100,4,2,0,75,0,0
107791,-100,4,1,0,75,0,0
107927,-100,4,2,0,75,0,0
108200,-100,4,1,0,75,0,0
108336,-100,4,2,0,75,0,0
108473,-100,4,1,0,75,0,0
108609,-100,4,2,0,75,0,0
108745,-100,4,1,0,75,0,0
108882,-100,4,2,0,75,0,0
109018,-100,4,1,0,75,0,0
109155,-100,4,2,0,75,0,0
109291,-100,4,1,0,75,0,0
109427,-100,4,2,0,75,0,0
109564,-100,4,1,0,75,0,0
109700,-100,4,2,0,75,0,0
109973,-100,4,1,0,75,0,0
110109,-100,4,2,0,75,0,0
110382,-100,4,1,0,75,0,0
110518,-100,4,2,0,75,0,0
110655,-100,4,1,0,75,0,0
110791,-100,4,2,0,75,0,0
110927,-100,4,1,0,75,0,0
111064,-100,4,2,0,75,0,0
111200,-100,4,1,0,75,0,0
111336,-100,4,2,0,75,0,0
111473,-100,4,1,0,75,0,0
111609,-100,4,2,0,75,0,0
111745,-100,4,1,0,75,0,0
111814,-100,4,2,0,40,0,0
112291,-100,4,1,0,75,0,0
112427,-100,4,2,0,75,0,0
112836,-100,4,1,0,75,0,0
112973,-100,4,2,0,75,0,0
113382,-100,4,1,0,75,0,0
113518,-100,4,2,0,75,0,0
113927,-100,4,1,0,75,0,0
114064,-100,4,3,0,75,0,0
114336,-100,4,1,0,75,0,0
114473,-100,4,3,0,75,0,0
114745,-100,4,1,0,75,0,0
114882,-100,4,2,0,75,0,0
115018,-100,4,1,0,75,0,0
115291,-100,4,2,0,75,0,0
115836,-100,4,1,0,100,0,0

[Colours]
Combo1 : 184,113,255
Combo2 : 255,81,81
Combo3 : 89,242,242
Combo4 : 255,128,64

[HitObjects]
48,96,7018,5,0,0:0:0:0:
472,296,7427,5,0,0:0:0:0:
332,356,7836,5,0,0:0:0:0:
307,330,7905,1,0,0:0:0:0:
296,296,7973,1,0,0:0:0:0:
304,262,8041,1,0,0:0:0:0:
331,240,8109,6,0,P|378:247|438:227,2,87.5
238,213,8518,1,0,0:0:0:0:
330,129,8655,1,0,0:0:0:0:
214,91,8791,1,0,0:0:0:0:
204,64,8927,1,0,0:0:0:0:
197,39,9064,1,0,0:0:0:0:
354,30,9200,6,0,P|303:38|251:14,1,87.5
16,183,9473,2,0,P|67:175|119:199,1,87.5
250,336,9745,1,0,0:0:0:0:
269,268,9882,1,0,0:0:0:0:
310,211,10018,1,2,0:0:0:0:
375,185,10155,1,0,0:0:0:0:
444,184,10291,6,0,L|400:147,1,43.75
232,32,10427,1,0,0:0:0:0:
192,52,10495,1,0,0:0:0:0:
172,92,10564,1,0,0:0:0:0:
168,136,10632,1,0,0:0:0:0:
188,176,10700,1,0,0:0:0:0:
224,200,10768,1,0,0:0:0:0:
268,208,10836,6,0,B|328:200|328:200|400:212,1,131.25
219,277,11109,6,0,P|147:293|55:269,1,131.25000500679,2|0,0:0|0:0,0:0:0:0:
452,348,11382,5,0,0:0:0:0:
368,284,11518,1,0,0:0:0:0:
464,232,11655,1,0,0:0:0:0:
227,209,11791,1,0,0:0:0:0:
323,145,11927,1,0,0:0:0:0:
211,105,12064,1,0,0:0:0:0:
476,51,12200,2,0,L|312:23,1,131.25000500679,8|0,0:0|0:0,0:0:0:0:
90,37,12473,6,0,L|169:143,1,131.25,2|0,0:1|0:0,0:0:0:0:
376,180,12745,6,0,P|328:140|256:160,1,131.25,2|0,0:1|0:0,0:0:0:0:
35,164,13018,6,0,L|114:270,1,131.25,2|0,0:1|0:0,0:0:0:0:
320,324,13290,6,0,P|272:284|200:304,1,131.25,2|0,0:1|0:0,0:0:0:0:
36,344,13564,6,0,L|48:232,1,87.5
164,252,13836,2,0,L|152:124,1,87.5,2|0,0:0|0:0,0:0:0:0:
32,176,14109,1,0,0:0:0:0:
132,129,14245,1,0,0:0:0:0:
10,71,14382,1,8,0:0:0:0:
147,16,14518,1,0,0:0:0:0:
276,16,14655,6,0,P|346:39|442:29,1,131.25,2|0,0:0|0:0,0:0:0:0:
188,104,14927,6,0,P|118:127|22:117,1,131.25,2|0,0:0|0:0,0:0:0:0:
332,144,15200,6,0,P|402:167|498:157,1,131.25,2|0,0:0|0:0,0:0:0:0:
244,232,15472,6,0,P|174:255|78:245,1,131.25,2|0,0:0|0:0,0:0:0:0:
35,305,15745,6,0,L|25:191,1,87.5,0|2,0:0|0:0,0:0:0:0:
477,79,16018,2,0,L|487:193,1,87.5,8|0,0:0|0:0,0:0:0:0:
252,56,16291,1,2,0:3:0:0:
187,114,16427,1,0,0:0:0:0:
173,200,16564,1,0,0:0:0:0:
209,279,16700,1,0,0:0:0:0:
292,316,16836,5,0,0:0:0:0:
332,300,16905,1,0,0:0:0:0:
352,260,16973,1,0,0:0:0:0:
352,216,17041,1,0,0:0:0:0:
332,176,17109,1,0,0:0:0:0:
308,140,17177,1,0,0:0:0:0:
308,96,17245,1,0,0:0:0:0:
332,60,17314,1,0,0:0:0:0:
419,34,17382,6,0,L|519:34,2,87.5,2|0|2,0:3|0:0|0:0,0:0:0:0:
80,296,17927,5,8,0:0:0:0:
27,214,18064,1,0,0:0:0:0:
180,231,18200,5,0,0:0:0:0:
155,119,18336,1,8,0:0:0:0:
432,291,18473,5,0,0:0:0:0:
485,214,18610,1,0,0:0:0:0:
332,231,18745,5,8,0:0:0:0:
357,119,18882,1,0,0:0:0:0:
80,348,19018,5,0,0:0:0:0:
213,221,19291,1,2,0:0:0:0:
42,150,19564,1,2,0:0:0:0:
474,61,19836,6,0,B|438:122|438:122|377:129|377:129|300:61,1,175,2|0,0:0|0:0,0:0:0:0:
57,36,20109,5,0,0:0:0:0:
176,120,20245,1,0,0:0:0:0:
176,120,20314,1,0,0:0:0:0:
176,120,20382,1,0,0:0:0:0:
47,185,20518,1,0,0:0:0:0:
460,306,20655,2,0,L|452:182,1,87.5,0|2,0:0|0:0,0:0:0:0:
81,111,20927,2,0,L|89:235,1,87.5,0|2,0:0|0:0,0:0:0:0:
304,292,21200,6,0,P|352:308|412:300,1,87.5,0|2,0:0|0:0,0:0:0:0:
276,196,21473,2,0,P|228:180|168:188,1,87.5,0|2,0:0|0:0,0:0:0:0:
480,224,21745,1,0,0:0:0:0:
368,144,21882,1,0,0:0:0:0:
484,56,22018,2,0,B|476:80|476:80|492:76|492:76|480:72|480:72|488:88|488:88|480:104|480:104|492:120|492:120|472:156,1,131.25
278,350,22291,6,0,L|193:305,1,87.5,0|2,0:0|0:0,0:0:0:0:
0,209,22564,2,0,L|87:151,1,87.5,0|2,0:0|0:0,0:0:0:0:
488,148,22836,1,0,0:0:0:0:
376,236,22973,1,2,0:0:0:0:
504,296,23109,1,0,0:0:0:0:
504,296,23177,1,0,0:0:0:0:
504,296,23245,1,0,0:0:0:0:
268,280,23382,6,0,B|216:288|216:288|156:280,1,87.5
48,180,23655,2,0,B|83:176|83:176|135:184,1,87.5,0|2,0:0|0:0,0:0:0:0:
260,180,23927,6,0,P|230:112|204:56,1,131.25,2|0,0:3|0:0,0:0:0:0:
8,80,24200,2,0,P|72:84|132:36,1,131.25000500679,2|0,0:1|0:0,0:0:0:0:
437,28,24473,5,0,0:0:0:0:
310,113,24609,1,0,0:0:0:0:
302,144,24677,1,0,0:0:0:0:
294,175,24745,1,0,0:0:0:0:
432,205,24882,2,0,L|489:315,1,87.5
212,332,25155,2,0,L|332:332,1,87.5,2|0,0:0|0:0,0:0:0:0:
39,282,25427,2,0,L|80:205,1,87.5,2|0,0:0|0:0,0:0:0:0:
332,32,25700,5,2,0:0:0:0:
259,87,25836,1,0,0:0:0:0:
237,166,25973,1,2,0:0:0:0:
267,247,26109,1,0,0:0:0:0:
332,296,26245,1,2,0:0:0:0:
416,320,26382,2,0,P|344:308|260:336,1,131.25
90,308,26655,5,2,2:2:0:0:
85,276,26723,1,2,0:0:0:0:
75,246,26791,1,2,0:0:0:0:
61,219,26859,1,2,0:0:0:0:
46,197,26927,2,0,P|50:144|59:71,1,87.5,2|2,0:0|0:0,0:0:0:0:
466,187,27200,2,0,P|462:240|453:313,1,87.5,2|2,0:0|0:0,0:0:0:0:
168,280,27473,5,0,0:0:0:0:
162,236,27541,1,0,0:0:0:0:
142,197,27609,1,0,0:0:0:0:
109,168,27677,1,0,0:0:0:0:
68,152,27745,6,0,B|44:224|44:224|72:248|72:248|56:304,1,131.25,2|0,0:0|0:0,0:0:0:0:
213,268,28018,2,0,B|248:249|248:249|252:233|252:233|320:200,1,131.25,2|0,0:0|0:0,0:0:0:0:
474,154,28291,6,0,P|427:171|359:170,1,87.5
38,230,28564,2,0,P|85:213|153:214,1,87.5,2|0,0:0|0:0,0:0:0:0:
488,56,28836,5,0,0:0:0:0:
368,20,28973,2,0,L|388:136,1,87.5,2|0,0:0|0:0,0:0:0:0:
92,76,29245,6,0,L|72:192,1,87.5,2|0,0:0|0:0,0:0:0:0:
416,148,29518,6,0,L|436:264,1,87.5,2|0,0:0|0:0,0:0:0:0:
136,208,29790,6,0,L|121:294,1,87.5,2|0,0:0|0:0,0:0:0:0:
468,244,30064,6,0,L|488:360,1,87.5,2|0,0:0|0:0,0:0:0:0:
56,200,30336,1,0,0:0:0:0:
143,105,30473,1,2,0:0:0:0:
24,48,30609,1,0,0:0:0:0:
442,58,30745,5,0,0:0:0:0:
399,89,30814,1,0,0:0:0:0:
386,139,30882,1,0,0:0:0:0:
411,184,30950,1,0,0:0:0:0:
453,214,31018,6,0,L|449:333,1,87.5,0|2,0:0|0:0,0:0:0:0:
114,15,31291,6,0,L|103:126,1,87.5,0|2,0:0|0:0,0:0:0:0:
411,279,31564,6,0,L|407:398,1,87.5,0|2,0:0|0:0,0:0:0:0:
41,320,31837,6,0,L|30:209,1,87.5,0|2,0:0|0:0,0:0:0:0:
375,85,32109,6,0,L|371:204,1,87.5,0|2,0:0|0:0,0:0:0:0:
92,34,32382,6,0,L|103:145,1,87.5,0|2,0:0|0:0,0:0:0:0:
360,204,32655,6,0,P|412:208|472:200,2,87.5,0|2|0,0:0|0:0|0:0,0:0:0:0:
348,254,32995,1,0,0:0:0:0:
323,301,33064,1,0,0:0:0:0:
278,329,33132,1,0,0:0:0:0:
126,288,33200,6,0,P|82:288|28:305,1,87.5,0|2,0:0|0:0,0:0:0:0:
148,192,33473,6,0,P|104:192|50:175,1,87.5,0|2,0:0|0:0,0:0:0:0:
164,80,33745,6,0,P|120:80|66:97,1,87.5,0|2,0:0|0:0,0:0:0:0:
326,172,34018,5,0,0:0:0:0:
332,119,34086,1,0,0:0:0:0:
361,74,34155,1,0,0:0:0:0:
413,59,34223,1,0,0:0:0:0:
466,61,34291,6,0,L|438:175,1,87.5,0|2,0:0|0:0,0:0:0:0:
233,246,34564,6,0,L|261:360,1,87.5,0|2,0:0|0:0,0:0:0:0:
22,154,34836,6,0,L|-6:40,1,87.5,0|2,0:0|0:0,0:0:0:0:
296,68,35109,6,0,L|333:58,6,21.875,0|0|0|0|0|0|0,0:0|0:0|0:0|0:0|0:0|0:0|0:0,0:0:0:0:
162,84,35382,5,0,0:0:0:0:
148,152,35518,1,0,0:0:0:0:
133,220,35655,1,2,0:0:0:0:
118,288,35791,1,0,0:0:0:0:
67,335,35927,2,0,P|-5:239|119:119,1,306.25,2|0,0:0|0:0,0:0:0:0:
238,332,36473,6,0,B|296:353|296:353|363:303,1,131.25,2|0,0:0|0:0,0:0:0:0:
492,208,36745,6,0,B|434:187|434:187|367:237,1,131.25,2|0,0:0|0:0,0:0:0:0:
199,148,37018,6,0,B|257:169|257:169|324:119,1,131.25,2|0,0:0|0:0,0:0:0:0:
457,30,37290,6,0,B|399:9|399:9|332:59,1,131.25,2|0,0:0|0:0,0:0:0:0:
152,54,37564,5,0,0:0:0:0:
143,52,37632,1,0,0:0:0:0:
134,50,37700,1,0,0:0:0:0:
125,48,37768,1,0,0:0:0:0:
116,45,37836,2,0,P|72:55|54:137,1,131.25,10|0,0:0|0:0,0:0:0:0:
215,199,38109,6,0,L|304:195,1,87.5,2|0,0:0|0:0,0:0:0:0:
405,280,38382,2,0,L|316:276,1,87.5,2|2,0:0|0:0,0:0:0:0:
64,208,38655,6,0,L|60:176,1,21.875
152,156,38791,2,0,L|156:128,1,21.875
248,220,38927,2,0,L|244:188,1,21.875,2|0,0:0|0:0,0:0:0:0:
336,168,39063,2,0,L|340:140,1,21.875,2|0,0:0|0:0,0:0:0:0:
444,228,39200,6,0,P|412:252|352:252,1,87.5,0|2,0:0|0:0,0:0:0:0:
265,126,39473,2,0,P|297:102|357:102,1,87.5,0|2,0:0|0:0,0:0:0:0:
143,251,39745,6,0,L|9:227,1,131.25,2|0,0:0|0:0,0:0:0:0:
188,148,40018,2,0,L|300:128,1,87.5,2|2,0:0|0:0,0:0:0:0:
432,32,40291,2,0,P|384:108|512:176,1,262.5,0|2,0:0|0:0,0:0:0:0:
364,272,40836,6,0,L|341:164,1,87.5,2|0,0:0|0:0,0:0:0:0:
224,160,41109,2,0,L|201:52,1,87.5,0|0,0:0|0:0,0:0:0:0:
106,151,41382,6,0,P|63:108|4:33,1,131.25,2|0,0:0|0:0,0:0:0:0:
225,69,41655,2,0,L|343:51,1,87.5,4|0,0:0|0:0,0:0:0:0:
512,201,41927,5,0,0:0:0:0:
468,206,41995,1,0,0:0:0:0:
424,211,42064,1,0,0:0:0:0:
380,207,42132,1,0,0:0:0:0:
328,206,42200,2,0,P|271:231|186:222,1,131.25
24,279,42473,6,0,L|139:316,1,87.5,2|0,0:0|0:0,0:0:0:0:
488,105,42745,2,0,L|373:68,1,87.5,2|0,0:0|0:0,0:0:0:0:
6,56,43018,6,0,L|-2:96,1,21.875
102,84,43155,2,0,L|108:121,1,21.875
201,31,43291,2,0,L|193:71,1,21.875,2|0,0:0|0:0,0:0:0:0:
297,59,43428,2,0,L|303:96,1,21.875,2|0,0:0|0:0,0:0:0:0:
512,106,43564,6,0,L|419:120,1,87.5,0|2,0:0|0:0,0:0:0:0:
305,197,43836,2,0,L|392:211,1,87.5,0|2,0:0|0:0,0:0:0:0:
105,48,44109,5,0,0:0:0:0:
35,101,44245,1,0,0:0:0:0:
22,187,44382,1,2,0:0:0:0:
51,268,44518,1,0,0:0:0:0:
124,316,44655,2,0,B|150:192|150:192|192:196|192:196|168:324,1,262.5,2|0,0:0|0:0,0:0:0:0:
396,208,45200,6,0,B|444:220|444:220|484:116,1,131.25,2|0,0:0|0:0,0:0:0:0:
276,40,45473,6,0,B|228:28|228:28|188:132,1,131.25,2|0,0:0|0:0,0:0:0:0:
412,264,45745,6,0,B|460:272|460:272|524:192,1,131.25,2|0,0:0|0:0,0:0:0:0:
312,76,46018,6,0,B|264:64|264:64|141:85,1,170.624992189408,2|0,0:0|0:0,0:0:0:0:
0,60,46291,5,0,0:0:0:0:
13,77,46359,1,0,0:0:0:0:
20,97,46427,1,0,0:0:0:0:
21,118,46495,1,0,0:0:0:0:
0,183,46564,2,0,P|74:180|147:235,1,131.25,2|0,0:0|0:0,0:0:0:0:
344,316,46836,6,0,L|452:304,1,87.5,0|2,0:0|0:0,0:0:0:0:
304,216,47109,2,0,L|196:228,1,87.5,0|2,0:0|0:0,0:0:0:0:
480,168,47382,6,0,L|464:136,1,21.875
386,375,47518,2,0,L|370:343,1,21.875,0|0,0:0|0:0,0:0:0:0:
268,39,47655,2,0,L|252:7,1,21.875,2|0,0:0|0:0,0:0:0:0:
182,249,47791,2,0,L|166:217,1,21.875,2|0,0:0|0:0,0:0:0:0:
7,78,47927,6,0,P|44:83|105:73,1,87.5,0|2,0:0|0:0,0:0:0:0:
0,177,48200,2,0,P|37:182|98:172,1,87.5,0|2,0:0|0:0,0:0:0:0:
448,197,48473,6,0,L|419:351,1,131.25,2|0,0:0|0:0,0:0:0:0:
275,282,48745,2,0,L|202:341,1,87.5,2|0,0:0|0:0,0:0:0:0:
0,194,49018,2,0,L|62:298,1,87.5,0|2,0:0|0:0,0:0:0:0:
288,156,49291,2,0,L|215:215,1,87.5,2|0,0:0|0:0,0:0:0:0:
20,43,49564,5,0,0:0:0:0:
52,55,49632,1,0,0:0:0:0:
80,75,49700,1,2,0:0:0:0:
95,106,49768,1,0,0:0:0:0:
102,140,49836,1,0,0:0:0:0:
97,175,49905,1,0,0:0:0:0:
83,207,49973,1,2,0:0:0:0:
58,232,50041,1,0,0:0:0:0:
24,256,50109,6,0,B|-8:244|-20:220|-20:192|4:164|36:156|76:168|88:212|76:244,1,175
463,91,50382,1,6,0:0:0:0:
244,52,50655,5,0,0:0:0:0:
200,60,50723,1,0,0:0:0:0:
156,64,50791,1,0,0:0:0:0:
112,72,50859,1,0,0:0:0:0:
64,80,50927,2,0,L|0:208,1,131.25,4|0,0:0|0:0,0:0:0:0:
216,160,51200,2,0,L|312:264,1,131.25
96,292,51473,2,0,L|4:332,1,87.5,6|0,0:0|0:0,0:0:0:0:
464,117,51745,5,0,0:0:0:0:
465,139,51814,1,0,0:0:0:0:
457,160,51882,1,0,0:0:0:0:
460,181,51950,1,0,0:0:0:0:
450,202,52018,2,0,L|330:219,1,87.5,2|0,0:0|0:0,0:0:0:0:
88,118,52291,2,0,L|208:101,1,87.5,2|0,0:0|0:0,0:0:0:0:
478,343,52564,2,0,L|358:360,1,87.5,2|0,0:0|0:0,0:0:0:0:
56,320,52836,6,0,P|176:184|36:100,1,393.750015020371
396,328,53518,6,0,B|416:248|416:248|332:240|332:240|324:152|400:152|400:152|512:168,1,350,2|0,0:0|0:0,0:0:0:0:
238,40,53927,5,0,0:0:0:0:
188,56,54064,1,0,0:0:0:0:
159,99,54200,1,2,0:0:0:0:
154,151,54336,1,0,0:0:0:0:
165,202,54473,1,0,0:0:0:0:
199,241,54609,1,0,0:0:0:0:
246,263,54745,1,2,0:0:0:0:
298,264,54882,1,0,0:0:0:0:
349,252,55018,1,4,0:0:0:0:
0,152,55291,6,0,P|18:77|6:4,1,131.25000500679,2|2,0:0|0:0,0:0:0:0:
376,52,55836,2,0,L|392:128,1,65.6250025033952,2|0,0:0|0:0,0:0:0:0:
492,80,56109,2,0,P|500:156|484:236,1,131.25000500679,2|0,0:0|0:0,0:0:0:0:
20,304,56655,2,0,P|12:228|28:148,1,131.25000500679,2|0,0:0|0:0,0:0:0:0:
363,291,57200,6,0,P|278:296|164:247,1,196.875007510186,2|0,0:0|0:0,0:0:0:0:
24,232,57882,2,0,B|71:185|71:185|136:137,1,131.25000500679,2|0,0:0|0:0,0:0:0:0:
320,28,58291,5,2,0:3:0:0:
324,36,58564,5,2,0:3:0:0:
328,44,58836,5,2,0:3:0:0:
332,52,59109,5,2,0:3:0:0:
415,58,59382,6,0,L|399:158,1,87.5
272,160,59655,2,0,L|308:344,1,175,8|2,0:0|0:0,0:0:0:0:
88,280,60064,1,0,0:0:0:0:
29,214,60200,1,8,0:0:0:0:
14,127,60336,1,0,0:0:0:0:
49,46,60473,1,0,0:0:0:0:
130,14,60609,1,0,0:0:0:0:
216,25,60745,6,0,P|307:46|400:15,1,175,8|2,0:0|0:0,0:0:0:0:
509,79,61155,1,0,0:0:0:0:
369,147,61291,1,8,0:0:0:0:
508,231,61427,1,0,0:0:0:0:
203,350,61564,6,0,L|20:294,1,175,2|2,0:0|0:0,0:0:0:0:
309,34,61973,2,0,L|492:90,2,175,2|2|0,0:0|0:0|0:0,0:0:0:0:
76,36,62689,5,0,0:0:0:0:
61,67,62791,1,0,0:0:0:0:
52,101,62893,1,0,0:0:0:0:
58,135,62995,1,2,0:0:0:0:
74,166,63098,1,0,0:0:0:0:
82,199,63200,1,0,0:0:0:0:
79,233,63302,1,2,0:0:0:0:
67,266,63405,1,0,0:0:0:0:
48,292,63473,6,0,P|156:280|276:304,1,175,2|0,0:0|0:0,0:0:0:0:
456,320,63745,5,4,0:0:0:0:
336,228,63882,1,0,0:0:0:0:
336,228,63950,1,0,0:0:0:0:
336,228,64018,1,2,0:3:0:0:
472,144,64155,1,2,0:0:0:0:
192,159,64291,2,0,L|183:54,1,87.5,0|2,0:0|0:0,0:0:0:0:
75,247,64564,2,0,L|105:134,1,87.5,2|2,0:3|0:0,0:0:0:0:
420,340,64836,6,0,L|390:227,1,87.5,0|2,0:0|0:0,0:0:0:0:
112,316,65109,1,2,0:3:0:0:
105,290,65177,1,0,0:0:0:0:
95,265,65245,1,2,0:0:0:0:
81,242,65314,1,0,0:0:0:0:
64,220,65382,6,0,L|100:104,1,87.5,0|2,0:0|0:0,0:0:0:0:
153,28,65655,5,2,0:3:0:0:
11,114,65791,1,0,0:0:0:0:
155,115,65927,5,0,0:0:0:0:
13,201,66063,1,2,0:0:0:0:
156,204,66200,5,2,0:3:0:0:
14,290,66336,1,2,0:0:0:0:
336,292,66473,2,0,L|428:308,1,87.5,0|2,0:0|0:0,0:0:0:0:
176,92,66745,2,0,L|84:76,1,87.5,2|2,0:3|0:0,0:0:0:0:
384,200,67018,6,0,L|476:216,1,87.5,2|2,0:3|0:0,0:0:0:0:
123,181,67291,2,0,L|31:165,1,87.5,2|2,0:3|0:0,0:0:0:0:
486,306,67564,5,6,1:2:0:0:
22,56,67836,1,6,1:2:0:0:
435,52,68109,5,0,0:0:0:0:
333,138,68245,1,0,0:0:0:0:
333,138,68314,1,0,0:0:0:0:
333,138,68382,1,2,0:3:0:0:
463,192,68518,1,2,0:0:0:0:
94,290,68655,2,0,L|74:194,1,87.5,0|0,0:0|0:0,0:0:0:0:
418,94,68927,2,0,L|438:190,1,87.5,2|0,0:3|0:0,0:0:0:0:
208,332,69200,6,0,L|312:304,1,87.5,0|2,0:0|0:0,0:0:0:0:
80,44,69473,1,2,0:3:0:0:
44,69,69541,1,0,0:0:0:0:
33,111,69609,1,2,0:0:0:0:
51,150,69677,1,0,0:0:0:0:
88,172,69745,5,0,0:3:0:0:
125,195,69814,1,0,0:0:0:0:
148,231,69882,1,2,0:0:0:0:
142,274,69950,1,0,0:0:0:0:
110,304,70018,2,0,L|56:325,1,43.75,2|0,0:3|0:0,0:0:0:0:
263,215,70155,2,0,L|317:236,1,43.75
32,224,70291,5,2,0:0:0:0:
14,184,70359,1,0,0:0:0:0:
6,140,70427,1,2,0:0:0:0:
8,96,70495,1,0,0:0:0:0:
24,52,70564,2,0,L|134:46,1,87.5,6|0,0:0|0:0,0:0:0:0:
480,160,70836,5,2,0:0:0:0:
498,200,70904,1,0,0:0:0:0:
506,244,70972,1,2,0:0:0:0:
504,288,71040,1,0,0:0:0:0:
488,332,71109,2,0,L|378:338,1,87.5,6|0,0:0|0:0,0:0:0:0:
54,353,71382,6,0,B|46:316|46:316|64:279|64:279|28:250|28:250|87:190|6:119,1,262.5,6|0,1:2|0:0,0:0:0:0:
248,8,71655,6,0,B|256:45|256:45|238:82|238:82|274:111|274:111|215:171|296:242,1,262.5,6|0,1:2|0:0,0:0:0:0:
496,344,71927,6,0,B|488:307|488:307|506:270|506:270|470:241|470:241|529:181|448:110,1,262.5,6|0,1:2|0:0,0:0:0:0:
231,100,72200,6,0,P|187:105|144:97,1,87.5,6|2,1:1|0:0,0:0:0:0:
458,231,72473,5,0,0:0:0:0:
345,174,72609,1,2,0:0:0:0:
462,114,72745,1,2,0:3:0:0:
124,101,72882,2,0,L|29:115,2,87.5,2|0|2,0:0|0:0|0:0,0:0:0:0:
388,101,73291,2,0,L|483:115,2,87.5,2|2|0,0:3|0:0|0:0,0:0:0:0:
33,52,73700,5,0,0:0:0:0:
133,104,73836,1,2,0:3:0:0:
128,148,73905,1,0,0:0:0:0:
113,187,73973,1,2,0:0:0:0:
81,215,74041,1,0,0:0:0:0:
45,231,74109,2,0,L|72:329,1,87.5,0|2,0:0|0:0,0:0:0:0:
356,160,74382,2,0,L|329:258,1,87.5,2|2,0:3|0:0,0:0:0:0:
133,104,74655,6,0,P|64:112|12:108,1,87.5,0|2,0:0|0:0,0:0:0:0:
379,104,74927,2,0,P|448:112|500:108,1,87.5,2|2,0:3|0:0,0:0:0:0:
168,56,75200,2,0,L|260:96,1,87.5,0|2,0:0|0:0,0:0:0:0:
512,192,75473,2,0,L|420:232,1,87.5,2|2,0:3|0:0,0:0:0:0:
104,184,75745,6,0,L|16:148,1,87.5,0|2,0:0|0:0,0:0:0:0:
140,84,76018,2,0,L|52:48,1,87.5,2|2,0:3|0:0,0:0:0:0:
450,303,76291,5,2,0:0:0:0:
440,52,76427,1,2,0:0:0:0:
48,48,76564,1,2,0:0:0:0:
58,120,76632,1,0,0:0:0:0:
57,193,76700,1,2,0:0:0:0:
47,268,76768,1,0,0:0:0:0:
22,338,76836,5,0,0:0:0:0:
131,248,76973,1,0,0:0:0:0:
1,167,77109,1,2,0:0:0:0:
316,264,77245,2,0,P|388:280|484:240,1,175,0|2,0:0|0:0,0:0:0:0:
196,120,77655,2,0,P|124:104|28:144,1,175,0|2,0:0|0:0,0:0:0:0:
364,272,78064,6,0,L|505:263,1,131.25,0|2,0:0|0:0,0:0:0:0:
460,252,78336,1,0,0:0:0:0:
425,221,78405,1,0,0:0:0:0:
408,180,78473,1,0,0:0:0:0:
409,136,78541,1,0,0:0:0:0:
429,97,78609,1,0,0:0:0:0:
467,76,78677,1,0,0:0:0:0:
508,56,78745,6,0,L|452:36,1,43.75,2|0,0:0|0:0,0:0:0:0:
296,96,78882,2,0,L|240:104,1,43.75,2|0,0:0|0:0,0:0:0:0:
92,382,79155,5,0,0:0:0:0:
170,344,79291,1,0,0:0:0:0:
207,265,79427,1,0,0:0:0:0:
209,177,79564,1,0,0:0:0:0:
176,96,79700,1,0,0:0:0:0:
103,46,79836,1,0,0:0:0:0:
17,30,79973,1,0,0:0:0:0:
106,51,80109,6,0,L|127:53,22,21.875,2|0|0|0|0|0|0|0|0|0|0|0|0|0|0|0|0|0|0|0|0|0|0,0:0|0:0|0:0|0:0|0:0|0:0|0:0|0:0|0:0|0:0|0:0|0:0|0:0|0:0|0:0|0:0|0:0|0:0|0:0|0:0|0:0|0:0|0:0,0:0:0:0:
304,112,80927,1,6,0:0:0:0:
476,160,81200,1,4,1:2:0:0:
0,152,81473,6,0,P|18:77|6:4,1,131.25000500679,2|2,0:0|0:0,0:0:0:0:
376,52,82018,2,0,L|392:128,1,65.6250025033952,2|0,0:0|0:0,0:0:0:0:
492,80,82291,2,0,P|500:156|484:236,1,131.25000500679,2|0,0:0|0:0,0:0:0:0:
20,304,82837,2,0,P|12:228|28:148,1,131.25000500679,2|0,0:0|0:0,0:0:0:0:
363,291,83382,6,0,P|278:296|164:247,1,196.875007510186,2|0,0:0|0:0,0:0:0:0:
24,232,84064,2,0,B|71:185|71:185|136:137,1,131.25000500679,2|0,0:0|0:0,0:0:0:0:
320,28,84473,5,2,0:0:0:0:
324,36,84746,5,2,0:0:0:0:
328,44,85018,5,2,0:0:0:0:
332,52,85291,5,2,0:0:0:0:
467,125,85564,6,0,P|394:106|285:145,1,175,2|0,0:0|0:0,0:0:0:0:
45,259,86109,2,0,P|118:278|227:239,1,175,2|0,0:0|0:0,0:0:0:0:
484,208,86518,1,0,0:0:0:0:
212,306,86655,6,0,B|180:288|161:272|158:236|151:207|160:180|169:156|169:156|193:153|217:162|232:166|249:189|249:189|260:167|277:160|301:153|321:153|321:153|340:182|343:214|357:275|267:319,1,525,4|2,0:0|0:0,0:0:0:0:
240,304,87541,1,0,0:0:0:0:
196,304,87609,1,2,0:0:0:0:
152,304,87677,1,0,0:0:0:0:
108,304,87745,6,0,L|8:292,1,87.5
324,130,88018,6,0,L|174:94,1,131.25000500679,2|0,0:0|0:0,0:0:0:0:
404,80,88291,6,0,L|504:92,1,87.5
188,254,88564,6,0,L|334:295,1,131.25000500679,2|0,0:0|0:0,0:0:0:0:
115,337,88836,6,0,L|29:328,1,87.5
378,360,89143,1,0,0:0:0:0:
416,315,89245,1,2,0:0:0:0:
429,256,89348,1,0,0:0:0:0:
415,198,89450,1,0,0:0:0:0:
378,151,89552,1,2,0:0:0:0:
312,128,89655,6,0,L|446:126,2,131.25000500679,2|0|0,0:0|0:0|0:0,0:0:0:0:
37,49,90064,5,2,0:0:0:0:
26,73,90200,1,2,0:0:0:0:
127,86,90336,5,2,0:0:0:0:
119,112,90473,1,2,0:0:0:0:
233,96,90609,5,2,0:0:0:0:
233,126,90745,1,2,0:0:0:0:
348,87,90882,5,2,0:0:0:0:
357,120,91018,1,2,0:0:0:0:
463,48,91155,5,2,0:0:0:0:
484,79,91291,1,2,0:0:0:0:
500,107,91427,1,2,0:0:0:0:
288,244,91564,6,0,P|260:336|192:232,1,262.5,4|0,0:0|0:0,0:0:0:0:
16,192,91836,2,0,B|48:132|48:132|16:84|16:84|56:40|56:40|132:20,1,262.5,4|0,0:0|0:0,0:0:0:0:
320,62,92109,6,0,L|414:53,1,87.5,0|2,0:0|0:0,0:0:0:0:
512,125,92382,2,0,L|418:134,1,87.5,2|2,0:0|0:0,0:0:0:0:
125,41,92655,1,0,0:0:0:0:
88,65,92723,1,0,0:0:0:0:
75,104,92791,1,2,0:0:0:0:
93,143,92859,1,0,0:0:0:0:
131,164,92927,1,0,0:0:0:0:
160,196,92995,1,0,0:0:0:0:
167,239,93064,1,2,0:0:0:0:
153,280,93132,1,0,0:0:0:0:
114,300,93200,6,0,L|25:308,1,87.5,0|2,0:0|0:0,0:0:0:0:
160,223,93473,2,0,L|247:215,1,87.5,0|2,0:0|0:0,0:0:0:0:
460,232,93745,2,0,L|468:116,1,87.5
136,64,94018,2,0,L|27:222,1,175,4|0,0:0|0:0,0:0:0:0:
344,340,94427,6,2,L|408:240,1,87.5
168,44,94700,2,2,L|104:144,1,87.5
360,144,94973,2,2,P|396:116|448:104,1,87.5
152,240,95245,6,2,P|116:268|64:280,1,87.5
384,232,95518,2,2,P|440:224|488:224,1,87.5
128,152,95791,2,2,P|72:160|24:160,1,87.5,2|6,0:0|0:0,0:0:0:0:
466,93,96200,5,4,0:0:0:0:
98,48,96473,2,0,P|42:56|-6:56,1,87.5,0|0,0:0|0:0,0:0:0:0:
138,143,96745,2,0,P|82:151|34:151,1,87.5,0|2,0:0|0:0,0:0:0:0:
174,234,97018,1,0,0:0:0:0:
444,193,97155,6,0,L|476:186,10,21.875,0|0|0|0|0|0|0|0|0|0|0,0:0|0:0|0:0|0:0|0:0|0:0|0:0|0:0|0:0|0:0|0:0,0:0:0:0:
383,131,97564,6,0,B|327:187|327:187|355:219|355:219|343:263|343:263|423:335,1,262.5,4|0,0:0|0:0,0:0:0:0:
171,351,97836,6,0,B|115:295|115:295|143:263|143:263|131:219|131:219|211:147,1,262.5,4|0,0:0|0:0,0:0:0:0:
471,24,98109,6,0,B|527:80|527:80|499:112|499:112|511:156|511:156|431:228,1,262.5,4|0,0:0|0:0,0:0:0:0:
34,220,98381,6,0,B|-22:164|-22:164|6:132|6:132|-6:88|-6:88|74:16,1,262.5,4|0,0:0|0:0,0:0:0:0:
311,100,98655,6,0,P|265:85|205:88,1,87.5,0|2,0:0|0:0,0:0:0:0:
458,221,98927,2,0,L|455:107,1,87.5,0|2,0:0|0:0,0:0:0:0:
201,284,99200,2,0,P|247:299|307:296,1,87.5,0|2,0:0|0:0,0:0:0:0:
50,128,99472,2,0,L|53:242,1,87.5,0|2,0:0|0:0,0:0:0:0:
324,352,99745,6,0,L|420:328,1,87.5,2|2,0:0|0:0,0:0:0:0:
188,32,100018,2,0,L|92:56,1,87.5,2|2,0:0|0:0,0:0:0:0:
476,124,100291,5,0,0:0:0:0:
32,216,100564,1,0,0:0:0:0:
404,348,100836,6,0,L|331:282,1,87.5
456,256,101109,2,0,L|420:169,1,87.5,2|0,0:0|0:0,0:0:0:0:
176,132,101382,6,0,L|216:25,1,87.5,2|0,0:0|0:0,0:0:0:0:
484,88,101655,1,2,0:0:0:0:
502,127,101723,1,0,0:0:0:0:
506,170,101791,1,2,0:0:0:0:
501,213,101859,1,0,0:0:0:0:
485,253,101927,2,0,L|423:342,1,87.5,0|2,0:0|0:0,0:0:0:0:
385,361,102132,5,0,0:0:0:0:
350,334,102200,1,2,0:0:0:0:
324,298,102268,1,0,0:0:0:0:
313,255,102336,1,2,0:0:0:0:
322,211,102405,1,0,0:0:0:0:
354,181,102473,1,2,0:0:0:0:
384,150,102541,1,0,0:0:0:0:
388,106,102609,1,2,0:0:0:0:
373,64,102677,1,0,0:0:0:0:
324,36,102745,2,0,B|382:15|382:15|448:56,1,131.25,0|0,0:0|2:0,0:0:0:0:
119,62,103018,6,0,L|16:70,1,87.5,0|2,0:0|0:0,0:0:0:0:
144,148,103291,2,0,L|247:140,1,87.5,2|2,0:0|0:0,0:0:0:0:
91,228,103564,2,0,L|-12:236,1,87.5,2|2,0:0|0:0,0:0:0:0:
116,314,103837,2,0,L|219:306,1,87.5,2|2,0:0|0:0,0:0:0:0:
468,224,104109,6,0,L|476:108,1,87.5,2|2,0:0|0:0,0:0:0:0:
236,272,104382,1,0,0:0:0:0:
228,229,104450,1,0,0:0:0:0:
206,191,104518,1,0,0:0:0:0:
176,158,104586,1,0,0:0:0:0:
134,141,104655,6,0,L|116:44,1,87.5,2|2,0:0|0:0,0:0:0:0:
255,62,104927,2,0,L|289:56,6,21.875,0|0|0|0|0|0|0,0:0|0:0|0:0|0:0|0:0|0:0|0:0,0:0:0:0:
408,96,105200,6,0,L|512:74,1,87.5,0|2,0:0|0:0,0:0:0:0:
88,284,105473,2,0,L|-16:306,1,87.5,4|0,0:0|0:0,0:0:0:0:
420,360,105745,6,0,P|500:284|410:116,1,306.25,4|0,0:0|0:0,0:0:0:0:
188,64,106291,6,0,B|126:42|126:42|111:85|111:85|64:70|64:70|45:131|45:131|22:108,1,255.937500976324,6|0,0:0|0:0,0:0:0:0:
288,160,106564,6,0,B|350:138|350:138|365:181|365:181|412:166|412:166|431:227|431:227|459:199,1,255.937500976324,6|0,0:0|0:0,0:0:0:0:
184,280,106836,6,0,B|122:258|122:258|107:301|107:301|60:286|60:286|41:347|41:347|11:322,1,255.937500976324,6|0,0:0|0:0,0:0:0:0:
298,341,107109,6,0,L|422:221,1,170.625000650883
60,348,107382,5,4,0:0:0:0:
144,284,107518,1,0,0:0:0:0:
48,232,107655,1,2,0:0:0:0:
281,219,107791,1,0,0:0:0:0:
185,155,107927,1,0,0:0:0:0:
297,115,108064,1,2,0:0:0:0:
36,51,108200,2,0,L|200:23,1,131.25000500679,8|0,0:0|0:0,0:0:0:0:
408,37,108473,6,0,L|329:143,1,131.25,2|0,0:0|0:0,0:0:0:0:
136,180,108745,6,0,P|184:140|256:160,1,131.25,2|0,0:0|0:0,0:0:0:0:
463,164,109018,6,0,L|384:270,1,131.25,2|0,0:0|0:0,0:0:0:0:
192,324,109290,6,0,P|240:284|312:304,1,131.25,2|0,0:0|0:0,0:0:0:0:
476,344,109564,6,0,L|464:232,1,87.5
348,252,109836,2,0,L|360:124,1,87.5,2|0,0:0|0:0,0:0:0:0:
480,176,110109,1,0,0:0:0:0:
380,129,110245,1,0,0:0:0:0:
502,71,110382,1,8,0:0:0:0:
365,16,110518,1,0,0:0:0:0:
236,16,110655,6,0,P|166:39|70:29,1,131.25,2|0,0:0|0:0,0:0:0:0:
324,104,110927,6,0,P|394:127|490:117,1,131.25,2|0,0:0|0:0,0:0:0:0:
180,144,111200,6,0,P|110:167|14:157,1,131.25,2|0,0:0|0:0,0:0:0:0:
268,232,111472,6,0,P|338:255|434:245,1,131.25,2|0,0:0|0:0,0:0:0:0:
220,316,111745,5,0,0:0:0:0:
180,300,111814,1,0,0:0:0:0:
160,260,111882,1,0,0:0:0:0:
160,216,111950,1,0,0:0:0:0:
180,176,112018,1,2,0:0:0:0:
204,140,112086,1,0,0:0:0:0:
204,96,112154,1,0,0:0:0:0:
180,60,112223,1,0,0:0:0:0:
92,32,112291,6,0,L|-8:32,1,87.5,8|2,0:0|0:0,0:0:0:0:
420,352,112564,2,0,L|520:352,1,87.5,2|0,0:0|0:0,0:0:0:0:
35,305,112836,6,0,L|25:191,1,87.5,0|2,0:0|0:0,0:0:0:0:
477,79,113109,2,0,L|487:193,1,87.5,8|0,0:0|0:0,0:0:0:0:
252,56,113382,1,2,0:0:0:0:
187,114,113518,1,2,0:0:0:0:
173,200,113655,1,2,0:0:0:0:
209,279,113791,1,2,0:0:0:0:
432,296,113927,5,8,0:0:0:0:
485,214,114064,1,0,0:0:0:0:
164,230,114200,5,0,0:0:0:0:
139,118,114336,1,8,0:0:0:0:
354,231,114473,5,0,0:0:0:0:
379,119,114609,1,0,0:0:0:0:
80,291,114745,5,8,0:0:0:0:
27,214,114882,1,0,0:0:0:0:
455,320,115018,5,0,0:0:0:0:
299,221,115291,1,2,0:0:0:0:
470,150,115564,1,2,0:0:0:0:
20,60,115836,5,4,0:2:0:0:
