osu file format v14

[General]
AudioFilename: Crack Traxxxx.mp3
AudioLeadIn: 0
PreviewTime: 63745
Countdown: 0
SampleSet: Normal
StackLeniency: 0.7
Mode: 0
LetterboxInBreaks: 0
EpilepsyWarning: 1
WidescreenStoryboard: 0

[Editor]
Bookmarks: 111200
DistanceSpacing: 1.1
BeatDivisor: 4
GridSize: 4
TimelineZoom: 3.199999

[Metadata]
Title:Crack Traxxxx
TitleUnicode:Crack Traxxxx
Artist:Lite Show Magic (t+pazolite vs C-Show)
ArtistUnicode:Lite Show Magic (t+pazolite vs C-Show)
Creator:Fatfan Kolek
Version:Pantsu's Another
Source:SOUND VOLTEX II -infinite infection-
Tags:t+pazolite c-show TKSalt TKS Dariano Fanzhen0019 Oracle Natsu P_A_N Aka EvilElvis Gero Onosakihito DJNightmare Fast Spectator sukiNathan Okoratu
BeatmapID:404440
BeatmapSetID:139525

[Difficulty]
HPDrainRate:6
CircleSize:4
OverallDifficulty:7.5
ApproachRate:9.2
SliderMultiplier:1.5
SliderTickRate:2

[Events]
//Background and Video events
0,0,"bg.jpg",0,0
//Break Periods
//Storyboard Layer 0 (Background)
//Storyboard Layer 1 (Fail)
//Storyboard Layer 2 (Pass)
//Storyboard Layer 3 (Foreground)
Sprite,Foreground,Centre,"SB/glowmap.png",320,240 P,0,0,119170,A F,0,2382,,0 M,0,2655,,320,240 S,0,2655,,0.7963637 F,0,2655,4836,1,0 F,0,7018,7291,1,0 F,0,7427,9200,1,0 F,0,12473,12609,1,0 F,0,12745,12882,1,0 F,0,13018,13155,1,0 F,0,13291,13427,1,0 F,0,14655,14791,1,0 F,0,14927,15064,1,0 F,0,15200,15336,1,0 F,0,15473,15609,1,0 F,0,15745,,0.08145462 F,0,15882,,0.4319658 F,0,16018,,0.6533606 F,0,16155,,0.9287182 F,0,16291,16836,1,0 F,0,16905,,0.5032727 F,0,16973,,0.1803636 F,0,17041,,0.5789091 F,0,17109,,0.2065455 F,0,17177,,0.7301819 F,0,17245,,0.1396364 F,0,17314,,0.7883637 F,0,17382,17927,1,0 F,0,19836,20041,1,0 F,0,20109,22291,1,0 F,0,24200,24473,1,0 F,0,30745,,1 F,0,30814,,0 F,0,30882,,1 F,0,30950,,0 F,0,32927,,1 F,0,32995,,0 F,0,33064,,1 F,0,33132,,0 F,0,34018,,1 F,0,34086,,0 F,0,34155,,1 F,0,34223,,0 F,2,35109,35382,0.2589091,1 F,0,35382,36405,1,0 F,0,36473,36677,1,0 F,0,36745,36950,1,0 F,0,37018,37223,1,0 F,0,37291,37495,1,0 F,0,55018,57200,1,0 F,0,62689,,1 F,0,62723,,0 F,0,62791,,1 F,0,62825,,0 F,0,62893,,1 F,0,62927,,0 F,0,62995,,1 F,0,63030,,0 F,0,63098,,1 F,0,63132,,0 F,0,63200,,1 F,0,63234,,0 F,0,63302,,1 F,0,63336,,0 F,0,63405,,1 F,0,63439,,0 F,0,63473,63745,1,0 F,0,67564,67791,1,0 F,0,67836,68064,1,0 F,0,71382,71620,1,0 F,0,71655,71893,1,0 F,0,71927,72166,1,0 F,0,72200,72439,1,0 F,0,76291,,0.3309091 F,0,76359,,0 F,0,76427,,0.674909 F,0,76495,,0 F,0,76564,,1 F,0,76598,,0 F,0,76632,,1 F,0,76666,,0 F,0,76700,,1 F,0,76734,,0 F,0,76768,,1 F,0,76802,,0 F,0,80927,81064,1,0 F,0,81200,82291,1,0 F,0,87745,87814,0.1716364,0 F,0,87882,87950,0.3316363,0 F,0,88018,88223,1,0 F,0,88291,88359,0.1396364,0 F,0,88427,88495,0.3141819,0 F,0,88564,88768,1,0 F,0,88836,89586,1,0 F,0,89655,89927,1,0 F,0,107382,107655,0.5789091,0 F,0,107791,108064,1,0 F,0,108200,108405,0.994909,0 F,0,108473,108950,1,0 F,0,109018,109495,1,0 F,0,109564,109905,1,0 F,0,109973,110245,1,0 F,0,110382,110586,0.9163637,0 F,0,110655,111132,1,0 F,0,111200,111677,1,0 F,0,115836,116109,1,0
Sprite,Foreground,Centre,"SB/glowmap.png",320,240 P,0,0,119170,A F,0,63677,,0 S,0,63745,,0.7963637 F,0,63745,63984,1,0 F,0,64018,64257,1,0 F,0,64291,64530,1,0 F,0,64564,64803,1,0 F,0,64836,65075,1,0 F,0,65109,65348,1,0 F,0,65382,65621,1,0 F,0,65655,65894,1,0 F,0,65927,66166,1,0 F,0,66200,66439,1,0 F,0,66473,66712,1,0 F,0,66745,66984,1,0 F,0,67018,67257,1,0 F,0,67291,67530,1,0 F,0,68109,68348,1,0 F,0,68382,68621,1,0 F,0,68655,68894,1,0 F,0,68927,69166,1,0 F,0,69200,69439,1,0 F,0,69473,69712,1,0 F,0,69745,69984,1,0 F,0,70018,70257,1,0 F,0,70291,70530,1,0 F,0,70564,70803,1,0 F,0,70836,71075,1,0 F,0,71109,71348,1,0 F,0,72473,72712,1,0 F,0,72745,72984,1,0 F,0,73018,73257,1,0 F,0,73291,73530,1,0 F,0,73564,73803,1,0 F,0,73836,74075,1,0 F,0,74109,74348,1,0 F,0,74382,74621,1,0 F,0,74655,74894,1,0 F,0,74927,75166,1,0 F,0,75200,75439,1,0 F,0,75473,75712,1,0 F,0,75745,75984,1,0 F,0,76018,76257,1,0 F,0,76836,77075,1,0 F,0,77245,77484,1,0 F,0,77655,77894,1,0 F,0,78064,78303,1,0 F,0,78336,78575,1,0
Sprite,Foreground,Centre,"SB/glowmap.png",320,240 P,0,0,119170,A S,0,63745,,0.7963637 F,0,78405,,0 F,0,78473,78712,1,0 F,0,79155,79394,1,0 F,0,79427,79666,1,0 F,0,79700,79939,1,0 F,0,79973,80212,1,0
Sprite,Foreground,Centre,"SB/glowmap.png",320,240 P,0,0,119170,A S,0,63745,,0.7963637 F,0,80041,,0 F,0,80109,80348,1,0 F,0,100836,101382,0.541091,0
//Storyboard Sound Samples

[TimingPoints]
2655,272.727272727273,4,1,0,65,1,0
11109,-83.3333333333333,4,1,0,65,0,0
11382,-100,4,1,0,65,0,0
17382,-133.333333333333,4,1,0,65,0,0
17655,-100,4,1,0,65,0,0
19836,-133.333333333333,4,1,0,65,0,0
20109,-83.3333333333333,4,1,0,65,0,0
23927,-133.333333333333,4,1,0,65,0,0
24200,-83.3333333333333,4,1,0,65,0,0
24473,-100,4,1,0,65,0,0
27745,-83.3333333333333,4,1,0,65,0,0
28018,-133.333333333333,4,1,0,65,0,0
28291,-100,4,1,0,65,0,0
28564,-83.3333333333333,4,1,0,65,0,0
28836,-100,4,1,0,65,0,0
35382,-133.333333333333,4,1,0,65,0,0
36473,-83.3333333333333,4,1,0,65,0,0
37836,-133.333333333333,4,1,0,65,0,0
38109,-83.3333333333333,4,1,0,65,0,0
38382,-100,4,1,0,65,0,0
38791,-133.333333333333,4,1,0,65,0,0
38927,-117.647058823529,4,1,0,65,0,0
39064,-105.263157894737,4,1,0,65,0,0
39200,-95.2380952380952,4,1,0,65,0,0
39336,-86.9565217391304,4,1,0,65,0,0
39473,-80,4,1,0,65,0,0
39609,-74.0740740740741,4,1,0,65,0,0
39745,-133.333333333333,4,1,0,65,0,0
40018,-83.3333333333333,4,1,0,65,0,0
40291,-133.333333333333,4,1,0,65,0,0
41382,-83.3333333333333,4,1,0,65,0,0
41655,-133.333333333333,4,1,0,65,0,0
42473,-83.3333333333333,4,1,0,65,0,0
44109,-133.333333333333,4,1,0,65,0,0
44655,-111.111111111111,4,1,0,65,0,0
45200,-83.3333333333333,4,1,0,65,0,0
45473,-133.333333333333,4,1,0,65,0,0
45745,-83.3333333333333,4,1,0,65,0,0
46018,-133.333333333333,4,1,0,65,0,0
46836,-83.3333333333333,4,1,0,65,0,0
47518,-133.333333333333,4,1,0,65,0,0
47655,-117.647058823529,4,1,0,65,0,0
47791,-105.263157894737,4,1,0,65,0,0
47927,-95.2380952380951,4,1,0,65,0,0
48064,-86.9565217391304,4,1,0,65,0,0
48200,-80,4,1,0,65,0,0
48336,-74.0740740740741,4,1,0,65,0,0
48473,-100,4,1,0,65,0,0
50109,-133.333333333333,4,1,0,65,0,0
50382,-83.3333333333333,4,1,0,65,0,0
50655,-100,4,1,0,65,0,0
50927,-133.333333333333,4,1,0,65,0,0
51200,-83.3333333333333,4,1,0,65,0,0
51473,-100,4,1,0,65,0,0
63473,-133.333333333333,4,1,0,65,0,0
63745,-100,4,1,0,85,0,1
67564,-83.3333333333333,4,1,0,85,0,1
68109,-100,4,1,0,85,0,1
71382,-83.3333333333333,4,1,0,85,0,1
72473,-100,4,1,0,85,0,1
76836,-100,4,1,0,85,0,1
79973,-66.6666666666667,4,1,0,75,0,0
81473,-100,4,1,0,75,0,0
86655,-66.6666666666667,4,1,0,75,0,0
86927,-100,4,1,0,75,0,0
89655,-90.9090909090909,4,1,0,75,0,0
89928,-83.3333333333333,4,1,0,75,0,0
90200,-76.9230769230769,4,1,0,75,0,0
90473,-90.9090909090909,4,1,0,75,0,0
92382,-133.333333333333,4,1,0,75,0,0
94018,-90.9090909090909,4,1,0,75,0,0
96745,-133.333333333333,4,1,0,75,0,0
97155,-200,4,1,0,75,0,0
97564,-83.3333333333333,4,1,0,75,0,0
97836,-100,4,1,0,75,0,0
98109,-133.333333333333,4,1,0,75,0,0
98382,-83.3333333333333,4,1,0,75,0,0
100291,-133.333333333333,4,1,0,75,0,0
100564,-83.3333333333333,4,1,0,75,0,0
100836,-133.333333333333,4,1,0,75,0,0
101109,-117.647058823529,4,1,0,75,0,0
101382,-105.263157894737,4,1,0,75,0,0
101655,-95.2380952380952,4,1,0,75,0,0
101927,-133.333333333333,4,1,0,75,0,0
102200,-83.3333333333333,4,1,0,75,0,0
102473,-100,4,1,0,75,0,0
102609,-133.333333333333,4,1,0,75,0,0
102745,-100,4,1,0,75,0,0
103018,-83.3333333333333,4,1,0,75,0,0
105200,-133.333333333333,4,1,0,75,0,0
105473,-83.3333333333333,4,1,0,75,0,0
105745,-133.333333333333,4,1,0,75,0,0
106291,-76.9230769230769,4,1,0,75,0,0
106564,-133.333333333333,4,1,0,75,0,0
106836,-76.9230769230769,4,1,0,75,0,0
107518,-133.333333333333,4,1,0,75,0,0
107791,-76.9230769230769,4,1,0,75,0,0
107927,-133.333333333333,4,1,0,75,0,0
108200,-83.3333333333333,4,1,0,75,0,0
108473,-66.6666666666667,4,1,0,75,0,0
108745,-133.333333333333,4,1,0,75,0,0
109018,-66.6666666666667,4,1,0,75,0,0
109291,-133.333333333333,4,1,0,75,0,0
109564,-83.3333333333333,4,1,0,75,0,0
110382,-133.333333333333,4,1,0,75,0,0
110655,-83.3333333333333,4,1,0,75,0,0
112836,-133.333333333333,4,1,0,75,0,0
113518,-83.3333333333333,4,1,0,75,0,0
113927,-66.6666666666667,4,1,0,30,0,0

[Colours]
Combo1 : 128,0,255
Combo2 : 255,0,0
Combo3 : 0,255,255
Combo4 : 255,128,64

[HitObjects]
184,120,7018,5,4,1:2:0:0:
196,128,7427,1,4,1:2:0:0:
256,192,8109,12,2,10291,0:0:0:0:
156,256,11109,6,0,P|212:256|256:192,1,134.999995880127,6|0,0:0|0:0,0:0:0:0:
240,148,11382,6,0,L|216:64,1,75,4|0,1:2|0:0,0:0:0:0:
164,156,11655,1,0,0:0:0:0:
156,256,11791,1,4,1:2:0:0:
208,340,11927,2,0,P|244:332|288:304,1,75,0|0,0:0|0:0,0:0:0:0:
340,240,12200,2,0,L|368:192,3,37.5,4|0|0|0,1:2|0:0|0:0|0:0,0:0:0:0:
384,164,12473,6,0,L|416:92,1,75,6|0,0:0|0:0,0:0:0:0:
320,108,12745,2,0,L|311:29,1,75,6|0,0:0|0:0,0:0:0:0:
236,96,13018,2,0,L|189:32,1,75,6|0,0:0|0:0,0:0:0:0:
144,120,13291,2,0,L|72:88,1,75,6|0,0:0|0:0,0:0:0:0:
212,180,13564,6,0,L|280:210,1,75,4|0,1:2|0:0,0:0:0:0:
384,256,13836,1,0,0:0:0:0:
229,233,13973,1,4,1:2:0:0:
320,108,14109,1,0,0:0:0:0:
384,256,14245,1,0,0:0:0:0:
229,233,14382,2,0,P|192:240|160:264,1,75,4|0,1:2|0:0,0:0:0:0:
120,296,14586,1,0,0:0:0:0:
120,296,14655,6,0,L|100:212,1,75,6|0,0:0|0:0,0:0:0:0:
196,108,14927,2,0,L|213:180,1,75,6|0,0:0|0:0,0:0:0:0:
328,280,15200,2,0,L|308:196,1,75,6|0,0:0|0:0,0:0:0:0:
404,92,15472,2,0,L|421:164,1,75,6|0,0:0|0:0,0:0:0:0:
436,216,15677,1,0,0:0:0:0:
436,216,15745,5,2,0:0:0:0:
468,316,15882,1,0,0:0:0:0:
436,216,16018,1,2,0:0:0:0:
392,328,16155,1,0,0:0:0:0:
436,216,16291,1,2,1:2:0:0:
320,284,16428,1,0,0:0:0:0:
436,216,16564,1,2,0:0:0:0:
284,216,16701,1,0,0:0:0:0:
436,216,16836,5,2,0:0:0:0:
449,181,16904,1,0,0:0:0:0:
452,144,16972,1,0,0:0:0:0:
443,107,17040,1,0,0:0:0:0:
423,76,17108,1,2,0:0:0:0:
394,52,17176,1,0,0:0:0:0:
360,38,17245,1,0,0:0:0:0:
322,35,17313,1,0,0:0:0:0:
288,52,17382,6,0,P|248:64|200:48,1,84.3750032186509,2|0,1:2|0:0,0:0:0:0:
180,0,17655,6,0,L|168:124,1,112.5,2|0,0:0|0:0,0:0:0:0:
169,111,17927,5,6,1:2:0:0:
160,216,18064,1,0,0:0:0:0:
256,172,18200,1,0,0:0:0:0:
160,117,18336,5,4,1:2:0:0:
169,221,18473,1,0,0:0:0:0:
256,161,18609,1,0,0:0:0:0:
152,124,18745,5,4,1:2:0:0:
178,225,18882,1,0,0:0:0:0:
254,150,19018,2,0,P|304:120|336:164,1,112.5,2|0,0:0|0:0,0:0:0:0:
344,204,19291,6,0,P|394:234|426:190,1,112.5,2|0,0:0|0:0,0:0:0:0:
428,164,19564,1,2,0:0:0:0:
416,128,19632,1,0,0:0:0:0:
388,100,19700,1,0,0:0:0:0:
288,44,19836,6,0,L|192:36,1,84.3750032186509,2|0,0:3|0:0,0:0:0:0:
168,84,20109,6,0,L|260:92,1,89.9999972534181,4|2,0:0|0:3,0:0:0:0:
428,164,20382,2,0,L|338:156,1,89.9999972534181,0|2,0:0|0:3,0:0:0:0:
160,208,20655,2,0,L|252:216,1,89.9999972534181,0|2,0:0|0:3,0:0:0:0:
420,288,20928,2,0,L|330:280,1,89.9999972534181,0|2,0:0|0:3,0:0:0:0:
104,260,21200,6,0,P|84:204|100:160,1,89.9999972534181,0|2,0:0|0:3,0:0:0:0:
32,84,21473,2,0,P|88:64|132:80,1,89.9999972534181,0|2,0:0|0:3,0:0:0:0:
212,20,21745,2,0,P|232:76|216:120,1,89.9999972534181,0|2,0:0|0:3,0:0:0:0:
284,196,22018,2,0,P|228:216|184:200,1,89.9999972534181,0|0,0:0|0:0,0:0:0:0:
316,112,22291,6,0,P|356:92|400:98,1,89.9999972534181,0|2,0:0|0:3,0:0:0:0:
284,184,22564,2,0,P|228:204|184:188,1,89.9999972534181,0|2,0:0|0:3,0:0:0:0:
316,100,22837,2,0,P|356:80|400:86,1,89.9999972534181,0|2,0:0|0:3,0:0:0:0:
464,184,23109,2,0,L|476:288,1,89.9999972534181,0|2,0:0|0:3,0:0:0:0:
392,336,23382,6,0,L|381:246,1,89.9999972534181,0|2,0:0|0:3,0:0:0:0:
284,184,23655,2,0,L|294:273,1,89.9999972534181,0|2,0:0|0:3,0:0:0:0:
204,348,23927,6,0,L|192:264,1,84.3750032186509,2|0,0:0|0:0,0:0:0:0:
184,220,24200,6,0,P|184:136|224:100,1,134.999995880127,6|0,0:0|0:0,0:0:0:0:
248,92,24473,5,4,0:0:0:0:
344,108,24609,1,2,0:3:0:0:
344,108,24677,1,0,0:0:0:0:
344,108,24745,1,0,0:0:0:0:
372,204,24882,1,2,0:3:0:0:
304,276,25018,2,0,P|260:276|216:248,1,75,0|2,0:0|0:3,0:0:0:0:
372,204,25291,2,0,P|396:240|400:280,1,75,0|2,0:0|0:3,0:0:0:0:
284,184,25564,6,0,L|292:96,1,75,0|2,0:0|0:3,0:0:0:0:
192,40,25836,2,0,L|200:128,1,75,0|2,0:0|0:3,0:0:0:0:
96,184,26109,2,0,L|104:92,1,75,0|2,0:0|0:3,0:0:0:0:
20,236,26382,2,0,P|64:272|136:260,1,112.5,0|0,0:0|0:0,0:0:0:0:
152,256,26655,5,4,0:3:0:0:
188,248,26723,1,4,0:3:0:0:
224,252,26791,1,6,0:3:0:0:
256,268,26859,1,4,0:3:0:0:
280,296,26927,1,4,0:3:0:0:
192,332,27064,1,6,0:3:0:0:
216,176,27200,1,4,0:3:0:0:
352,256,27336,1,2,0:3:0:0:
216,176,27473,2,0,P|192:172|168:176,3,37.5,4|0|2|0,0:3|0:0|0:3|0:0,0:0:0:0:
136,180,27745,6,0,P|108:120|144:48,1,134.999995880127,2|2,0:0|0:1,0:0:0:0:
168,40,28018,6,0,P|208:48|260:32,1,84.3750032186509,2|2,0:0|0:1,0:0:0:0:
284,16,28291,6,0,L|288:128,1,112.5,2|2,0:0|0:1,0:0:0:0:
308,168,28564,6,0,P|372:192|440:160,1,134.999995880127,4|0,0:3|0:0,0:0:0:0:
460,136,28836,5,4,0:0:0:0:
444,40,28973,1,2,0:0:0:0:
444,40,29041,1,0,0:0:0:0:
444,40,29109,1,0,0:0:0:0:
372,104,29245,1,2,0:0:0:0:
344,252,29382,2,0,P|376:256|432:232,1,75,0|2,0:0|0:0,0:0:0:0:
308,168,29655,2,0,P|276:164|220:188,1,75,0|2,0:0|0:0,0:0:0:0:
168,288,29927,6,0,L|176:376,1,75,0|2,0:0|0:0,0:0:0:0:
44,232,30200,2,0,L|52:152,1,75,0|2,0:0|0:0,0:0:0:0:
80,320,30473,2,0,P|40:332|0:312,1,75,2|0,0:0|0:0,0:0:0:0:
136,196,30745,1,4,0:3:0:0:
172,192,30814,1,4,0:3:0:0:
208,200,30882,1,4,0:3:0:0:
240,216,30950,1,4,0:3:0:0:
264,244,31018,6,0,P|276:276|264:328,1,75,4|2,0:3|0:0,0:0:0:0:
136,196,31291,2,0,P|124:164|136:112,1,75,0|2,0:0|0:0,0:0:0:0:
264,32,31564,2,0,L|348:40,1,75,0|2,0:0|0:0,0:0:0:0:
464,144,31836,2,0,L|389:151,1,75,0|2,0:0|0:0,0:0:0:0:
240,216,32109,6,0,P|232:256|256:300,1,75,0|2,0:0|0:0,0:0:0:0:
312,140,32382,2,0,P|281:113|231:111,1,75,0|2,0:0|0:0,0:0:0:0:
344,244,32655,2,0,P|382:230|408:188,1,75,2|0,0:0|0:0,0:0:0:0:
452,60,32927,1,4,0:3:0:0:
451,52,32995,1,4,0:3:0:0:
450,44,33064,1,4,0:3:0:0:
449,36,33132,1,4,0:3:0:0:
448,28,33200,6,0,L|458:117,1,75,4|2,0:3|0:0,0:0:0:0:
511,259,33473,2,0,P|507:302|483:338,1,75,0|2,0:0|0:0,0:0:0:0:
344,244,33745,2,0,P|348:201|372:165,1,75,0|2,0:0|0:0,0:0:0:0:
376,344,34018,1,4,0:3:0:0:
340,348,34086,1,4,0:3:0:0:
304,336,34155,1,4,0:3:0:0:
272,316,34223,1,4,0:3:0:0:
248,288,34291,6,0,P|232:248|248:200,1,75,4|2,0:3|0:0,0:0:0:0:
156,124,34564,2,0,P|129:157|79:168,1,75,0|2,0:0|0:0,0:0:0:0:
64,276,34836,2,0,P|106:282|140:320,1,75,2|0,0:0|0:0,0:0:0:0:
272,316,35109,2,0,L|312:328,1,37.5,2|0,0:0|0:0,0:0:0:0:
360,264,35245,2,0,L|400:268,1,37.5,0|0,0:0|0:0,0:0:0:0:
460,316,35382,6,0,P|476:280|476:248,1,56.2500021457673,6|0,3:2|0:0,0:0:0:0:
472,116,35655,1,0,0:0:0:0:
340,184,35791,1,0,0:0:0:0:
304,40,35927,2,0,L|208:48,1,84.3750032186509,2|0,0:0|0:0,0:0:0:0:
192,52,36200,1,0,0:0:0:0:
168,68,36268,1,0,0:0:0:0:
152,92,36336,1,0,0:0:0:0:
140,120,36405,1,0,0:0:0:0:
136,148,36473,6,0,L|152:264,1,89.9999972534181,2|0,0:0|0:0,0:0:0:0:
363,237,36745,2,0,L|376:148,1,89.9999972534181,2|0,0:0|0:0,0:0:0:0:
212,288,37018,2,0,P|256:300|312:280,1,89.9999972534181,2|0,0:0|0:0,0:0:0:0:
300,96,37291,2,0,P|256:84|200:104,1,89.9999972534181,2|0,0:0|0:0,0:0:0:0:
256,216,37564,1,4,0:3:0:0:
256,216,37632,1,4,0:3:0:0:
256,216,37700,1,4,0:3:0:0:
256,216,37768,1,4,0:3:0:0:
256,216,37836,6,0,L|256:304,1,84.3750032186509,4|0,0:3|0:0,0:0:0:0:
284,336,38109,6,0,P|348:356|420:324,1,134.999995880127,4|0,0:0|0:0,0:0:0:0:
432,300,38382,1,2,0:2:0:0:
444,152,38518,1,2,0:2:0:0:
344,264,38655,1,0,0:0:0:0:
356,124,38791,6,0,L|360:80,1,28.1250010728836,0|0,0:0|0:0,0:0:0:0:
284,116,38927,2,0,L|288:64,1,31.8750006079674
212,108,39064,2,0,L|216:60,1,35.6249990487099,2|0,0:2|0:0,0:0:0:0:
140,100,39200,2,0,L|144:52,1,39.3749987983704,2|0,0:2|0:0,0:0:0:0:
68,92,39336,2,0,L|12:84,1,43.1250008225441
64,164,39473,2,0,L|4:156,1,46.875,2|0,0:0|0:0,0:0:0:0:
60,236,39609,2,0,L|0:228,1,50.6250001931191,2|0,0:2|0:0,0:0:0:0:
56,308,39745,6,0,L|144:324,1,84.3750032186509,2|0,0:0|0:0,0:0:0:0:
184,332,40018,6,0,L|236:320,1,44.999998626709,2|0,0:0|0:0,0:0:0:0:
272,320,40155,2,0,L|320:328,1,44.999998626709,2|0,0:0|0:0,0:0:0:0:
360,336,40291,6,0,L|464:320,1,84.3750032186509,4|0,0:0|0:0,0:0:0:0:
484,320,40564,1,0,0:0:0:0:
416,232,40700,1,2,0:0:0:0:
500,160,40836,1,0,0:0:0:0:
416,84,40973,1,2,0:0:0:0:
328,152,41109,6,0,P|300:112|300:72,1,84.3750032186509,0|0,0:0|0:0,0:0:0:0:
312,36,41382,6,0,L|168:48,1,134.999995880127,4|0,0:0|0:0,0:0:0:0:
136,52,41655,6,0,P|96:64|48:48,1,84.3750032186509,4|0,0:2|0:0,0:0:0:0:
20,28,41927,5,4,0:3:0:0:
24,68,41995,1,4,0:3:0:0:
28,112,42064,1,4,0:3:0:0:
32,152,42132,1,4,0:3:0:0:
36,192,42200,6,0,P|72:172|128:180,1,84.3750032186509,4|0,0:3|0:0,0:0:0:0:
152,188,42473,6,0,P|216:200|280:160,1,134.999995880127,4|0,0:0|0:0,0:0:0:0:
299,134,42745,1,2,0:2:0:0:
385,86,42882,1,2,0:2:0:0:
299,36,43018,1,0,0:0:0:0:
312,140,43155,5,2,0:2:0:0:
384,72,43291,1,2,0:2:0:0:
288,44,43427,1,0,0:0:0:0:
328,140,43564,5,4,0:0:0:0:
376,60,43700,1,0,0:0:0:0:
276,56,43836,1,2,0:2:0:0:
344,140,43973,1,2,0:2:0:0:
420,56,44109,6,0,P|456:144|408:240,1,196.875007510186,2|0,0:2|0:0,0:0:0:0:
372,256,44655,6,0,L|128:232,1,236.249992790222,2|0,0:2|0:0,0:0:0:0:
112,192,45200,6,0,L|120:340,1,134.999995880127,2|2,0:0|0:1,0:0:0:0:
148,356,45473,6,0,P|192:364|244:348,1,84.3750032186509,2|2,0:0|0:1,0:0:0:0:
268,332,45745,6,0,P|328:308|392:336,1,134.999995880127,2|2,0:0|0:1,0:0:0:0:
416,356,46018,6,0,L|424:264,1,84.3750032186509,2|0,0:0|0:0,0:0:0:0:
427,237,46291,1,4,0:3:0:0:
431,203,46359,1,4,0:3:0:0:
434,169,46427,1,4,0:3:0:0:
437,135,46495,1,4,0:3:0:0:
439,100,46564,2,0,P|395:114|346:87,1,84.3750032186509,4|0,0:3|0:0,0:0:0:0:
327,75,46836,6,0,P|267:46|117:213,1,314.999990386963,4|0,0:0|0:0,0:0:0:0:
120,233,47382,5,2,0:2:0:0:
196,312,47518,2,0,L|192:344,1,28.1250010728836
272,308,47655,2,0,L|268:352,1,31.8750006079674,2|0,0:2|0:0,0:0:0:0:
348,304,47791,2,0,L|344:348,1,35.6249990487099,2|0,0:2|0:0,0:0:0:0:
420,300,47927,2,0,L|464:296,1,39.3749987983704,2|0,0:2|0:0,0:0:0:0:
396,228,48064,2,0,L|438:224,1,43.1250008225441
372,156,48200,2,0,L|418:152,1,46.875,2|0,0:2|0:0,0:0:0:0:
340,84,48336,2,0,L|408:80,1,50.6250001931191,2|0,0:0|0:0,0:0:0:0:
320,12,48473,6,0,L|200:24,1,112.5,2|0,0:0|0:0,0:0:0:0:
124,36,48745,2,0,L|108:104,1,37.5,2|0,0:0|0:0,0:0:0:0:
180,136,48882,2,0,L|188:99,1,37.5,2|0,0:0|0:0,0:0:0:0:
268,92,49018,2,0,L|248:220,1,112.5,4|0,0:0|0:0,0:0:0:0:
316,256,49291,2,0,L|324:219,1,37.5
404,192,49427,2,0,L|395:228,1,37.5,2|0,0:0|0:0,0:0:0:0:
380,312,49564,6,0,L|371:348,1,37.5
300,332,49700,2,0,L|291:368,1,37.5,2|0,0:0|0:0,0:0:0:0:
216,344,49836,2,0,L|207:380,1,37.5
144,312,49973,1,2,0:0:0:0:
232,204,50109,6,0,P|236:160|216:112,1,84.3750032186509,4|0,0:3|0:0,0:0:0:0:
180,104,50382,6,0,P|112:104|64:40,1,134.999995880127,4|0,0:2|0:0,0:0:0:0:
40,36,50655,5,4,0:3:0:0:
34,57,50723,1,4,0:3:0:0:
29,79,50791,1,4,0:3:0:0:
24,101,50859,1,4,0:3:0:0:
20,124,50927,2,0,P|48:156|100:180,1,84.3750032186509,4|0,0:2|0:0,0:0:0:0:
124,184,51200,6,0,P|184:192|220:260,1,134.999995880127,4|0,0:0|0:0,0:0:0:0:
228,312,51473,6,0,L|284:244,1,75,0|0,0:0|0:0,0:0:0:0:
316,92,51745,5,4,0:3:0:0:
316,92,51814,1,4,0:3:0:0:
316,92,51882,1,4,0:3:0:0:
316,92,51950,1,4,0:3:0:0:
316,92,52018,2,0,L|363:149,1,75,4|0,0:3|0:0,0:0:0:0:
236,144,52291,2,0,L|188:86,1,75,0|0,0:0|0:0,0:0:0:0:
72,32,52564,1,0,0:0:0:0:
72,32,52632,1,0,0:0:0:0:
72,32,52700,1,0,0:0:0:0:
72,32,52768,1,0,0:0:0:0:
72,32,52836,5,4,0:2:0:0:
440,352,53245,1,4,0:2:0:0:
256,192,53518,1,4,0:2:0:0:
192,52,53791,1,4,0:2:0:0:
320,52,53927,6,0,L|408:44,2,75,4|0|0,0:2|0:0|0:0,0:0:0:0:
192,52,54336,1,4,0:2:0:0:
124,160,54473,2,0,L|36:168,2,75,0|0|4,0:0|0:0|0:2,0:0:0:0:
373,157,55018,5,6,1:2:0:0:
192,52,55291,1,0,0:0:0:0:
191,262,55564,1,2,0:0:0:0:
280,116,55836,5,0,0:0:0:0:
286,213,55973,1,0,0:0:0:0:
199,170,56109,1,2,0:0:0:0:
267,320,56382,5,0,0:0:0:0:
416,172,56655,1,2,0:0:0:0:
268,24,56927,1,0,0:0:0:0:
119,172,57200,1,2,0:0:0:0:
416,172,57609,5,2,0:0:0:0:
256,120,57882,1,2,0:0:0:0:
416,172,58155,1,2,0:0:0:0:
416,172,58291,5,2,0:2:0:0:
380,12,58564,1,2,0:2:0:0:
256,120,58836,1,2,0:2:0:0:
196,276,59109,1,2,0:2:0:0:
416,172,59382,6,0,B|460:224|428:288|428:288|380:280,1,150,4|4,2:0|2:0,0:0:0:0:
196,276,59927,2,0,L|112:284,2,75,4|0|8,2:0|2:0|2:0,0:0:0:0:
300,264,60336,1,8,1:0:0:0:
404,248,60473,5,4,2:0:0:0:
376,40,60745,2,0,L|344:116,1,75,4|0,2:0|2:2,0:0:0:0:
284,192,61018,2,0,L|252:116,1,75,4|0,2:0|2:0,0:0:0:0:
188,40,61291,2,0,L|156:116,1,75,8|8,2:0|0:0,0:0:0:0:
92,296,61564,5,4,2:0:0:0:
420,296,61973,1,4,2:0:0:0:
256,192,62245,2,0,L|192:132,2,75,4|0|4,2:0|2:0|2:0,0:0:0:0:
420,296,62689,6,0,L|372:336,1,56.25,2|2,0:0|0:0,0:0:0:0:
288,344,62893,2,0,L|240:376,2,56.25,2|2|2,0:0|0:0|0:0,0:0:0:0:
260,264,63200,2,0,L|308:232,2,56.25,2|2|2,0:0|0:0|0:0,0:0:0:0:
176,244,63473,6,0,P|184:200|176:152,1,84.3750032186509,4|0,1:0|0:0,0:0:0:0:
160,128,63745,6,0,P|204:136|240:120,1,75,6|2,0:0|0:0,0:0:0:0:
368,88,64018,1,2,0:0:0:0:
300,192,64155,1,2,0:0:0:0:
284,43,64291,2,0,L|300:195,1,150,2|2,0:0|0:0,0:0:0:0:
268,292,64700,1,2,0:0:0:0:
173,336,64836,5,0,0:0:0:0:
86,275,64973,2,0,P|78:233|94:188,1,75,2|2,0:0|0:0,0:0:0:0:
108,168,65177,1,0,0:0:0:0:
152,152,65245,2,0,L|228:160,1,75,0|2,0:0|0:0,0:0:0:0:
192,73,65518,1,2,0:0:0:0:
181,240,65655,1,0,0:0:0:0:
181,240,65723,1,0,0:0:0:0:
181,240,65791,1,2,0:0:0:0:
104,80,65927,6,0,P|64:88|36:116,1,75,0|2,0:0|0:0,0:0:0:0:
242,166,66200,2,0,P|282:158|306:130,1,75,0|2,0:0|0:0,0:0:0:0:
192,72,66473,1,0,0:0:0:0:
181,240,66609,1,2,0:0:0:0:
324,296,66745,1,2,0:0:0:0:
241,166,66882,1,2,0:0:0:0:
250,310,67018,6,0,L|324:296,1,75,2|0,0:0|0:0,0:0:0:0:
180,240,67291,2,0,L|106:225,1,75,2|2,0:0|0:0,0:0:0:0:
104,78,67564,6,0,P|147:66|192:72,1,89.9999972534181,2|0,0:0|0:0,0:0:0:0:
407,78,67836,2,0,P|364:66|319:72,1,89.9999972534181,2|0,0:0|0:0,0:0:0:0:
241,166,68109,5,0,0:0:0:0:
312,268,68245,1,0,0:0:0:0:
312,268,68314,1,0,0:0:0:0:
312,268,68382,2,0,P|355:280|392:276,2,75,2|2|2,0:0|0:0|0:0,0:0:0:0:
241,166,68791,1,0,0:0:0:0:
172,268,68927,2,0,P|128:280|92:276,1,75,2|2,0:0|0:0,0:0:0:0:
84,172,69200,5,0,0:0:0:0:
164,344,69336,1,2,0:0:0:0:
241,166,69473,1,0,0:0:0:0:
312,268,69609,1,2,0:0:0:0:
312,268,69677,1,0,0:0:0:0:
312,268,69745,1,2,0:0:0:0:
164,172,69882,1,0,0:0:0:0:
164,172,69950,1,0,0:0:0:0:
164,172,70018,2,0,P|156:132|168:92,1,75,2|2,0:0|0:0,0:0:0:0:
184,68,70223,1,0,0:0:0:0:
216,40,70291,5,4,0:3:0:0:
272,48,70359,1,4,0:3:0:0:
328,56,70427,1,4,0:3:0:0:
384,64,70495,1,4,0:3:0:0:
440,72,70564,2,0,P|464:104|472:156,1,75,4|0,0:3|0:0,0:0:0:0:
448,248,70836,5,4,0:3:0:0:
392,256,70905,1,4,0:3:0:0:
336,264,70973,1,4,0:3:0:0:
280,272,71041,1,4,0:3:0:0:
224,280,71109,2,0,P|188:296|136:280,1,75,4|0,0:3|0:0,0:0:0:0:
44,212,71382,6,0,P|56:168|44:104,1,89.9999972534181,2|0,0:0|0:0,0:0:0:0:
335,160,71655,2,0,P|324:203|328:247,1,89.9999972534181,2|0,0:0|0:0,0:0:0:0:
164,48,71927,2,0,P|207:59|251:55,1,89.9999972534181,2|0,0:0|0:0,0:0:0:0:
216,324,72200,2,0,P|172:312|108:324,1,89.9999972534181,6|0,0:0|0:0,0:0:0:0:
184,192,72473,5,6,0:0:0:0:
248,100,72609,1,2,0:0:0:0:
248,100,72677,1,0,0:0:0:0:
248,100,72745,1,2,0:0:0:0:
304,200,72882,1,2,0:0:0:0:
148,118,73018,2,0,P|148:73|180:37,1,75,2|0,0:0|0:0,0:0:0:0:
248,100,73291,1,2,0:0:0:0:
184,192,73427,1,2,0:0:0:0:
72,184,73564,6,0,P|44:144|48:104,1,75,0|2,0:0|0:0,0:0:0:0:
248,100,73836,1,0,0:0:0:0:
272,128,73905,1,0,0:0:0:0:
288,164,73973,1,2,0:0:0:0:
296,200,74041,1,0,0:0:0:0:
288,236,74109,2,0,P|260:280|220:292,1,75,0|2,0:0|0:0,0:0:0:0:
348,328,74382,2,0,P|400:330|430:358,1,75,0|2,0:0|0:0,0:0:0:0:
408,228,74655,6,0,P|383:181|393:141,1,75,0|2,0:0|0:0,0:0:0:0:
424,56,74927,2,0,L|344:48,1,75,0|2,0:0|0:0,0:0:0:0:
236,40,75200,1,0,0:0:0:0:
264,188,75336,1,2,0:0:0:0:
156,84,75473,1,2,0:0:0:0:
304,104,75609,1,2,0:0:0:0:
172,172,75745,5,2,0:0:0:0:
172,172,75882,1,0,0:0:0:0:
204,280,76018,1,2,0:0:0:0:
204,280,76155,1,0,0:0:0:0:
308,324,76291,1,2,0:2:0:0:
416,288,76427,1,2,0:2:0:0:
464,188,76564,1,2,0:2:0:0:
456,152,76632,1,2,0:2:0:0:
444,116,76700,1,2,0:2:0:0:
424,84,76768,1,2,0:2:0:0:
396,60,76836,6,0,L|320:64,1,75,4|0,0:2|0:0,0:0:0:0:
71,136,77245,2,0,L|113:200,1,75,4|0,0:2|0:0,0:0:0:0:
300,379,77655,2,0,L|334:311,1,75,4|0,0:2|0:0,0:0:0:0:
396,60,78064,6,0,L|320:64,1,75,4|2,0:2|0:2,0:0:0:0:
236,136,78336,1,0,0:0:0:0:
216,24,78473,1,4,0:2:0:0:
48,316,78882,6,0,L|100:320,1,37.5,4|0,0:2|0:0,0:0:0:0:
228,228,79155,1,2,0:2:0:0:
344,364,79291,1,2,0:2:0:0:
332,184,79427,1,2,0:2:0:0:
236,332,79564,1,2,0:2:0:0:
404,268,79700,1,2,0:2:0:0:
228,228,79836,2,0,P|212:188|228:140,1,75,2|2,0:2|0:2,0:0:0:0:
316,40,80109,5,6,0:2:0:0:
256,192,80177,12,6,81200,1:2:0:0:
255,367,81473,5,0,0:0:0:0:
80,191,81745,1,2,0:0:0:0:
256,16,82018,1,0,0:0:0:0:
332,100,82155,1,0,0:0:0:0:
224,124,82291,5,2,0:0:0:0:
256,348,82564,1,0,0:0:0:0:
156,148,82836,1,2,0:0:0:0:
316,308,83110,1,0,0:0:0:0:
116,208,83382,5,2,0:0:0:0:
396,176,83791,1,2,0:0:0:0:
184,256,84064,1,2,0:0:0:0:
356,108,84337,1,2,0:0:0:0:
356,108,84473,5,2,0:2:0:0:
184,256,84745,1,2,0:2:0:0:
396,176,85018,1,2,0:2:0:0:
184,256,85291,1,2,0:2:0:0:
408,252,85564,5,2,0:0:0:0:
184,256,85836,1,2,0:0:0:0:
396,328,86109,1,2,0:0:0:0:
184,256,86382,1,2,0:0:0:0:
184,256,86518,1,2,0:0:0:0:
360,108,86655,5,4,0:1:0:0:
256,192,86723,12,0,87677,2:0:0:0:
476,212,87745,6,0,L|436:300,1,75,2|2,0:0|0:0,0:0:0:0:
304,372,88018,2,0,P|252:352|228:296,1,112.5,2|0,1:0|0:0,0:0:0:0:
228,303,88291,1,2,0:0:0:0:
256,156,88427,1,2,0:0:0:0:
228,303,88564,2,0,P|168:292|140:244,1,112.5,2|0,1:0|0:0,0:0:0:0:
140,208,88836,6,0,L|132:104,1,75,4|0,1:2|0:0,0:0:0:0:
224,72,89143,2,0,L|216:0,2,56.25,2|2|2,0:0|0:0|0:0,0:0:0:0:
288,116,89450,2,0,L|296:176,1,56.25,2|2,0:0|0:0,0:0:0:0:
324,44,89655,6,0,L|340:184,1,123.75000377655,4|0,0:0|0:0,0:0:0:0:
392,208,89927,6,0,L|377:85,1,123.75000377655,4|0,0:0|0:0,0:0:0:0:
412,24,90200,6,0,L|428:176,1,146.249993305207,0|0,0:0|0:0,0:0:0:0:
436,220,90473,6,0,P|432:260|400:296,1,82.5000025177003,0|2,0:0|0:0,0:0:0:0:
292,344,90745,2,0,P|296:304|328:268,1,82.5000025177003,0|2,0:0|0:0,0:0:0:0:
448,224,91018,6,0,P|444:264|412:300,1,82.5000025177003,0|2,0:0|0:0,0:0:0:0:
304,348,91290,2,0,P|308:308|340:272,1,82.5000025177003,0|2,0:0|0:0,0:0:0:0:
432,148,91564,2,0,P|476:152|512:184,1,82.5000025177003,4|0,0:0|0:0,0:0:0:0:
368,192,91836,2,0,P|324:188|288:156,1,82.5000025177003,4|0,0:0|0:0,0:0:0:0:
192,44,92109,6,0,B|164:108|164:108|152:148|188:164,1,123.75000377655,2|0,0:3|0:0,0:0:0:0:
200,172,92382,6,0,P|220:200|220:256,1,84.3750032186509,2|0,0:3|0:0,0:0:0:0:
204,272,92655,1,2,0:2:0:0:
187,294,92723,1,2,0:2:0:0:
184,322,92791,1,2,0:2:0:0:
194,348,92859,1,2,0:2:0:0:
216,365,92927,1,2,0:2:0:0:
243,370,92995,1,2,0:2:0:0:
270,362,93064,1,2,0:2:0:0:
289,342,93132,1,2,0:2:0:0:
300,320,93200,6,0,B|304:284|304:284|320:272|320:272|324:224,1,84.3750032186509,4|0,0:2|0:0,0:0:0:0:
324,220,93473,1,2,0:3:0:0:
268,124,93609,1,2,0:3:0:0:
348,204,93745,1,4,0:3:0:0:
252,144,93882,1,4,0:3:0:0:
368,172,94018,6,0,P|384:116|348:60,1,123.75000377655,4|0,0:0|0:0,0:0:0:0:
316,52,94291,6,0,L|232:40,1,82.5000025177003,4|2,0:0|0:0,0:0:0:0:
80,88,94564,2,0,L|161:99,1,82.5000025177003,0|2,0:0|0:0,0:0:0:0:
304,176,94836,2,0,L|220:164,1,82.5000025177003,0|2,0:0|0:0,0:0:0:0:
68,212,95109,2,0,L|149:223,1,82.5000025177003,0|2,0:0|0:0,0:0:0:0:
304,248,95382,6,0,P|340:272|356:320,1,82.5000025177003,0|2,0:0|0:0,0:0:0:0:
252,192,95655,2,0,P|290:172|340:182,1,82.5000025177003,0|2,0:0|0:0,0:0:0:0:
228,264,95927,2,0,P|192:240|176:192,1,82.5000025177003,6|0,0:0|0:0,0:0:0:0:
280,320,96200,2,0,P|241:339|191:329,1,82.5000025177003,4|0,0:0|0:0,0:0:0:0:
68,212,96473,5,4,0:3:0:0:
68,212,96609,1,2,0:3:0:0:
68,212,96745,2,0,L|40:92,1,112.500004291535,4|2,0:3|0:2,0:0:0:0:
108,32,97155,6,0,L|132:136,1,93.75,2|0,0:2|0:0,0:0:0:0:
160,164,97564,6,0,P|208:184|288:148,1,134.999995880127,4|0,0:0|0:0,0:0:0:0:
312,128,97836,6,0,P|360:112|424:136,1,112.5,4|0,0:0|0:0,0:0:0:0:
448,160,98109,6,0,L|460:68,1,84.3750032186509,4|0,0:0|0:0,0:0:0:0:
496,56,98382,6,0,L|472:208,1,134.999995880127,4|0,0:0|0:0,0:0:0:0:
460,236,98655,6,0,P|428:276|388:284,1,89.9999972534181,4|2,0:0|0:0,0:0:0:0:
280,356,98927,2,0,P|240:324|232:284,1,89.9999972534181,0|2,0:0|0:0,0:0:0:0:
172,164,99200,2,0,P|204:124|244:116,1,89.9999972534181,0|2,0:0|0:0,0:0:0:0:
360,52,99473,2,0,P|400:83|408:124,1,89.9999972534181,0|2,0:0|0:0,0:0:0:0:
372,248,99745,5,0,0:0:0:0:
328,124,99882,1,2,0:0:0:0:
296,272,100018,1,0,0:0:0:0:
252,144,100155,1,2,0:0:0:0:
220,296,100291,6,0,P|176:308|124:288,1,84.3750032186509,4|0,0:0|0:0,0:0:0:0:
100,268,100564,6,0,L|108:112,1,134.999995880127,4|0,0:0|0:0,0:0:0:0:
124,96,100836,6,0,P|152:92|188:104,1,56.2500021457673,2|2,0:2|0:2,0:0:0:0:
236,220,101109,2,0,P|208:208|184:168,1,63.7500012159348,0|2,0:0|0:2,0:0:0:0:
272,72,101382,2,0,P|304:52|344:52,1,71.2499980974198,8|8,0:3|0:3,0:0:0:0:
456,136,101655,2,0,L|448:228,1,78.7499975967408,8|8,0:3|0:3,0:0:0:0:
396,320,101927,6,0,P|360:308|316:320,1,84.3750032186509,4|0,0:0|0:0,0:0:0:0:
276,344,102200,6,0,P|196:356|144:312,1,134.999995880127,2|4,0:0|0:3,0:0:0:0:
128,288,102473,6,0,L|136:236,1,37.5,4|4,0:3|0:3,0:0:0:0:
136,204,102609,2,0,L|132:168,1,28.1250010728836,4|4,0:3|0:3,0:0:0:0:
128,128,102745,6,0,P|180:144|240:128,1,112.5,2|2,3:2|3:2,0:0:0:0:
280,104,103018,6,0,L|272:208,1,89.9999972534181,4|2,0:0|0:0,0:0:0:0:
424,120,103291,2,0,L|432:24,1,89.9999972534181,0|2,0:0|0:0,0:0:0:0:
416,200,103564,2,0,L|536:208,1,89.9999972534181,0|2,0:0|0:0,0:0:0:0:
292,24,103836,2,0,L|184:16,1,89.9999972534181,0|2,0:0|0:0,0:0:0:0:
52,112,104109,6,0,P|56:164|84:192,1,89.9999972534181,0|2,0:0|0:0,0:0:0:0:
212,224,104382,1,4,0:3:0:0:
220,224,104450,1,4,0:3:0:0:
228,224,104518,1,4,0:3:0:0:
236,224,104586,1,4,0:3:0:0:
245,224,104655,6,0,L|136:224,1,89.9999972534181,2|4,0:0|0:3,0:0:0:0:
80,328,104927,2,0,L|48:328,6,22.4999993133545,0|0|0|0|0|0|0,0:0|0:0|0:0|0:0|0:0|0:0|0:0,0:0:0:0:
124,328,105200,6,0,L|208:328,1,84.3750032186509,0|0,0:0|0:0,0:0:0:0:
256,328,105473,6,0,P|312:312|352:224,1,134.999995880127,6|0,0:2|0:0,0:0:0:0:
368,204,105745,6,0,P|384:164|428:144,1,84.3750032186509,6|0,0:2|0:0,0:0:0:0:
424,145,106018,1,2,0:3:0:0:
429,145,106086,1,2,0:3:0:0:
434,145,106155,1,2,0:3:0:0:
439,145,106223,1,2,0:3:0:0:
444,146,106291,6,0,L|287:147,1,146.249993305207,4|0,0:0|0:0,0:0:0:0:
260,147,106564,6,0,L|217:137,1,28.1250010728836,4|0,0:0|0:0,0:0:0:0:
190,139,106700,2,0,L|156:149,1,28.1250010728836,0|0,0:0|0:0,0:0:0:0:
118,147,106836,6,0,B|91:150|57:127|57:127|31:154|35:211,1,146.249993305207,4|0,0:0|0:0,0:0:0:0:
35,212,107109,1,4,0:0:0:0:
36,221,107177,1,0,0:0:0:0:
38,230,107245,1,0,0:0:0:0:
41,239,107314,1,0,0:0:0:0:
44,248,107382,1,4,0:0:0:0:
256,368,107518,5,0,0:0:0:0:
260,147,107655,1,0,0:0:0:0:
176,312,107791,1,0,0:0:0:0:
260,147,107927,2,0,L|284:80,1,56.2500021457673
408,220,108200,6,0,P|448:224|504:144,1,134.999995880127,4|0,1:2|0:0,0:0:0:0:
432,152,108473,6,0,P|376:152|340:248,1,168.750006437302,6|0,0:0|0:0,0:0:0:0:
392,296,108745,6,0,P|352:320|312:312,1,84.3750032186509,6|0,0:0|0:0,0:0:0:0:
268,280,109018,6,0,P|208:244|112:280,1,168.750006437302,6|0,0:0|0:0,0:0:0:0:
88,340,109291,6,0,P|56:316|44:268,1,84.3750032186509,6|0,0:0|0:0,0:0:0:0:
44,196,109564,6,0,L|52:104,1,89.9999972534181,4|0,1:2|0:0,0:0:0:0:
136,52,109836,1,0,0:0:0:0:
212,116,109973,2,0,P|256:124|312:108,1,89.9999972534181,4|0,1:2|0:0,0:0:0:0:
376,52,110245,1,0,0:0:0:0:
460,106,110382,6,0,L|468:192,1,84.3750032186509,4|0,1:2|0:0,0:0:0:0:
472,236,110655,6,0,P|464:280|432:316,1,89.9999972534181,6|0,0:0|0:0,0:0:0:0:
312,344,110927,2,0,P|268:336|232:304,1,89.9999972534181,6|0,0:0|0:0,0:0:0:0:
200,184,111200,2,0,P|208:140|240:104,1,89.9999972534181,6|0,0:0|0:0,0:0:0:0:
360,76,111473,2,0,P|404:84|440:116,1,89.9999972534181,6|0,0:0|0:0,0:0:0:0:
472,236,111745,5,2,0:0:0:0:
452,260,111813,1,0,0:0:0:0:
424,275,111881,1,0,0:0:0:0:
393,277,111949,1,0,0:0:0:0:
363,268,112017,1,2,0:0:0:0:
336,252,112085,1,0,0:0:0:0:
308,238,112154,1,0,0:0:0:0:
277,235,112222,1,0,0:0:0:0:
247,243,112291,6,0,P|200:252|156:324,1,134.999995880127,2|0,1:2|0:0,0:0:0:0:
120,372,112564,2,0,L|100:272,1,89.9999972534181,0|0,0:0|0:0,0:0:0:0:
76,136,112836,6,0,P|64:96|120:56,2,112.500004291535,2|0|2,1:2|0:0|0:0,0:0:0:0:
120,212,113518,6,0,L|140:256,1,44.999998626709,2|0,0:0|0:0,0:0:0:0:
204,216,113655,2,0,L|234:253,1,44.999998626709,2|0,0:0|0:0,0:0:0:0:
292,204,113791,2,0,L|331:232,1,44.999998626709,6|0,0:0|0:0,0:0:0:0:
256,192,113927,12,6,115836,1:2:0:0:
