osu file format v14

[General]
AudioFilename: Crack Traxxxx.mp3
AudioLeadIn: 0
PreviewTime: 63745
Countdown: 0
SampleSet: Soft
StackLeniency: 0.7
Mode: 0
LetterboxInBreaks: 0
EpilepsyWarning: 1
WidescreenStoryboard: 0

[Editor]
Bookmarks: 2586,20109,23927,24200,24473,28836,37564,47382,52836,53245,53518,55018,59382,77655,78064,78336,78473,79155,79427,79700,80927,81200,86655,89927,91564,91836,100836,103018,106291,107382,109564,110655,111745,115836
DistanceSpacing: 1.2
BeatDivisor: 8
GridSize: 4
TimelineZoom: 2.3

[Metadata]
Title:Crack Traxxxx
TitleUnicode:Crack Traxxxx
Artist:Lite Show Magic (t+pazolite vs C-Show)
ArtistUnicode:Lite Show Magic (t+pazolite vs C-Show)
Creator:Fatfan Kolek
Version:Oracle's Hard
Source:SOUND VOLTEX II -infinite infection-
Tags:t+pazolite c-show TKSalt TKS Dariano Fanzhen0019 Oracle Natsu P_A_N Aka EvilElvis Gero Onosakihito DJNightmare Fast Spectator sukiNathan Okoratu
BeatmapID:348550
BeatmapSetID:139525

[Difficulty]
HPDrainRate:6
CircleSize:4
OverallDifficulty:6
ApproachRate:8
SliderMultiplier:1.4
SliderTickRate:1

[Events]
//Background and Video events
0,0,"bg.jpg",0,0
//Break Periods
2,55218,58632
2,81400,85905
//Storyboard Layer 0 (Background)
//Storyboard Layer 1 (Fail)
//Storyboard Layer 2 (Pass)
//Storyboard Layer 3 (Foreground)
Sprite,Foreground,Centre,"SB/glowmap.png",320,240 P,0,0,119170,A F,0,2382,,0 M,0,2655,,320,240 S,0,2655,,0.7963637 F,0,2655,4836,1,0 F,0,7018,7291,1,0 F,0,7427,9200,1,0 F,0,12473,12609,1,0 F,0,12745,12882,1,0 F,0,13018,13155,1,0 F,0,13291,13427,1,0 F,0,14655,14791,1,0 F,0,14927,15064,1,0 F,0,15200,15336,1,0 F,0,15473,15609,1,0 F,0,15745,,0.08145462 F,0,15882,,0.4319658 F,0,16018,,0.6533606 F,0,16155,,0.9287182 F,0,16291,16836,1,0 F,0,16905,,0.5032727 F,0,16973,,0.1803636 F,0,17041,,0.5789091 F,0,17109,,0.2065455 F,0,17177,,0.7301819 F,0,17245,,0.1396364 F,0,17314,,0.7883637 F,0,17382,17927,1,0 F,0,19836,20041,1,0 F,0,20109,22291,1,0 F,0,24200,24473,1,0 F,0,30745,,1 F,0,30814,,0 F,0,30882,,1 F,0,30950,,0 F,0,32927,,1 F,0,32995,,0 F,0,33064,,1 F,0,33132,,0 F,0,34018,,1 F,0,34086,,0 F,0,34155,,1 F,0,34223,,0 F,2,35109,35382,0.2589091,1 F,0,35382,36405,1,0 F,0,36473,36677,1,0 F,0,36745,36950,1,0 F,0,37018,37223,1,0 F,0,37291,37495,1,0 F,0,55018,57200,1,0 F,0,62689,,1 F,0,62723,,0 F,0,62791,,1 F,0,62825,,0 F,0,62893,,1 F,0,62927,,0 F,0,62995,,1 F,0,63030,,0 F,0,63098,,1 F,0,63132,,0 F,0,63200,,1 F,0,63234,,0 F,0,63302,,1 F,0,63336,,0 F,0,63405,,1 F,0,63439,,0 F,0,63473,63745,1,0 F,0,67564,67791,1,0 F,0,67836,68064,1,0 F,0,71382,71620,1,0 F,0,71655,71893,1,0 F,0,71927,72166,1,0 F,0,72200,72439,1,0 F,0,76291,,0.3309091 F,0,76359,,0 F,0,76427,,0.674909 F,0,76495,,0 F,0,76564,,1 F,0,76598,,0 F,0,76632,,1 F,0,76666,,0 F,0,76700,,1 F,0,76734,,0 F,0,76768,,1 F,0,76802,,0 F,0,80927,81064,1,0 F,0,81200,82291,1,0 F,0,87745,87814,0.1716364,0 F,0,87882,87950,0.3316363,0 F,0,88018,88223,1,0 F,0,88291,88359,0.1396364,0 F,0,88427,88495,0.3141819,0 F,0,88564,88768,1,0 F,0,88836,89586,1,0 F,0,89655,89927,1,0 F,0,107382,107655,0.5789091,0 F,0,107791,108064,1,0 F,0,108200,108405,0.994909,0 F,0,108473,108950,1,0 F,0,109018,109495,1,0 F,0,109564,109905,1,0 F,0,109973,110245,1,0 F,0,110382,110586,0.9163637,0 F,0,110655,111132,1,0 F,0,111200,111677,1,0 F,0,115836,116109,1,0
Sprite,Foreground,Centre,"SB/glowmap.png",320,240 P,0,0,119170,A F,0,63677,,0 S,0,63745,,0.7963637 F,0,63745,63984,1,0 F,0,64018,64257,1,0 F,0,64291,64530,1,0 F,0,64564,64803,1,0 F,0,64836,65075,1,0 F,0,65109,65348,1,0 F,0,65382,65621,1,0 F,0,65655,65894,1,0 F,0,65927,66166,1,0 F,0,66200,66439,1,0 F,0,66473,66712,1,0 F,0,66745,66984,1,0 F,0,67018,67257,1,0 F,0,67291,67530,1,0 F,0,68109,68348,1,0 F,0,68382,68621,1,0 F,0,68655,68894,1,0 F,0,68927,69166,1,0 F,0,69200,69439,1,0 F,0,69473,69712,1,0 F,0,69745,69984,1,0 F,0,70018,70257,1,0 F,0,70291,70530,1,0 F,0,70564,70803,1,0 F,0,70836,71075,1,0 F,0,71109,71348,1,0 F,0,72473,72712,1,0 F,0,72745,72984,1,0 F,0,73018,73257,1,0 F,0,73291,73530,1,0 F,0,73564,73803,1,0 F,0,73836,74075,1,0 F,0,74109,74348,1,0 F,0,74382,74621,1,0 F,0,74655,74894,1,0 F,0,74927,75166,1,0 F,0,75200,75439,1,0 F,0,75473,75712,1,0 F,0,75745,75984,1,0 F,0,76018,76257,1,0 F,0,76836,77075,1,0 F,0,77245,77484,1,0 F,0,77655,77894,1,0 F,0,78064,78303,1,0 F,0,78336,78575,1,0
Sprite,Foreground,Centre,"SB/glowmap.png",320,240 P,0,0,119170,A S,0,63745,,0.7963637 F,0,78405,,0 F,0,78473,78712,1,0 F,0,79155,79394,1,0 F,0,79427,79666,1,0 F,0,79700,79939,1,0 F,0,79973,80212,1,0
Sprite,Foreground,Centre,"SB/glowmap.png",320,240 P,0,0,119170,A S,0,63745,,0.7963637 F,0,80041,,0 F,0,80109,80348,1,0 F,0,100836,101382,0.541091,0
//Storyboard Sound Samples

[TimingPoints]
2655,272.727272727273,4,2,0,60,1,0
8109,-100,4,1,0,35,0,0
8655,-100,4,1,0,45,0,0
9200,-100,4,1,0,55,0,0
9745,-100,4,1,0,60,0,0
10291,-100,4,1,0,50,0,0
15745,-100,4,2,0,60,0,0
20109,-100,4,1,0,50,0,0
26655,-100,4,2,0,60,0,0
28836,-100,4,1,0,50,0,0
53927,-100,4,2,0,60,0,0
55018,-100,4,1,0,50,0,0
59382,-133.333333333333,4,2,0,60,0,0
63473,-133.333333333333,4,1,0,50,0,0
63745,-100,4,1,1,50,0,1
64018,-100,4,1,0,50,0,1
79973,-200,4,1,0,60,0,0
87745,-100,4,1,0,60,0,0
89109,-133.333333333333,4,2,0,60,0,0
89655,-100,4,1,0,50,0,0
99745,-100,4,1,0,40,0,0
100291,-100,4,1,0,50,0,0
106495,-100,4,1,0,13,0,0
106564,-100,4,1,0,60,0,0
106768,-100,4,1,0,13,0,0
106836,-100,4,1,0,60,0,0
111745,-100,4,2,0,60,0,0
115836,-100,4,1,0,50,0,0

[Colours]
Combo1 : 128,0,255
Combo2 : 255,0,0
Combo3 : 0,255,255
Combo4 : 255,128,64

[HitObjects]
256,60,7018,5,4,0:0:0:0:
256,312,7427,1,4,0:0:0:0:
128,192,7836,2,0,L|152:156,3,35,2|0|2|0,0:0|0:0|0:0|0:0,0:0:0:0:
172,128,8109,6,0,L|192:60,1,70
252,120,8382,2,0,L|272:52,1,70
332,112,8655,2,0,L|352:44,1,70
412,100,8927,2,0,L|432:24,1,70
440,192,9200,6,0,L|376:218,1,70
440,336,9473,2,0,L|368:296,1,70
304,264,9745,1,0,0:0:0:0:
304,264,9882,1,0,0:0:0:0:
304,264,10018,2,0,L|224:264,1,70
120,204,10291,6,0,L|104:172,3,35,2|0|0|0,2:0|2:0|2:0|2:0,2:0:0:0:
88,132,10564,2,0,L|96:96,3,35,2|0|0|0,2:0|2:0|2:0|2:0,0:0:0:0:
112,60,10836,2,0,P|136:32|172:16,1,70
256,80,11109,6,0,L|256:232,1,140,2|0,0:0|0:0,0:0:0:0:
216,296,11518,2,0,P|180:268|172:232,1,70
172,160,11791,1,0,0:0:0:0:
172,160,11927,2,0,L|24:160,1,140
140,32,12473,5,4,0:2:0:0:
292,104,12745,1,4,0:2:0:0:
292,272,13018,1,4,0:2:0:0:
140,352,13291,1,4,0:2:0:0:
104,192,13564,6,0,P|144:160|248:152,1,140
304,184,13973,1,0,0:0:0:0:
380,220,14109,2,0,L|456:268,1,70
352,312,14382,2,0,L|280:264,1,70
228,220,14655,5,4,0:2:0:0:
256,56,14927,1,4,0:2:0:0:
140,136,15200,1,4,0:2:0:0:
336,180,15473,1,4,0:2:0:0:
337,180,15745,6,0,L|262:163,1,70,6|2,0:0|0:0,0:0:0:0:
221,232,16018,2,2,L|299:250,1,70,2|2,0:0|0:0,0:0:0:0:
223,311,16291,2,0,P|161:284|145:212,1,140,6|2,0:0|0:0,0:0:0:0:
47,124,16836,6,0,L|126:151,1,70,4|0,0:0|0:0,0:0:0:0:
167,86,17109,2,0,L|95:60,1,70,2|0,0:0|0:0,0:0:0:0:
171,9,17382,2,0,P|221:32|238:117,1,140,6|2,0:0|0:0,0:0:0:0:
182,267,17927,6,0,P|157:290|117:297,1,70,2|2,0:0|0:0,0:0:0:0:
118,214,18200,2,0,P|146:191|201:182,1,70,2|2,0:0|0:0,0:0:0:0:
254,219,18473,2,0,L|321:249,2,70,2|2|2,0:0|0:0|0:0,0:0:0:0:
114,125,19018,5,2,0:0:0:0:
256,36,19291,1,2,0:0:0:0:
256,36,19564,2,0,B|248:68|248:68|263:91|263:91|248:114|248:114|265:131|265:131|257:162,1,140,2|4,0:0|0:0,0:0:0:0:
345,301,20109,6,0,P|376:316|413:317,1,70,0|0,0:0|0:0,0:0:0:0:
394,236,20382,2,0,P|358:221|320:225,1,70,0|0,0:0|0:0,0:0:0:0:
266,280,20655,2,0,L|118:294,1,140
65,136,21200,5,0,0:0:0:0:
65,136,21336,1,0,0:0:0:0:
65,136,21473,2,0,L|103:64,1,70
154,135,21745,2,0,L|189:66,1,70
248,15,22018,2,0,P|267:63|234:148,1,140,0|0,0:0|0:0,0:0:0:0:
103,243,22564,5,0,0:0:0:0:
103,243,22836,2,0,L|40:198,1,70
119,160,23109,2,0,L|192:210,1,70
180,283,23382,5,0,0:0:0:0:
180,283,23518,1,0,0:0:0:0:
180,283,23655,1,0,0:0:0:0:
180,283,23791,1,0,0:0:0:0:
180,283,23927,2,0,B|235:289|268:259|268:259|315:276,1,140,2|4,0:0|0:2,0:0:0:0:
453,184,24473,6,0,P|455:118|393:104,1,140
227,130,25018,2,0,L|206:203,1,70
125,216,25291,2,0,L|74:216,2,35
144,133,25564,6,0,P|119:108|73:96,1,70
27,166,25836,2,0,P|13:196|11:234,1,70
72,298,26109,2,0,P|97:323|143:335,1,70,0|0,0:0|0:0,0:0:0:0:
203,294,26382,1,0,0:0:0:0:
322,175,26655,6,2,L|358:139,3,35,2|2|2|2,2:2|2:2|2:2|2:2,2:2:0:0:
374,119,26927,2,0,L|459:105,1,70,2|2,0:0|0:0,0:0:0:0:
400,34,27200,2,0,L|318:49,1,70,2|2,0:0|0:0,0:0:0:0:
268,102,27473,2,0,L|243:126,3,35
220,162,27745,6,0,P|176:194|82:168,1,140,6|6,0:0|0:0,0:0:0:0:
26,26,28291,2,0,P|93:18|139:67,1,140,2|4,0:0|0:0,0:0:0:0:
166,233,28836,5,6,0:0:0:0:
166,233,29109,2,0,L|97:275,1,70,2|0,0:0|0:0,0:0:0:0:
132,159,29382,2,0,L|60:136,1,70,2|2,0:0|0:0,0:0:0:0:
191,106,29655,2,0,L|148:33,1,70,2|2,0:0|0:0,0:0:0:0:
228,180,29927,5,0,0:0:0:0:
228,180,30064,1,2,0:0:0:0:
228,180,30200,2,0,L|308:200,1,70,0|2,0:0|0:0,0:0:0:0:
341,268,30473,2,0,L|402:210,1,70,2|0,0:0|0:0,0:0:0:0:
432,146,30745,2,0,L|431:103,3,35
420,69,31018,6,0,L|264:37,1,140,2|2,0:0|0:0,0:0:0:0:
120,85,31564,2,0,P|124:120|147:145,1,70,2|0,0:0|0:0,0:0:0:0:
190,217,31836,2,0,P|219:196|228:164,1,70,2|2,0:0|0:0,0:0:0:0:
274,93,32109,2,0,P|241:80|207:84,1,70,0|2,0:0|0:0,0:0:0:0:
119,86,32382,6,0,L|55:53,1,70,0|2,0:0|0:0,0:0:0:0:
57,54,32655,1,2,0:0:0:0:
38,220,32927,2,0,L|38:257,3,35
48,296,33200,6,0,B|73:351|73:351|168:351,1,140,2|2,0:0|0:0,0:0:0:0:
272,233,33745,2,0,P|303:251|325:283,1,70,2|0,0:0|0:0,0:0:0:0:
365,350,34018,2,0,P|383:343|392:330,3,35
402,289,34291,6,0,P|399:249|381:221,1,70,2|0,0:0|0:0,0:0:0:0:
325,162,34564,2,0,P|314:124|330:71,1,70,0|2,0:0|0:0,0:0:0:0:
322,10,34836,2,0,P|364:24|386:45,1,70,0|2,0:0|0:0,0:0:0:0:
461,118,35109,2,2,L|374:120,1,70
306,118,35382,5,4,0:2:0:0:
237,345,36473,5,4,0:2:0:0:
85,273,36745,1,4,0:2:0:0:
85,105,37018,1,4,0:2:0:0:
237,25,37291,1,4,0:2:0:0:
381,111,37564,2,0,L|357:151,3,35
338,175,37836,6,0,L|202:245,1,140,4|4,0:2|0:2,0:0:0:0:
80,135,38382,1,0,0:0:0:0:
259,90,38655,6,0,P|256:59|234:21,1,70
261,183,38927,2,0,P|258:214|236:252,1,70
193,140,39200,1,0,0:0:0:0:
193,140,39336,1,0,0:0:0:0:
193,140,39473,2,0,L|122:164,1,70
46,187,39745,5,2,0:0:0:0:
152,317,40018,1,2,0:0:0:0:
235,304,40155,2,0,P|265:284|279:247,1,70,2|2,0:0|0:0,0:0:0:0:
290,86,40564,2,0,P|328:87|356:105,1,70,0|2,0:0|0:0,0:0:0:0:
444,246,40973,5,2,0:0:0:0:
284,295,41245,1,2,0:0:0:0:
284,295,41382,2,0,L|309:146,1,140,0|4,0:0|0:2,0:0:0:0:
417,29,41927,6,0,L|445:57,3,35
466,87,42200,2,0,P|438:148|360:174,1,140,4|4,0:2|0:2,0:0:0:0:
252,58,42745,1,0,0:0:0:0:
154,194,43018,6,0,L|84:240,1,70
154,194,43291,2,0,L|104:120,1,70
154,194,43564,2,0,L|228:144,1,70
154,194,43836,2,0,L|192:252,1,70
244,320,44109,5,4,0:0:0:0:
432,40,44655,1,4,0:0:0:0:
104,104,45200,6,0,L|24:148,1,70,4|0,0:2|0:0,0:0:0:0:
112,188,45473,2,0,L|24:236,1,70,4|0,0:2|0:0,0:0:0:0:
116,276,45745,2,0,L|48:312,1,70,4|0,0:2|0:0,0:0:0:0:
120,360,46018,1,0,0:0:0:0:
236,240,46291,6,0,L|260:200,3,35
272,172,46564,2,0,P|332:148|400:176,1,140,4|4,0:2|0:2,0:0:0:0:
456,332,47109,1,0,0:0:0:0:
289,287,47382,5,0,0:0:0:0:
289,287,47518,1,0,0:0:0:0:
289,287,47655,2,0,L|217:223,1,70
164,197,47927,2,0,P|152:249|170:287,1,70
183,343,48200,2,0,L|99:343,1,70
28,343,48473,5,2,0:0:0:0:
60,178,48745,1,2,0:0:0:0:
123,122,48882,2,0,P|158:111|206:127,1,70,2|0,0:0|0:0,0:0:0:0:
264,268,49291,2,0,L|341:241,1,70,0|2,0:0|0:0,0:0:0:0:
490,194,49700,5,2,0:0:0:0:
461,28,49973,1,2,0:0:0:0:
461,28,50109,2,0,P|385:41|367:100,1,140,0|4,0:0|0:2,0:0:0:0:
291,243,50655,6,0,L|259:272,3,35
237,297,50927,2,0,B|200:274|200:274|160:295|96:288,1,140,4|4,0:2|0:2,0:0:0:0:
21,161,51473,1,0,0:0:0:0:
160,67,51745,6,0,L|192:100,3,35
215,120,52018,2,0,B|269:126|309:105|309:105|346:128,1,140,4|0,0:2|0:0,0:0:0:0:
339,296,52564,2,0,P|366:320|406:331,1,70
407,247,52836,5,4,0:0:0:0:
254,46,53245,1,4,0:0:0:0:
123,152,53518,1,4,0:0:0:0:
231,280,53791,1,0,0:0:0:0:
231,280,53927,1,2,0:0:0:0:
231,280,54064,6,0,L|318:243,1,70,2|2,0:0|0:0,0:0:0:0:
379,257,54337,2,0,P|373:218|345:184,1,70,2|2,0:0|0:0,0:0:0:0:
273,175,54610,2,0,P|287:144|324:123,1,70,2|2,0:0|0:0,0:0:0:0:
110,313,55018,5,4,0:2:0:0:
128,73,59382,6,0,P|113:121|130:171,1,105.000004005432,2|2,0:0|0:0,0:0:0:0:
192,218,59791,2,0,P|210:177|193:120,1,105.000004005432,2|0,0:0|0:0,0:0:0:0:
128,73,60200,1,2,1:2:0:0:
383,73,60473,6,0,P|399:121|382:171,1,105.000004005432,2|0,0:0|0:0,0:0:0:0:
320,218,60882,2,0,P|302:177|319:120,1,105.000004005432,2|0,0:0|0:0,0:0:0:0:
382,74,61291,1,2,1:2:0:0:
256,20,61564,5,6,0:0:0:0:
183,244,61973,2,0,P|255:272|329:242,1,157.500006008148,2|2,0:0|0:0,0:0:0:0:
412,136,62655,6,0,L|320:136,1,78.7500030040742,2|0,0:0|0:0,0:0:0:0:
252,180,62927,2,0,L|336:180,1,78.7500030040742,2|0,0:0|0:0,0:0:0:0:
412,224,63200,2,0,L|332:224,1,78.7500030040742,2|0,0:0|0:0,0:0:0:0:
288,260,63473,1,4,0:2:0:0:
443,353,63745,5,6,0:0:0:0:
261,335,64018,2,2,P|228:313|212:281,1,70
198,203,64291,1,2,0:0:0:0:
239,43,64564,2,0,L|314:24,1,70,0|2,0:0|0:0,0:0:0:0:
390,29,64836,6,2,L|443:106,1,70,0|2,0:0|0:0,0:0:0:0:
428,171,65109,2,0,L|407:203,3,35
379,230,65382,2,0,L|287:221,1,70,0|2,0:0|0:0,0:0:0:0:
274,146,65655,2,0,L|216:194,1,70,0|2,0:0|0:0,0:0:0:0:
166,254,65927,6,0,P|146:283|141:317,1,70,0|2,0:0|0:0,0:0:0:0:
166,254,66200,2,0,P|130:251|98:263,1,70,0|2,0:0|0:0,0:0:0:0:
166,254,66473,2,0,P|150:222|123:200,1,70,0|2,0:0|0:0,0:0:0:0:
166,254,66745,2,0,P|186:225|191:191,1,70,0|2,0:0|0:0,0:0:0:0:
118,70,67018,5,2,0:0:0:0:
286,172,67291,1,2,0:0:0:0:
118,70,67564,6,0,P|103:104|101:148,1,70,4|0,0:2|0:0,0:0:0:0:
286,172,67836,2,0,P|303:140|302:97,1,70,4|0,0:2|0:0,0:0:0:0:
234,24,68109,5,6,0:0:0:0:
177,181,68382,2,2,P|170:216|175:250,1,70,0|2,0:0|0:0,0:0:0:0:
222,321,68655,1,2,0:0:0:0:
388,338,68927,1,2,0:0:0:0:
388,338,69064,1,2,0:0:0:0:
388,338,69200,6,2,L|414:271,1,70,0|2,0:0|0:0,0:0:0:0:
433,190,69473,2,0,L|419:155,3,35
396,122,69745,2,0,P|370:96|330:82,1,70,2|0,0:0|0:0,0:0:0:0:
286,149,70018,2,2,L|256:166,3,35,0|0|2|0,0:0|0:0|0:0|0:0,0:0:0:0:
214,178,70291,6,0,L|194:221,3,35
184,249,70564,2,0,L|113:288,1,70,0|0,0:0|0:0,0:0:0:0:
111,143,70836,6,0,L|124:109,3,35
148,75,71109,2,0,L|215:41,1,70
294,54,71382,6,0,P|270:100|205:123,1,105,4|0,0:2|0:0,0:0:0:0:
248,156,71655,2,0,P|288:128|358:141,1,105,4|0,0:2|0:0,0:0:0:0:
308,196,71927,2,0,L|226:268,1,105,4|0,0:2|0:0,0:0:0:0:
187,257,72200,1,2,0:0:0:0:
44,190,72473,6,2,L|82:130,1,70,0|2,0:0|0:0,0:0:0:0:
65,48,72745,2,0,P|102:48|136:66,1,70,2|2,0:0|0:0,0:0:0:0:
161,140,73018,1,2,0:0:0:0:
312,212,73291,2,0,L|394:212,1,70,2|0,0:0|0:0,0:0:0:0:
465,214,73564,6,2,P|456:247|436:276,1,70,0|2,0:0|0:0,0:0:0:0:
353,290,73836,2,0,L|311:290,3,35
276,297,74109,2,0,P|240:310|207:337,1,70,0|2,0:0|0:0,0:0:0:0:
200,245,74382,2,0,P|156:242|118:230,1,70,0|2,0:0|0:0,0:0:0:0:
74,172,74655,6,0,L|113:101,1,70,0|2,0:0|0:0,0:0:0:0:
125,28,74927,2,0,P|158:37|186:70,1,70,0|2,0:0|0:0,0:0:0:0:
198,144,75200,2,0,L|273:127,1,70,0|2,0:0|0:0,0:0:0:0:
269,44,75473,2,0,L|354:69,1,70,0|2,0:0|0:0,0:0:0:0:
403,113,75745,5,2,0:0:0:0:
380,279,76018,1,2,0:0:0:0:
216,321,76291,2,2,P|182:316|155:291,1,70,0|2,0:0|0:0,0:0:0:0:
109,222,76564,2,0,L|85:170,3,35
103,149,76836,6,0,B|144:118|144:118|185:137|185:137|237:110|303:135,1,210,4|4,0:2|0:2,0:0:0:0:
421,152,77655,6,0,B|426:198|369:231|369:231|393:337,1,210,4|4,0:2|0:2,0:0:0:0:
229,302,78336,1,4,0:0:0:0:
162,250,78473,6,0,L|151:203,3,35
148,174,78745,2,0,L|114:150,3,35
159,33,79155,6,0,B|109:13|63:38|63:38|20:19,2,140,4|4|4,0:2|0:2|0:2,0:0:0:0:
322,73,79973,1,2,0:0:0:0:
322,73,80109,6,6,B|352:104|400:92|400:92|360:164|392:212,1,210,0|4,0:0|0:2,0:2:0:0:
156,144,81200,5,4,0:2:0:0:
96,104,86655,5,4,0:2:0:0:
96,104,86927,2,0,B|144:80|144:80|188:104|188:104|232:80|292:104,1,210,0|4,0:0|0:2,0:0:0:0:
352,148,87882,2,0,L|408:204,1,70,4|4,0:2|0:2,0:0:0:0:
457,250,88155,1,0,0:0:0:0:
363,295,88291,5,4,0:2:0:0:
363,295,88427,2,0,L|307:239,1,70,4|4,0:2|0:2,0:0:0:0:
259,190,88700,1,0,0:0:0:0:
152,193,88836,6,0,B|121:210|121:210|98:240,1,70,4|0,0:2|0:0,0:0:0:0:
36,332,89143,6,2,L|-8:332,4,39.3750015020371,2|2|2|2|2,0:0|0:0|0:0|2:0|2:0,2:0:0:0:
112,344,89655,6,0,L|168:344,1,52.5,4|0,0:0|0:0,0:0:0:0:
268,356,89927,5,2,0:0:0:0:
448,314,90200,2,2,P|469:285|472:246,1,70,0|2,0:0|0:0,0:0:0:0:
450,170,90473,2,0,P|432:137|400:121,1,70,0|2,0:0|0:0,0:0:0:0:
323,142,90745,2,2,L|249:153,1,70,0|2,0:0|0:0,0:0:0:0:
170,165,91018,5,2,0:0:0:0:
370,229,91291,1,2,0:0:0:0:
170,164,91564,6,0,P|146:190|130:221,1,70,4|0,0:2|0:0,0:0:0:0:
370,229,91836,2,0,P|398:199|408:162,1,70,4|0,0:2|0:0,0:0:0:0:
400,87,92109,6,0,L|334:59,1,70
301,136,92382,2,0,P|271:116|252:72,1,70
190,31,92655,2,0,L|147:27,3,35
131,62,92927,2,0,L|99:86,3,35
74,114,93200,6,0,L|68:187,1,70
190,166,93473,2,0,L|126:219,1,70
216,293,93745,2,0,L|138:282,1,70
79,255,94018,1,4,0:2:0:0:
244,222,94291,5,2,0:0:0:0:
338,82,94564,2,2,P|365:104|382:137,1,70,0|2,0:0|0:0,0:0:0:0:
412,212,94836,2,0,P|377:218|337:206,1,70,0|2,0:0|0:0,0:0:0:0:
260,207,95109,2,0,P|264:178|292:147,1,70,0|2,0:0|0:0,0:0:0:0:
338,82,95382,5,2,0:0:0:0:
291,278,95655,1,2,0:0:0:0:
338,82,95927,6,0,P|374:83|408:100,1,70,4|0,0:2|0:0,0:0:0:0:
291,278,96200,2,0,P|255:277|221:260,1,70,4|0,0:2|0:0,0:0:0:0:
161,207,96473,5,0,0:0:0:0:
161,207,96609,1,0,0:0:0:0:
160,206,96745,2,0,B|141:165|141:165|149:118|108:80,1,140
61,151,97155,2,0,P|42:180|41:217,1,70
179,308,97564,6,0,P|206:329|245:334,1,70,4|0,0:2|0:0,0:0:0:0:
306,282,97836,2,0,P|278:260|239:255,1,70,4|0,0:2|0:0,0:0:0:0:
179,308,98109,2,0,L|99:308,1,70,4|0,0:2|0:0,0:0:0:0:
306,282,98382,2,0,L|390:282,1,70,4|0,0:2|0:0,0:0:0:0:
460,282,98655,5,2,0:0:0:0:
347,157,98927,2,2,L|271:157,1,70,0|2,0:0|0:0,0:0:0:0:
201,120,99200,2,0,L|256:67,1,70,0|2,0:0|0:0,0:0:0:0:
205,199,99473,2,0,L|259:243,1,70,0|2,0:0|0:0,0:0:0:0:
347,157,99745,5,2,0:0:0:0:
136,164,100018,1,2,0:0:0:0:
347,157,100291,6,0,L|416:157,1,70,4|0,0:2|0:0,0:0:0:0:
136,164,100564,2,0,L|62:164,1,70,4|0,0:2|0:0,0:0:0:0:
21,235,100836,6,0,L|32:270,3,35
56,302,101109,2,0,L|122:323,1,70,0|2,0:0|0:3,0:0:0:0:
158,246,101382,2,0,L|246:241,1,70
247,324,101655,2,0,L|280:334,2,35
349,255,101927,5,0,0:0:0:0:
444,209,102064,2,0,P|458:180|458:137,1,70
414,71,102336,2,0,L|375:54,5,35
339,53,102745,2,0,L|199:61,1,140,0|6,0:0|0:0,0:0:0:0:
39,115,103291,6,2,L|21:192,1,70,0|2,0:0|0:0,0:0:0:0:
5,265,103564,1,0,0:0:0:0:
5,265,103700,1,2,0:0:0:0:
5,266,103836,2,0,P|42:268|87:246,1,70,0|2,0:0|0:0,0:0:0:0:
109,181,104109,6,0,P|151:177|198:181,1,70,0|2,0:0|0:0,0:0:0:0:
251,220,104382,2,0,L|290:229,3,35
324,243,104655,2,0,P|345:264|359:316,1,70,0|2,0:0|0:0,0:0:0:0:
430,343,104927,2,4,L|451:323,7,17.5,4|4|4|4|4|4|4|0,0:2|0:2|0:2|0:2|0:2|0:2|0:2|0:2,0:2:0:0:
452,311,105200,6,0,P|445:255|412:203,1,105
411,254,105473,2,0,P|424:203|465:149,1,105,4|0,0:2|0:0,0:0:0:0:
487,135,105745,1,4,0:2:0:0:
351,35,106018,2,0,L|329:82,3,35,0|0|0|2,0:0|0:0|0:0|0:3,0:0:0:0:
312,102,106291,6,0,P|275:139|222:142,1,105,4|0,0:2|0:0,0:0:0:0:
238,103,106564,2,0,P|200:76|127:78,1,105,4|0,0:2|0:0,0:0:0:0:
115,104,106836,1,4,0:2:0:0:
67,230,107382,6,0,P|98:290|162:313,1,140
162,229,107791,2,0,P|220:248|247:319,1,140
162,313,108200,1,0,0:0:0:0:
70,172,108473,5,4,0:2:0:0:
214,87,108745,1,4,0:2:0:0:
304,228,109018,1,4,0:2:0:0:
162,313,109291,1,4,0:2:0:0:
242,165,109564,6,0,P|284:116|370:99,1,140
397,169,109973,1,0,0:0:0:0:
331,221,110109,2,0,L|246:252,1,70
320,309,110382,2,0,L|386:283,1,70
420,206,110655,5,4,0:2:0:0:
327,66,110927,1,4,0:2:0:0:
164,110,111200,1,4,0:2:0:0:
159,278,111473,1,4,0:2:0:0:
323,309,111745,6,0,L|361:293,3,35,6|0|0|0,0:0|0:0|0:0|0:0,0:0:0:0:
388,269,112018,2,0,L|386:225,3,35,6|0|0|0,0:0|0:0|0:0|0:0,0:0:0:0:
381,191,112291,2,0,B|353:153|295:158|295:158|266:125,1,140,2|6,0:0|0:0,0:0:0:0:
141,12,112836,5,2,0:0:0:0:
141,12,112973,1,0,0:0:0:0:
141,12,113109,2,0,L|119:84,1,70,2|0,0:0|0:0,0:0:0:0:
61,139,113382,2,0,L|7:190,1,70,2|2,0:0|0:0,0:0:0:0:
148,156,113655,2,0,L|198:204,1,70,2|2,0:0|0:0,0:0:0:0:
260,260,113927,6,0,P|297:256|328:230,1,70,2|2,0:0|0:0,0:0:0:0:
261,177,114200,2,0,P|227:183|199:204,1,70,2|2,0:0|0:0,0:0:0:0:
174,284,114473,2,0,L|155:358,2,70,2|2|2,0:0|0:0|0:0,0:0:0:0:
195,117,115018,5,2,0:0:0:0:
195,117,115291,2,0,L|82:31,1,140,2|2,0:0|0:0,0:0:0:0:
174,284,115836,5,4,0:2:0:0:
