osu file format v14

[General]
AudioFilename: Crack Traxxxx.mp3
AudioLeadIn: 0
PreviewTime: 63745
Countdown: 0
SampleSet: Soft
StackLeniency: 0.2
Mode: 0
LetterboxInBreaks: 0
EpilepsyWarning: 1
WidescreenStoryboard: 0

[Editor]
Bookmarks: 7018,117200
DistanceSpacing: 1.2
BeatDivisor: 8
GridSize: 4
TimelineZoom: 2.1

[Metadata]
Title:Crack Traxxxx
TitleUnicode:Crack Traxxxx
Artist:Lite Show Magic (t+pazolite vs C-Show)
ArtistUnicode:Lite Show Magic (t+pazolite vs C-Show)
Creator:Fatfan Kolek
Version:Gero's Another
Source:SOUND VOLTEX II -infinite infection-
Tags:t+pazolite c-show TKSalt TKS Dariano Fanzhen0019 Oracle Natsu P_A_N Aka EvilElvis Gero Onosakihito DJNightmare Fast Spectator sukiNathan Okoratu
BeatmapID:404429
BeatmapSetID:139525

[Difficulty]
HPDrainRate:7.5
CircleSize:4
OverallDifficulty:8
ApproachRate:9.2
SliderMultiplier:1.6
SliderTickRate:2

[Events]
//Background and Video events
0,0,"bg.jpg",0,0
//Break Periods
//Storyboard Layer 0 (Background)
//Storyboard Layer 1 (Fail)
//Storyboard Layer 2 (Pass)
//Storyboard Layer 3 (Foreground)
Sprite,Foreground,Centre,"SB/glowmap.png",320,240 P,0,0,119170,A F,0,2382,,0 M,0,2655,,320,240 S,0,2655,,0.7963637 F,0,2655,4836,1,0 F,0,7018,7291,1,0 F,0,7427,9200,1,0 F,0,12473,12609,1,0 F,0,12745,12882,1,0 F,0,13018,13155,1,0 F,0,13291,13427,1,0 F,0,14655,14791,1,0 F,0,14927,15064,1,0 F,0,15200,15336,1,0 F,0,15473,15609,1,0 F,0,15745,,0.08145462 F,0,15882,,0.4319658 F,0,16018,,0.6533606 F,0,16155,,0.9287182 F,0,16291,16836,1,0 F,0,16905,,0.5032727 F,0,16973,,0.1803636 F,0,17041,,0.5789091 F,0,17109,,0.2065455 F,0,17177,,0.7301819 F,0,17245,,0.1396364 F,0,17314,,0.7883637 F,0,17382,17927,1,0 F,0,19836,20041,1,0 F,0,20109,22291,1,0 F,0,24200,24473,1,0 F,0,30745,,1 F,0,30814,,0 F,0,30882,,1 F,0,30950,,0 F,0,32927,,1 F,0,32995,,0 F,0,33064,,1 F,0,33132,,0 F,0,34018,,1 F,0,34086,,0 F,0,34155,,1 F,0,34223,,0 F,2,35109,35382,0.2589091,1 F,0,35382,36405,1,0 F,0,36473,36677,1,0 F,0,36745,36950,1,0 F,0,37018,37223,1,0 F,0,37291,37495,1,0 F,0,55018,57200,1,0 F,0,62689,,1 F,0,62723,,0 F,0,62791,,1 F,0,62825,,0 F,0,62893,,1 F,0,62927,,0 F,0,62995,,1 F,0,63030,,0 F,0,63098,,1 F,0,63132,,0 F,0,63200,,1 F,0,63234,,0 F,0,63302,,1 F,0,63336,,0 F,0,63405,,1 F,0,63439,,0 F,0,63473,63745,1,0 F,0,67564,67791,1,0 F,0,67836,68064,1,0 F,0,71382,71620,1,0 F,0,71655,71893,1,0 F,0,71927,72166,1,0 F,0,72200,72439,1,0 F,0,76291,,0.3309091 F,0,76359,,0 F,0,76427,,0.674909 F,0,76495,,0 F,0,76564,,1 F,0,76598,,0 F,0,76632,,1 F,0,76666,,0 F,0,76700,,1 F,0,76734,,0 F,0,76768,,1 F,0,76802,,0 F,0,80927,81064,1,0 F,0,81200,82291,1,0 F,0,87745,87814,0.1716364,0 F,0,87882,87950,0.3316363,0 F,0,88018,88223,1,0 F,0,88291,88359,0.1396364,0 F,0,88427,88495,0.3141819,0 F,0,88564,88768,1,0 F,0,88836,89586,1,0 F,0,89655,89927,1,0 F,0,107382,107655,0.5789091,0 F,0,107791,108064,1,0 F,0,108200,108405,0.994909,0 F,0,108473,108950,1,0 F,0,109018,109495,1,0 F,0,109564,109905,1,0 F,0,109973,110245,1,0 F,0,110382,110586,0.9163637,0 F,0,110655,111132,1,0 F,0,111200,111677,1,0 F,0,115836,116109,1,0
Sprite,Foreground,Centre,"SB/glowmap.png",320,240 P,0,0,119170,A F,0,63677,,0 S,0,63745,,0.7963637 F,0,63745,63984,1,0 F,0,64018,64257,1,0 F,0,64291,64530,1,0 F,0,64564,64803,1,0 F,0,64836,65075,1,0 F,0,65109,65348,1,0 F,0,65382,65621,1,0 F,0,65655,65894,1,0 F,0,65927,66166,1,0 F,0,66200,66439,1,0 F,0,66473,66712,1,0 F,0,66745,66984,1,0 F,0,67018,67257,1,0 F,0,67291,67530,1,0 F,0,68109,68348,1,0 F,0,68382,68621,1,0 F,0,68655,68894,1,0 F,0,68927,69166,1,0 F,0,69200,69439,1,0 F,0,69473,69712,1,0 F,0,69745,69984,1,0 F,0,70018,70257,1,0 F,0,70291,70530,1,0 F,0,70564,70803,1,0 F,0,70836,71075,1,0 F,0,71109,71348,1,0 F,0,72473,72712,1,0 F,0,72745,72984,1,0 F,0,73018,73257,1,0 F,0,73291,73530,1,0 F,0,73564,73803,1,0 F,0,73836,74075,1,0 F,0,74109,74348,1,0 F,0,74382,74621,1,0 F,0,74655,74894,1,0 F,0,74927,75166,1,0 F,0,75200,75439,1,0 F,0,75473,75712,1,0 F,0,75745,75984,1,0 F,0,76018,76257,1,0 F,0,76836,77075,1,0 F,0,77245,77484,1,0 F,0,77655,77894,1,0 F,0,78064,78303,1,0 F,0,78336,78575,1,0
Sprite,Foreground,Centre,"SB/glowmap.png",320,240 P,0,0,119170,A S,0,63745,,0.7963637 F,0,78405,,0 F,0,78473,78712,1,0 F,0,79155,79394,1,0 F,0,79427,79666,1,0 F,0,79700,79939,1,0 F,0,79973,80212,1,0
Sprite,Foreground,Centre,"SB/glowmap.png",320,240 P,0,0,119170,A S,0,63745,,0.7963637 F,0,80041,,0 F,0,80109,80348,1,0 F,0,100836,101382,0.541091,0
//Storyboard Sound Samples

[TimingPoints]
2655,272.727272727273,4,2,0,80,1,0
12473,-76.9230769230769,4,2,0,80,0,0
12677,-76.9230769230769,4,2,0,5,0,0
12745,-76.9230769230769,4,2,0,80,0,0
12950,-76.9230769230769,4,2,0,5,0,0
13018,-76.9230769230769,4,2,0,80,0,0
13564,-100,4,2,0,80,0,0
14655,-76.9230769230769,4,2,0,80,0,0
14859,-76.9230769230769,4,2,0,5,0,0
14927,-76.9230769230769,4,2,0,80,0,0
15132,-76.9230769230769,4,2,0,5,0,0
15200,-76.9230769230769,4,2,0,80,0,0
15405,-76.9230769230769,4,2,0,5,0,0
15473,-76.9230769230769,4,2,0,80,0,0
15745,-100,4,2,0,80,0,0
19564,-76.9230769230769,4,2,0,80,0,0
19836,-66.6666666666667,4,2,0,80,0,0
20109,-100,4,1,0,80,0,0
24132,-100,4,2,0,5,0,0
24200,-76.9230769230769,4,1,0,80,0,0
24473,-100,4,1,0,80,0,0
27745,-76.9230769230769,4,1,0,80,0,0
27950,-76.9230769230769,4,2,0,5,0,0
28018,-76.9230769230769,4,1,0,80,0,0
28223,-76.9230769230769,4,2,0,5,0,0
28291,-76.9230769230769,4,1,0,80,0,0
28495,-76.9230769230769,4,2,0,5,0,0
28564,-76.9230769230769,4,1,0,80,0,0
28836,-100,4,1,0,80,0,0
35109,-200,4,1,0,80,0,0
35382,-100,4,2,0,80,0,0
35927,-200,4,2,0,80,0,0
36336,-200,4,2,0,5,0,0
36473,-76.9230769230769,4,1,0,80,0,0
36677,-76.9230769230769,4,2,0,5,0,0
36745,-76.9230769230769,4,1,0,80,0,0
36950,-76.9230769230769,4,2,0,5,0,0
37018,-76.9230769230769,4,1,0,80,0,0
37223,-76.9230769230769,4,2,0,5,0,0
37291,-76.9230769230769,4,1,0,80,0,0
37564,-100,4,1,0,80,0,0
45200,-76.9230769230769,4,1,0,80,0,0
45405,-76.9230769230769,4,2,0,5,0,0
45473,-76.9230769230769,4,1,0,80,0,0
45677,-76.9230769230769,4,2,0,5,0,0
45745,-76.9230769230769,4,1,0,80,0,0
45950,-76.9230769230769,4,2,0,5,0,0
46018,-76.9230769230769,4,1,0,80,0,0
46291,-100,4,1,0,80,0,0
55018,-200,4,2,0,60,0,0
55564,-181.818181818182,4,2,0,55,0,0
56109,-166.666666666667,4,2,0,50,0,0
56655,-153.846153846154,4,2,0,45,0,0
57200,-142.857142857143,4,2,0,40,0,0
57745,-133.333333333333,4,2,0,35,0,0
58291,-125,4,2,0,30,0,0
58564,-121.951219512195,4,2,0,25,0,0
58836,-117.647058823529,4,2,0,20,0,0
59109,-114.942528735632,4,2,0,15,0,0
59382,-111.111111111111,4,2,0,60,0,0
62655,-149.253731343284,4,2,0,60,0,0
63473,-66.6666666666667,4,2,0,65,0,0
63745,-83.3333333333333,4,1,0,90,0,1
67564,-71.4285714285714,4,1,0,90,0,1
67768,-71.4285714285714,4,2,0,5,0,1
67836,-71.4285714285714,4,1,0,90,0,1
68041,-71.4285714285714,4,2,0,5,0,1
68109,-83.3333333333333,4,1,0,90,0,1
71382,-71.4285714285714,4,1,0,90,0,1
71586,-71.4285714285714,4,2,0,5,0,1
71655,-71.4285714285714,4,1,0,90,0,1
71859,-71.4285714285714,4,2,0,5,0,1
71927,-71.4285714285714,4,1,0,90,0,1
72132,-71.4285714285714,4,2,0,5,0,1
72200,-71.4285714285714,4,1,0,90,0,1
72473,-83.3333333333333,4,1,0,90,0,1
79973,-90.9090909090909,4,1,0,90,0,0
80143,-90.9090909090909,4,2,0,60,0,0
80348,-90.9090909090909,4,1,0,80,0,0
80416,-90.9090909090909,4,2,0,60,0,0
80484,-90.9090909090909,4,1,0,80,0,0
80552,-90.9090909090909,4,2,0,60,0,0
80757,-90.9090909090909,4,1,0,80,0,0
80825,-90.9090909090909,4,2,0,60,0,0
80893,-90.9090909090909,4,1,0,80,0,0
81200,-200,4,2,0,60,0,0
81745,-181.818181818182,4,2,0,55,0,0
82291,-166.666666666667,4,2,0,50,0,0
82836,-153.846153846154,4,2,0,45,0,0
83382,-142.857142857143,4,2,0,40,0,0
83927,-133.333333333333,4,2,0,35,0,0
84473,-125,4,2,0,30,0,0
84745,-121.951219512195,4,2,0,25,0,0
85018,-117.647058823529,4,2,0,20,0,0
85291,-114.942528735632,4,2,0,15,0,0
85564,-111.111111111111,4,2,0,60,0,0
86109,-111.111111111111,4,2,0,65,0,0
86655,-200,4,2,0,90,0,0
87745,-71.4285714285714,4,2,0,90,0,0
89109,-100,4,2,0,90,0,0
89655,-71.4285714285714,4,1,0,90,0,0
89859,-71.4285714285714,4,2,0,5,0,0
89927,-100,4,1,0,80,0,0
91564,-76.9230769230769,4,1,0,80,0,0
91768,-76.9230769230769,4,2,0,5,0,0
91836,-76.9230769230769,4,1,0,80,0,0
92041,-76.9230769230769,4,2,0,5,0,0
92109,-100,4,1,0,80,0,0
94018,-76.9230769230769,4,1,0,80,0,0
94223,-76.9230769230769,4,2,0,5,0,0
94291,-100,4,1,0,80,0,0
95927,-76.9230769230769,4,1,0,80,0,0
96132,-76.9230769230769,4,2,0,5,0,0
96200,-76.9230769230769,4,1,0,80,0,0
96405,-76.9230769230769,4,2,0,5,0,0
96473,-100,4,1,0,80,0,0
97291,-133.333333333333,4,1,0,80,0,0
97495,-133.333333333333,4,2,0,5,0,0
97564,-76.9230769230769,4,1,0,80,0,0
97768,-76.9230769230769,4,2,0,5,0,0
97836,-76.9230769230769,4,1,0,80,0,0
98041,-76.9230769230769,4,2,0,5,0,0
98109,-76.9230769230769,4,1,0,80,0,0
98314,-76.9230769230769,4,2,0,5,0,0
98382,-76.9230769230769,4,1,0,80,0,0
98655,-100,4,1,0,80,0,0
100291,-76.9230769230769,4,1,0,80,0,0
100495,-76.9230769230769,4,2,0,5,0,0
100564,-76.9230769230769,4,1,0,80,0,0
100768,-76.9230769230769,4,2,0,5,0,0
100836,-100,4,1,0,80,0,0
105473,-76.9230769230769,4,1,0,80,0,0
105677,-76.9230769230769,4,2,0,5,0,0
105745,-76.9230769230769,4,1,0,80,0,0
105950,-76.9230769230769,4,2,0,5,0,0
106018,-100,4,1,0,80,0,0
106291,-76.9230769230769,4,1,0,80,0,0
106495,-76.9230769230769,4,2,0,5,0,0
106564,-76.9230769230769,4,1,0,80,0,0
106768,-76.9230769230769,4,2,0,5,0,0
106836,-76.9230769230769,4,1,0,80,0,0
107041,-76.9230769230769,4,2,0,5,0,0
107109,-76.9230769230769,4,1,0,80,0,0
107314,-76.9230769230769,4,2,0,5,0,0
107382,-100,4,2,0,80,0,0
108473,-76.9230769230769,4,2,0,80,0,0
108677,-76.9230769230769,4,2,0,5,0,0
108745,-76.9230769230769,4,2,0,80,0,0
108950,-76.9230769230769,4,2,0,5,0,0
109018,-76.9230769230769,4,2,0,80,0,0
109291,-100,4,2,0,80,0,0
110655,-76.9230769230769,4,2,0,80,0,0
110859,-76.9230769230769,4,2,0,5,0,0
110927,-76.9230769230769,4,2,0,80,0,0
111132,-76.9230769230769,4,2,0,5,0,0
111200,-76.9230769230769,4,2,0,80,0,0
111405,-76.9230769230769,4,2,0,5,0,0
111473,-100,4,2,0,80,0,0
113382,-166.666666666667,4,2,0,80,0,0
113927,-100,4,2,0,80,0,0
115905,-100,4,2,0,50,0,0
116109,-100,4,2,0,40,0,0
116382,-100,4,2,0,30,0,0
116655,-100,4,2,0,20,0,0
116927,-100,4,2,0,10,0,0
117200,-100,4,2,0,5,0,0

[Colours]
Combo1 : 128,0,255
Combo2 : 255,0,0
Combo3 : 0,255,255
Combo4 : 255,128,64

[HitObjects]
444,100,7018,6,0,B|420:52|364:52|364:52|296:52,1,160,4|0,1:2|0:0,0:0:0:0:
68,100,7427,2,0,B|92:52|148:52|148:52|216:52,1,160,4|0,1:2|0:0,0:0:0:0:
209,156,7836,1,2,0:0:0:0:
185,156,7905,1,2,0:0:0:0:
162,156,7973,1,2,0:0:0:0:
303,156,8109,1,2,0:0:0:0:
327,156,8177,1,0,0:0:0:0:
350,156,8245,1,0,0:0:0:0:
416,236,8382,6,0,B|424:276|424:276|416:316,1,80,2|0,0:0|0:0,0:0:0:0:
350,156,8655,2,0,B|342:116|342:116|350:76,1,80,2|0,0:0|0:0,0:0:0:0:
256,32,8927,1,2,0:0:0:0:
162,77,9064,1,0,0:0:0:0:
162,77,9200,2,0,B|170:116|170:116|162:156,1,80,2|0,0:0|0:0,0:0:0:0:
95,314,9473,2,0,B|88:276|88:276|96:236,1,80,2|0,0:0|0:0,0:0:0:0:
192,276,9745,2,0,P|231:265|256:236,1,80,2|0,0:0|0:0,0:0:0:0:
320,276,10018,2,0,P|281:265|256:236,1,80,2|0,0:0|0:0,0:0:0:0:
174,141,10291,6,0,L|128:141,1,40,2|0,0:0|0:0,0:0:0:0:
194,102,10427,2,0,L|158:74,1,40
228,72,10564,2,0,L|212:28,1,40,2|0,0:0|0:0,0:0:0:0:
284,72,10700,2,0,L|300:28,1,40,0|0,0:0|0:0,0:0:0:0:
318,101,10836,2,0,L|349:76,1,40,2|0,0:0|0:0,0:0:0:0:
338,141,10973,2,0,L|378:141,1,40
324,192,11109,5,6,0:0:0:0:
95,314,11382,6,0,P|54:314|18:291,1,80,4|0,1:2|0:0,0:0:0:0:
76,216,11655,1,0,0:0:0:0:
76,216,11791,2,0,L|212:328,1,160,4|0,1:2|0:0,0:0:0:0:
280,372,12200,1,4,1:2:0:0:
360,319,12336,1,0,0:0:0:0:
492,252,12473,6,0,B|492:196|492:196|484:184|484:184|500:184|500:184|492:172|492:172|492:116,1,155.999992858887,6|0,0:0|0:0,0:0:0:0:
400,16,12745,2,0,B|400:72|400:72|392:84|392:84|408:84|408:84|400:96|400:96|400:152,1,155.999992858887,6|0,0:0|0:0,0:0:0:0:
304,92,13018,2,0,L|304:66,8,25.9999988098145,6|0|0|0|0|0|0|0|6,0:0|0:0|0:0|0:0|0:0|0:0|0:0|0:0|0:0,0:0:0:0:
352,352,13564,6,0,B|360:313|360:313|352:274,1,80,4|0,1:2|0:0,0:0:0:0:
160,274,13836,2,0,B|152:313|152:313|160:352,2,80,0|4|0,0:0|1:2|0:0,0:0:0:0:
256,240,14245,1,0,0:0:0:0:
256,240,14382,2,0,L|256:324,1,80,4|0,1:2|0:0,0:0:0:0:
256,144,14655,6,0,B|248:108|264:80|264:80|248:96|248:96|264:68|256:31,1,155.999992858887,6|0,0:0|0:0,0:0:0:0:
340,16,14927,2,0,P|365:88|340:160,1,155.999992858887,6|0,0:0|0:0,0:0:0:0:
172,160,15200,2,0,P|147:88|172:16,1,155.999992858887,6|0,0:0|0:0,0:0:0:0:
256,31,15473,1,6,0:0:0:0:
484,192,15745,6,0,L|484:112,1,80,2|0,0:0|0:0,0:0:0:0:
408,236,16018,2,0,L|408:316,1,80,2|0,0:0|0:0,0:0:0:0:
328,368,16291,2,0,P|274:368|228:321,1,120,2|0,1:2|0:0,0:0:0:0:
241,248,16564,2,0,P|277:263|300:296,1,80,2|0,0:0|0:0,0:0:0:0:
28,364,16836,6,0,L|28:320,1,40,2|0,0:0|0:0,0:0:0:0:
96,292,16973,2,0,L|96:252,1,40,0|0,0:0|0:0,0:0:0:0:
28,216,17109,2,0,L|28:172,1,40,2|0,0:0|0:0,0:0:0:0:
96,144,17245,2,0,L|96:104,1,40,0|0,0:0|0:0,0:0:0:0:
164,60,17382,6,0,P|96:95|29:60,2,160,2|2|6,1:2|0:0|1:2,0:0:0:0:
204,148,18064,1,0,0:0:0:0:
256,228,18200,1,0,0:0:0:0:
308,148,18336,1,4,1:2:0:0:
148,228,18473,1,0,0:0:0:0:
364,228,18609,1,0,0:0:0:0:
256,64,18745,1,4,1:2:0:0:
204,308,18882,1,0,0:0:0:0:
408,148,19018,5,2,0:0:0:0:
164,60,19291,1,2,0:0:0:0:
204,308,19564,2,0,L|192:332,4,25.9999988098145,2|0|0|0|2,0:0|0:0|0:0|0:0|0:3,0:0:0:0:
256,228,19836,1,2,0:3:0:0:
308,308,19973,1,2,0:3:0:0:
364,228,20109,6,0,P|392:255|403:293,1,80,4|2,0:0|0:3,0:0:0:0:
107,294,20382,2,0,P|118:256|147:228,1,80,0|2,0:0|0:3,0:0:0:0:
256,228,20655,2,0,B|256:196|256:196|252:192|252:192|260:192|260:192|256:188|256:188|256:160,1,80,0|2,0:0|0:3,0:0:0:0:
328,20,20927,2,0,B|328:52|328:52|324:56|324:56|332:56|332:56|328:60|328:60|328:88,1,80,0|2,0:0|0:3,0:0:0:0:
408,148,21200,5,0,0:0:0:0:
468,224,21336,1,2,0:3:0:0:
403,293,21473,2,0,L|432:372,1,80,0|2,0:0|0:3,0:0:0:0:
496,299,21745,2,0,L|467:220,1,80,0|2,0:0|0:3,0:0:0:0:
408,148,22018,2,0,B|352:148|352:148|312:172|312:172|248:172,1,160
172,220,22427,5,2,0:3:0:0:
108,292,22564,2,0,P|98:330|108:368,1,80,0|2,0:0|0:3,0:0:0:0:
255,172,22836,2,0,P|265:134|255:96,2,80,0|2|0,0:0|0:3|0:0,0:0:0:0:
172,134,23245,1,2,0:3:0:0:
80,100,23382,2,0,L|1:84,1,80,0|2,0:0|0:3,0:0:0:0:
94,204,23655,2,0,L|173:220,1,80,0|2,0:0|0:3,0:0:0:0:
372,344,23927,6,0,P|424:344|472:296,1,120,2|0,0:0|0:0,0:0:0:0:
512,224,24200,2,0,B|464:200|424:228|424:228|424:204|424:204|380:240|341:225,1,207.999990478516,6|4,0:0|0:0,0:0:0:0:
255,172,24609,5,2,0:3:0:0:
172,134,24745,2,0,L|200:54,1,80,0|2,0:0|0:3,0:0:0:0:
180,248,25018,2,0,L|153:323,1,80,0|2,0:0|0:3,0:0:0:0:
282,247,25291,2,0,L|255:171,1,80,0|2,0:0|0:3,0:0:0:0:
67,128,25564,2,0,L|95:208,1,80,0|2,0:0|0:3,0:0:0:0:
256,360,25836,5,0,0:0:0:0:
352,372,25973,1,2,0:3:0:0:
436,324,26109,1,0,0:0:0:0:
484,240,26245,1,2,0:3:0:0:
484,143,26382,1,0,0:0:0:0:
436,60,26518,1,2,0:3:0:0:
352,12,26655,5,4,0:3:0:0:
352,12,26723,1,4,0:3:0:0:
352,12,26791,1,6,0:3:0:0:
352,12,26859,1,4,0:3:0:0:
352,12,26927,2,0,B|312:12|312:12|280:44,1,80,4|6,0:3|0:3,0:0:0:0:
356,184,27200,2,0,L|356:104,1,80,4|2,0:3|0:3,0:0:0:0:
264,152,27473,2,0,L|264:232,1,80,4|2,0:3|0:3,0:0:0:0:
28,328,27745,6,2,P|-4:259|28:191,1,155.999992858887,2|2,0:0|0:1,0:0:0:0:
108,124,28018,2,2,P|141:192|109:260,1,155.999992858887,2|2,0:0|0:1,0:0:0:0:
28,191,28291,2,2,P|-5:123|28:55,1,155.999992858887,2|2,0:0|0:1,0:0:0:0:
108,124,28564,2,0,B|144:88|144:88|204:88,1,103.999995239258,4|4,0:3|0:3,0:0:0:0:
497,293,28836,6,0,P|504:332|497:371,1,80,4|2,0:0|0:0,0:0:0:0:
356,184,29109,2,0,P|349:145|356:106,1,80,0|2,0:0|0:0,0:0:0:0:
452,212,29382,2,0,L|392:272,1,80,0|2,0:0|0:0,0:0:0:0:
256,76,29655,2,0,L|316:16,1,80,0|2,0:0|0:0,0:0:0:0:
272,224,29927,6,0,L|212:284,1,80,0|2,0:0|0:0,0:0:0:0:
124,308,30200,1,0,0:0:0:0:
56,240,30336,1,2,0:0:0:0:
56,144,30473,1,2,0:0:0:0:
124,76,30609,1,0,0:0:0:0:
424,112,30745,5,4,0:3:0:0:
460,144,30814,1,4,0:3:0:0:
468,192,30882,1,4,0:3:0:0:
460,240,30950,1,4,0:3:0:0:
424,272,31018,1,4,0:3:0:0:
332,300,31155,5,2,0:0:0:0:
272,224,31291,2,0,B|308:204|308:204|348:204,1,80,0|2,0:0|0:0,0:0:0:0:
332,300,31564,2,0,L|262:338,1,80,0|2,0:0|0:0,0:0:0:0:
206,154,31836,2,0,L|276:116,1,80,0|2,0:0|0:0,0:0:0:0:
352,176,32109,5,0,0:0:0:0:
272,224,32245,1,2,0:0:0:0:
192,280,32382,2,0,B|152:280|152:280|116:304,1,80,0|2,0:0|0:0,0:0:0:0:
180,376,32655,2,0,L|260:376,1,80,2|0,0:0|0:0,0:0:0:0:
72,192,32927,5,4,0:3:0:0:
36,160,32995,1,4,0:3:0:0:
28,112,33064,1,4,0:3:0:0:
36,64,33132,1,4,0:3:0:0:
72,32,33200,1,4,0:3:0:0:
124,112,33336,1,2,0:0:0:0:
192,280,33473,6,0,B|152:280|152:280|116:304,1,80,0|2,0:0|0:0,0:0:0:0:
320,280,33745,2,0,B|360:280|360:280|396:304,1,80,0|2,0:0|0:0,0:0:0:0:
440,192,34018,5,4,0:3:0:0:
476,160,34086,1,4,0:3:0:0:
484,112,34155,1,4,0:3:0:0:
476,64,34223,1,4,0:3:0:0:
440,32,34291,1,4,0:3:0:0:
388,112,34427,1,2,0:0:0:0:
340,192,34564,6,0,L|264:148,1,80,0|2,0:0|0:0,0:0:0:0:
319,72,34836,2,0,L|389:113,1,80,2|0,0:0|0:0,0:0:0:0:
488,276,35109,6,2,B|474:286|474:286|470:298|470:298|460:305|460:305|455:316|455:316|445:323|445:323|438:339|438:339|438:339,1,80,2|6,0:0|3:2,0:0:0:0:
352,376,35518,1,0,0:0:0:0:
256,360,35655,1,0,0:0:0:0:
256,360,35723,1,0,0:0:0:0:
256,360,35791,1,0,0:0:0:0:
172,304,35927,2,0,P|154:249|172:192,1,120,2|0,0:0|0:0,0:0:0:0:
232,24,36473,6,2,L|388:24,1,155.999992858887,2|2,0:0|0:1,0:0:0:0:
436,120,36745,2,2,L|280:120,1,155.999992858887,2|2,0:0|0:1,0:0:0:0:
324,216,37018,2,2,L|484:216,1,155.999992858887,2|2,0:0|0:1,0:0:0:0:
512,304,37291,1,2,0:0:0:0:
512,304,37359,1,0,0:0:0:0:
512,304,37427,1,0,0:0:0:0:
252,296,37564,5,4,0:3:0:0:
216,264,37632,1,4,0:3:0:0:
208,216,37700,1,4,0:3:0:0:
216,168,37768,1,4,0:3:0:0:
252,136,37836,1,4,0:3:0:0:
324,216,37973,1,4,0:3:0:0:
128,288,38109,6,0,P|104:212|128:136,1,160,4|2,0:0|0:2,0:0:0:0:
188,64,38518,1,2,0:2:0:0:
272,20,38655,2,0,P|311:12|349:20,1,80
512,124,38927,2,0,P|472:131|434:123,1,80,0|2,0:0|0:2,0:0:0:0:
448,20,39200,6,0,L|329:127,1,160,2|2,0:2|0:0,0:0:0:0:
256,192,39609,1,2,0:2:0:0:
183,257,39745,2,0,B|197:294|197:294|183:331,1,80,2|0,0:0|0:0,0:0:0:0:
32,228,40018,2,0,B|18:191|18:191|32:154,1,80,2|2,0:0|0:0,0:0:0:0:
188,64,40291,6,0,B|260:64|260:64|276:72|276:72|348:72,1,160,4|0,0:0|0:0,0:0:0:0:
482,320,40700,2,0,B|410:320|410:320|394:312|394:312|324:312,2,160,2|2|2,0:0|0:0|0:0,0:0:0:0:
256,248,41382,6,0,P|220:315|256:383,1,160,4|4,0:0|0:2,0:0:0:0:
324,312,41791,1,0,0:0:0:0:
256,248,41927,5,4,0:3:0:0:
222,214,41995,1,4,0:3:0:0:
187,179,42064,1,4,0:3:0:0:
153,145,42132,1,4,0:3:0:0:
119,111,42200,2,0,L|39:111,1,80,4|4,0:3|0:3,0:0:0:0:
187,43,42473,6,0,P|223:111|188:179,1,160,4|2,0:0|0:2,0:0:0:0:
119,111,42882,1,2,0:2:0:0:
304,72,43018,6,0,P|314:110|305:148,1,80,0|2,0:0|0:2,0:0:0:0:
392,288,43291,2,0,P|382:250|391:212,1,80,2|4,0:2|0:3,0:0:0:0:
460,343,43564,6,0,P|392:379|324:344,1,160,4|2,0:0|0:2,0:0:0:0:
256,280,43973,1,2,0:2:0:0:
187,344,44109,2,0,P|119:380|51:344,1,160,2|2,0:2|0:2,0:0:0:0:
120,287,44518,1,2,0:2:0:0:
184,216,44655,2,0,B|228:216|228:216|256:238|256:238|284:216|284:216|328:216,1,160,2|2,0:2|0:2,0:0:0:0:
392,287,45064,1,0,0:0:0:0:
329,216,45200,6,2,B|360:164|360:164|348:144|348:144|386:82,1,155.999992858887,2|2,0:0|0:1,0:0:0:0:
256,8,45473,2,2,L|256:164,1,155.999992858887,2|2,0:0|0:1,0:0:0:0:
183,216,45745,2,2,B|152:164|152:164|164:144|164:144|126:82,1,155.999992858887,2|2,0:0|0:1,0:0:0:0:
32,64,46018,1,2,0:0:0:0:
176,340,46291,5,4,0:3:0:0:
208,376,46359,1,4,0:3:0:0:
256,384,46427,1,4,0:3:0:0:
304,376,46495,1,4,0:3:0:0:
336,340,46564,1,4,0:3:0:0:
256,268,46700,1,4,0:3:0:0:
72,184,46836,6,0,B|121:172|133:137|133:137|169:144|202:105,1,160,4|2,0:0|0:2,0:0:0:0:
256,188,47245,1,2,0:2:0:0:
309,105,47382,2,0,B|342:144|378:137|378:137|390:172|440:184,1,160,2|2,0:2|0:2,0:0:0:0:
504,252,47791,1,2,0:2:0:0:
439,184,47927,6,0,L|491:120,1,80,2|0,0:2|0:0,0:0:0:0:
360,43,48200,2,0,L|309:105,1,80,2|2,0:2|0:0,0:0:0:0:
202,105,48473,2,0,L|152:44,1,80,2|2,0:0|0:2,0:0:0:0:
21,122,48745,2,0,L|72:184,1,80,2|2,0:0|0:0,0:0:0:0:
220,336,49018,6,0,P|300:328|303:249,1,160,4|0,0:0|0:0,0:0:0:0:
201,260,49427,2,0,P|217:333|292:336,1,160,2|2,0:0|0:0,0:0:0:0:
376,192,49836,1,0,0:0:0:0:
310,105,49973,1,2,0:0:0:0:
202,105,50109,5,4,0:3:0:0:
202,105,50177,1,4,0:3:0:0:
202,105,50245,1,4,0:3:0:0:
136,192,50382,1,4,0:2:0:0:
201,260,50518,1,2,0:2:0:0:
311,260,50655,5,4,0:3:0:0:
311,260,50723,1,4,0:3:0:0:
311,260,50791,1,4,0:3:0:0:
311,260,50859,1,4,0:3:0:0:
311,260,50927,1,4,0:2:0:0:
376,192,51064,1,2,0:2:0:0:
503,77,51200,6,0,B|443:25|443:25|359:25,1,160,4|0,0:0|0:0,0:0:0:0:
310,105,51609,1,0,0:0:0:0:
376,192,51745,5,4,0:3:0:0:
405,230,51814,1,4,0:3:0:0:
403,278,51882,1,4,0:3:0:0:
386,324,51950,1,4,0:3:0:0:
345,349,52018,1,4,0:3:0:0:
311,260,52155,1,0,0:0:0:0:
201,105,52291,6,0,B|160:105|160:105|132:133,1,80
48,84,52564,2,0,L|104:28,1,80
204,200,52836,6,0,P|232:272|202:344,1,160,4|0,0:2|0:0,0:0:0:0:
136,272,53245,2,0,L|156:104,2,160,4|4|4,0:2|0:2|0:2,0:0:0:0:
384,360,53927,6,0,P|424:360|464:340,1,80,4|0,0:2|0:0,0:0:0:0:
279,183,54200,2,0,P|240:183|204:200,1,80,0|4,0:0|0:2,0:0:0:0:
400,268,54473,2,0,L|416:188,1,80
260,276,54745,2,0,L|244:356,1,80,4|0,0:2|0:0,0:0:0:0:
24,192,55018,5,6,1:2:0:0:
256,24,55291,1,0,0:0:0:0:
488,192,55564,1,2,0:0:0:0:
300,360,55836,1,0,0:0:0:0:
300,360,55973,1,0,0:0:0:0:
300,360,56109,6,0,B|256:378|256:378|212:360,1,95.9999970703126,2|0,0:0|0:0,0:0:0:0:
392,192,56655,2,0,B|440:172|440:172|488:192,1,103.999995239258,2|0,0:0|0:0,0:0:0:0:
308,104,57200,6,0,P|256:122|204:104,1,111.999996582031,2|0,0:0|0:0,0:0:0:0:
256,28,57609,2,0,P|307:10|359:28,2,111.999996582031,2|2|2,0:0|0:0|0:0,0:0:0:0:
152,192,58291,5,8,0:0:0:0:
256,356,58564,1,8,0:0:0:0:
360,192,58836,1,8,0:0:0:0:
256,28,59109,1,8,0:0:0:0:
80,124,59382,6,0,P|60:192|80:260,1,143.999995605469,4|8,1:2|0:0,0:0:0:0:
152,192,59791,2,0,P|172:124|152:56,1,143.999995605469,4|0,1:2|0:0,0:0:0:0:
80,124,60200,1,8,0:0:0:0:
152,192,60336,1,8,0:0:0:0:
296,352,60473,6,0,B|344:352|344:352|372:324|372:324|432:324,1,143.999995605469,4|8,1:2|0:0,0:0:0:0:
480,236,60882,2,0,L|328:236,1,143.999995605469,4|0,1:2|0:0,0:0:0:0:
368,140,61291,2,0,L|447:140,1,71.9999978027344,8|8,0:0|0:0,0:0:0:0:
320,40,61564,6,0,B|256:73|256:73|192:40,1,143.999995605469,4|0,0:0|0:0,0:0:0:0:
144,140,61973,2,0,P|75:140|22:193,1,143.999995605469,4|2,0:0|0:0,0:0:0:0:
112,236,62382,1,0,0:0:0:0:
204,280,62518,1,2,0:0:0:0:
384,368,62689,5,2,0:0:0:0:
410,341,62791,1,2,0:0:0:0:
437,313,62893,1,2,0:0:0:0:
388,236,62995,5,2,0:0:0:0:
414,209,63098,1,2,0:0:0:0:
441,181,63200,1,2,0:0:0:0:
392,104,63302,6,0,L|420:76,1,40.1999980984498,2|2,0:0|0:0,0:0:0:0:
446,49,63473,6,0,B|403:7|403:7|337:7,1,120.000004577637,4|0,1:0|0:0,0:0:0:0:
268,136,63745,6,0,L|364:136,1,95.9999970703126,6|2,0:0|0:0,0:0:0:0:
200,56,64018,2,0,L|104:56,1,95.9999970703126,2|2,0:0|0:0,0:0:0:0:
22,137,64291,2,0,P|-10:225|22:313,1,191.999994140625,2|2,0:0|0:0,0:0:0:0:
124,364,64700,2,0,L|220:380,1,95.9999970703126,2|0,0:0|0:0,0:0:0:0:
300,297,64973,5,2,0:0:0:0:
327,302,65041,1,0,0:0:0:0:
354,307,65109,1,2,0:0:0:0:
435,225,65245,1,0,0:0:0:0:
408,220,65314,1,0,0:0:0:0:
381,215,65382,1,2,0:0:0:0:
511,269,65518,6,0,P|525:224|511:179,1,95.9999970703126,2|0,0:0|0:0,0:0:0:0:
219,249,65791,2,0,P|205:293|219:339,2,95.9999970703126,2|0|2,0:0|0:0|0:0,0:0:0:0:
302,167,66200,1,0,0:0:0:0:
383,85,66336,1,2,0:0:0:0:
300,4,66473,6,0,B|256:24|256:24|212:4,1,95.9999970703126,0|2,0:0|0:0,0:0:0:0:
129,85,66745,1,2,0:0:0:0:
210,167,66882,1,2,0:0:0:0:
404,364,67018,6,0,P|452:364|492:336,1,95.9999970703126,2|0,0:0|0:0,0:0:0:0:
288,260,67291,2,0,P|240:260|200:288,1,95.9999970703126,2|2,0:0|0:0,0:0:0:0:
272,352,67564,6,0,L|420:272,1,167.999994873047,2|0,0:0|0:0,0:0:0:0:
360,188,67836,2,0,L|508:108,1,167.999994873047,2|0,0:0|0:0,0:0:0:0:
404,64,68109,5,0,0:0:0:0:
304,28,68245,1,0,0:0:0:0:
304,28,68382,2,0,L|204:28,1,95.9999970703126,2|2,0:0|0:0,0:0:0:0:
34,85,68655,2,0,L|130:85,1,95.9999970703126,2|0,0:0|0:0,0:0:0:0:
210,167,68927,1,2,0:0:0:0:
288,260,69064,2,0,B|335:281|372:263|380:259|388:255|425:237|474:259,1,191.999994140625,2|2,0:0|0:0,0:0:0:0:
440,368,69473,5,0,0:0:0:0:
440,368,69541,1,0,0:0:0:0:
440,368,69609,1,2,0:0:0:0:
328,160,69745,5,2,0:0:0:0:
328,160,69814,1,0,0:0:0:0:
328,160,69882,1,0,0:0:0:0:
240,368,70018,5,2,0:0:0:0:
240,368,70086,1,0,0:0:0:0:
240,368,70155,1,2,0:0:0:0:
56,176,70291,6,0,L|24:136,1,47.9999985351563,4|4,0:3|0:3,0:0:0:0:
96,84,70427,2,0,L|125:121,1,47.9999985351563,4|4,0:3|0:3,0:0:0:0:
216,84,70564,2,0,L|158:7,1,95.9999970703126,4|0,0:3|0:0,0:0:0:0:
456,208,70836,6,0,L|488:248,1,47.9999985351563,4|4,0:3|0:3,0:0:0:0:
416,300,70973,2,0,L|387:263,1,47.9999985351563,4|4,0:3|0:3,0:0:0:0:
296,300,71109,2,0,L|353:376,1,95.9999970703126,4|0,0:3|0:0,0:0:0:0:
120,228,71382,6,2,P|83:156|120:84,1,167.999994873047,2|2,0:0|0:1,0:0:0:0:
184,160,71655,2,2,B|232:196|232:196|256:196|256:196|280:196|280:196|328:160,1,167.999994873047,2|2,0:0|0:1,0:0:0:0:
392,84,71927,2,2,P|429:156|392:228,1,167.999994873047,2|2,0:0|0:1,0:0:0:0:
328,160,72200,1,6,0:0:0:0:
256,84,72336,1,0,0:0:0:0:
56,292,72473,6,0,P|44:338|56:384,1,95.9999970703126,6|2,0:0|0:0,0:0:0:0:
100,144,72745,2,0,P|112:98|100:52,1,95.9999970703126,2|2,0:0|0:0,0:0:0:0:
0,192,73018,2,0,L|184:256,1,191.999994140625,2|2,0:0|0:0,0:0:0:0:
208,264,73359,1,0,0:0:0:0:
234,273,73427,1,2,0:0:0:0:
388,240,73564,5,0,0:0:0:0:
236,184,73700,1,2,0:0:0:0:
324,320,73836,1,0,0:0:0:0:
324,320,73905,1,0,0:0:0:0:
324,320,73973,1,2,0:0:0:0:
328,160,74109,6,0,B|346:116|346:116|328:72,1,95.9999970703126,0|2,0:0|0:0,0:0:0:0:
148,220,74382,2,0,B|130:264|130:264|148:308,1,95.9999970703126,0|2,0:0|0:0,0:0:0:0:
256,264,74655,1,0,0:0:0:0:
47,220,74791,6,0,P|32:264|48:308,1,95.9999970703126,2|0,0:0|0:0,0:0:0:0:
96,140,75064,2,0,P|112:96|96:52,1,95.9999970703126,2|0,0:0|0:0,0:0:0:0:
256,12,75336,5,2,0:0:0:0:
404,84,75473,1,2,0:0:0:0:
256,152,75609,1,2,0:0:0:0:
360,8,75745,2,0,P|404:-8|448:7,1,95.9999970703126,2|0,0:0|0:0,0:0:0:0:
448,164,76018,2,0,P|403:180|359:164,1,95.9999970703126,2|0,0:0|0:0,0:0:0:0:
404,84,76291,5,2,0:2:0:0:
492,244,76427,1,2,0:2:0:0:
312,248,76564,1,2,0:2:0:0:
312,248,76632,1,2,0:2:0:0:
312,248,76700,1,2,0:2:0:0:
312,248,76768,1,2,0:2:0:0:
312,248,76836,6,0,B|256:326|256:326|200:248,1,191.999994140625,4|0,0:2|0:0,0:0:0:0:
216,132,77245,2,0,P|296:132|304:32,1,191.999994140625,4|0,0:2|0:0,0:0:0:0:
203,37,77655,2,0,P|208:125|296:132,1,191.999994140625,4|0,0:2|0:0,0:0:0:0:
396,192,78064,5,4,0:2:0:0:
396,192,78132,1,2,0:2:0:0:
396,192,78200,1,2,0:2:0:0:
452,352,78336,1,0,0:0:0:0:
312,248,78473,1,4,0:2:0:0:
484,248,78609,1,2,0:2:0:0:
344,352,78745,1,2,0:2:0:0:
315,141,78882,2,0,P|395:96|475:141,1,191.999994140625,4|2,0:2|0:2,0:0:0:0:
396,280,79291,5,2,0:2:0:0:
228,328,79427,1,2,0:2:0:0:
147,189,79564,1,2,0:2:0:0:
315,141,79700,1,2,0:2:0:0:
396,280,79836,1,2,0:2:0:0:
228,328,79973,1,2,0:2:0:0:
120,100,80109,6,2,B|160:64|212:72|256:100|256:100|300:84|328:20|256:-32|184:20|212:84|256:100|256:100|300:72|352:64|392:100,1,528.000016113282,6|2,0:2|0:0,0:0:0:0:
488,192,81200,5,6,1:2:0:0:
256,360,81473,1,0,0:0:0:0:
24,192,81745,1,2,0:0:0:0:
212,24,82018,1,0,0:0:0:0:
212,24,82155,1,0,0:0:0:0:
212,24,82291,6,0,B|300:64,1,95.9999970703126,2|0,0:0|0:0,0:0:0:0:
335,214,82836,2,0,B|240:172,1,103.999995239258,2|0,0:0|0:0,0:0:0:0:
36,140,83382,6,0,P|18:192|36:244,1,111.999996582031,2|0,0:0|0:0,0:0:0:0:
112,284,83791,2,0,P|58:290|19:329,2,111.999996582031,2|2|2,0:0|0:0|0:0,0:0:0:0:
256,356,84473,5,8,0:0:0:0:
360,192,84745,1,8,0:0:0:0:
256,28,85018,1,8,0:0:0:0:
152,192,85291,1,8,0:0:0:0:
424,256,85564,6,0,P|452:192|424:128,1,143.999995605469,2|2,0:0|0:0,0:0:0:0:
88,256,86109,2,0,P|60:192|88:128,1,143.999995605469,2|2,0:0|0:0,0:0:0:0:
152,192,86518,1,2,0:0:0:0:
216,256,86655,6,0,P|256:372|296:256,1,320,4|2,1:2|0:0,0:0:0:0:
360,192,87882,5,2,0:0:0:0:
296,128,88018,2,0,B|256:233|256:233|216:128,1,223.999993164063,2|2,1:0|0:0,0:0:0:0:
152,192,88427,1,2,0:0:0:0:
88,255,88564,6,0,P|71:307|88:359,1,111.999996582031,2|0,1:0|0:0,0:0:0:0:
423,359,88836,2,0,P|440:307|424:255,1,111.999996582031,4|0,1:2|0:0,0:0:0:0:
360,192,89143,6,0,B|331:184|331:184|302:192,1,60,2|2,0:0|0:0,0:0:0:0:
424,254,89348,2,0,B|452:261|452:261|481:254,1,60,2|2,0:0|0:0,0:0:0:0:
452,176,89552,1,2,0:0:0:0:
396,116,89655,6,2,B|396:84|420:64|420:64|396:64|396:64|372:64|372:64|396:40|396:8,1,167.999994873047,4|0,0:0|0:0,0:0:0:0:
312,8,89927,6,0,B|272:8|272:8|244:36,1,80,4|2,0:0|0:0,0:0:0:0:
172,100,90200,1,0,0:0:0:0:
104,168,90336,2,0,B|121:204|121:204|104:240,1,80,2|0,0:0|0:0,0:0:0:0:
248,384,90609,2,0,B|231:348|231:348|248:312,1,80,2|0,0:0|0:0,0:0:0:0:
336,356,90882,1,2,0:0:0:0:
248,312,91018,6,0,L|168:312,1,80,0|2,0:0|0:0,0:0:0:0:
104,168,91291,2,0,L|184:168,1,80,0|2,0:0|0:0,0:0:0:0:
20,237,91564,6,0,P|-12:169|20:101,1,155.999992858887,6|0,0:0|0:0,0:0:0:0:
105,52,91836,2,0,B|165:52|165:52|189:36|189:36|256:36,1,155.999992858887,4|0,0:0|0:0,0:0:0:0:
291,140,92109,6,0,B|264:140|264:140|256:144|256:144|256:136|256:136|248:140|248:140|221:140,1,80,2|0,0:3|0:0,0:0:0:0:
221,244,92382,2,0,B|248:244|248:244|256:248|256:248|256:240|256:240|264:244|264:244|291:244,1,80,2|0,0:3|0:0,0:0:0:0:
176,364,92655,6,0,L|124:364,3,40,2|2|2|2,0:2|0:2|0:2|0:2,0:0:0:0:
80,308,92927,2,0,L|28:308,3,40,2|2|2|2,0:2|0:2|0:2|0:2,0:0:0:0:
20,237,93200,5,4,0:2:0:0:
60,60,93336,1,2,0:3:0:0:
208,172,93473,1,2,0:3:0:0:
176,364,93609,1,2,0:3:0:0:
20,237,93745,2,0,L|63:237,3,40,4|4|4|4,0:3|0:3|0:3|0:3,0:0:0:0:
124,184,94018,6,0,B|119:130|161:102|161:102|142:80|142:46,1,155.999992858887,4|0,0:0|0:0,0:0:0:0:
228,48,94291,6,0,B|248:40|248:40|260:44|260:44|272:48|272:48|284:52|284:52|308:48,1,80,4|2,0:0|0:0,0:0:0:0:
436,120,94564,2,0,B|416:128|416:128|404:124|404:124|392:120|392:120|380:116|380:116|356:120,1,80,0|2,0:0|0:0,0:0:0:0:
208,172,94836,2,0,B|228:164|228:164|240:168|240:168|252:172|252:172|264:176|264:176|288:172,1,80,0|2,0:0|0:0,0:0:0:0:
440,236,95109,2,0,B|420:228|420:228|408:232|408:232|396:236|396:236|384:240|384:240|360:236,1,80,0|2,0:0|0:0,0:0:0:0:
232,308,95382,2,0,B|252:316|252:316|264:312|264:312|276:308|276:308|288:304|288:304|312:308,1,80,0|2,0:0|0:0,0:0:0:0:
460,360,95654,2,0,B|440:352|440:352|428:356|428:356|416:360|416:360|404:364|404:364|380:360,1,80,0|2,0:0|0:0,0:0:0:0:
124,256,95927,6,0,P|52:256|8:320,1,155.999992858887,6|0,0:0|0:0,0:0:0:0:
92,332,96200,2,0,L|204:220,1,155.999992858887,4|0,0:0|0:0,0:0:0:0:
136,172,96473,6,0,L|208:100,1,80,4|2,0:3|0:3,0:0:0:0:
288,251,96745,2,0,L|232:308,1,80,4|2,0:3|0:3,0:0:0:0:
92,332,97018,5,2,0:2:0:0:
92,332,97086,1,0,0:0:0:0:
92,332,97155,1,2,0:2:0:0:
92,332,97223,1,0,0:0:0:0:
92,332,97291,2,0,P|48:332|8:304,1,90.0000034332277,2|0,0:2|0:0,0:0:0:0:
73,246,97564,6,0,P|99:174|72:104,1,155.999992858887,4|0,0:0|0:0,0:0:0:0:
4,32,97836,2,0,L|164:52,1,155.999992858887,4|0,0:0|0:0,0:0:0:0:
220,124,98109,2,0,L|374:143,1,155.999992858887,4|0,0:0|0:0,0:0:0:0:
464,192,98382,1,4,0:0:0:0:
464,192,98450,1,0,0:0:0:0:
464,192,98518,1,0,0:0:0:0:
344,56,98655,6,0,L|264:46,1,80,4|2,0:0|0:0,0:0:0:0:
220,124,98927,1,0,0:0:0:0:
344,56,99064,1,2,0:0:0:0:
141,134,99200,6,0,L|221:124,1,80,0|2,0:0|0:0,0:0:0:0:
265,202,99472,1,0,0:0:0:0:
141,134,99609,1,2,0:0:0:0:
344,212,99745,6,0,L|264:202,1,80,0|2,0:0|0:0,0:0:0:0:
220,280,100017,1,0,0:0:0:0:
344,212,100154,1,2,0:0:0:0:
141,289,100291,6,0,L|300:312,1,155.999992858887,6|0,0:0|0:0,0:0:0:0:
200,380,100564,2,0,L|41:357,1,155.999992858887,4|0,0:0|0:0,0:0:0:0:
0,280,100836,5,2,0:2:0:0:
76,220,100973,1,2,0:2:0:0:
160,172,101109,2,0,P|150:134|160:96,1,80,0|2,0:0|0:2,0:0:0:0:
256,32,101382,6,0,L|308:32,2,40,8|8|8,0:3|0:3|0:3,0:0:0:0:
56,128,101655,2,0,L|0:128,2,40,8|8|8,0:3|0:3|0:3,0:0:0:0:
256,224,101927,1,4,0:0:0:0:
456,128,102064,1,2,0:0:0:0:
256,32,102200,1,2,0:0:0:0:
160,172,102336,6,0,L|176:216,1,40,4|4,0:3|0:3,0:0:0:0:
256,224,102473,2,0,L|272:268,1,40,4|4,0:3|0:3,0:0:0:0:
348,280,102609,2,0,L|364:324,1,40,4|4,0:3|0:3,0:0:0:0:
452,324,102745,6,0,L|409:211,1,120,2|2,3:2|3:2,2:0:0:0:
456,128,103018,5,4,0:0:0:0:
512,48,103155,2,0,B|476:32|476:32|436:32,1,80,2|0,0:0|0:0,0:0:0:0:
376,128,103427,2,0,L|456:128,1,80,2|0,0:0|0:0,0:0:0:0:
336,32,103700,2,0,L|256:32,1,80,2|0,0:0|0:0,0:0:0:0:
155,54,103973,1,2,0:0:0:0:
100,136,104109,2,0,P|89:174|99:212,1,80,0|2,0:0|0:0,0:0:0:0:
308,360,104382,5,4,0:3:0:0:
331,360,104450,1,4,0:3:0:0:
354,360,104518,1,4,0:3:0:0:
377,360,104586,1,4,0:3:0:0:
401,360,104655,1,2,0:0:0:0:
448,276,104791,1,4,0:3:0:0:
484,188,104927,2,0,L|504:192,8,20
155,54,105336,5,2,0:2:0:0:
155,54,105405,1,0,0:0:0:0:
155,54,105473,2,0,B|96:54|96:54|73:54|39:65|21:110,1,155.999992858887,6|0,0:2|0:0,0:0:0:0:
100,136,105745,2,0,B|159:136|159:136|182:136|216:125|234:80,1,155.999992858887,6|0,0:2|0:0,0:0:0:0:
308,40,106018,2,0,L|352:60,3,40,2|2|2|2,0:3|0:3|0:3|0:3,0:0:0:0:
408,116,106291,6,0,B|408:172|408:172|416:184|416:184|400:184|400:184|408:196|408:196|408:252,1,155.999992858887,4|0,0:0|0:0,0:0:0:0:
456,336,106564,2,0,P|392:284|320:284,1,155.999992858887,4|0,0:0|0:0,0:0:0:0:
260,224,106836,2,0,L|318:368,1,155.999992858887,4|0,0:0|0:0,0:0:0:0:
220,352,107109,2,0,L|161:207,1,155.999992858887,4|0,0:0|0:0,0:0:0:0:
100,136,107382,6,0,P|59:136|23:113,1,80,4|0,1:2|0:0,0:0:0:0:
88,44,107655,1,0,0:0:0:0:
88,44,107791,2,0,B|156:44|156:44|176:56|176:56|244:56,1,160,4|0,1:2|0:0,0:0:0:0:
324,4,108200,1,4,1:2:0:0:
404,56,108336,1,0,0:0:0:0:
292,220,108473,6,0,B|292:296|220:296|220:352,1,155.999992858887,6|0,0:0|0:0,0:0:0:0:
292,352,108745,2,0,B|292:296|220:296|220:220,1,155.999992858887,6|0,0:0|0:0,0:0:0:0:
256,148,109018,2,0,L|256:122,8,25.9999988098145,6|0|0|0|0|0|0|0|6,0:0|0:0|0:0|0:0|0:0|0:0|0:0|0:0|0:0,0:0:0:0:
119,284,109564,6,0,B|127:323|127:323|119:362,1,80,4|0,1:2|0:0,0:0:0:0:
60,112,109836,2,0,B|52:73|52:73|60:34,2,80,0|4|0,0:0|1:2|0:0,0:0:0:0:
124,184,110245,1,0,0:0:0:0:
124,184,110382,2,0,L|44:208,1,80,4|0,1:2|0:0,0:0:0:0:
208,248,110655,6,0,L|360:200,1,155.999992858887,6|0,0:0|0:0,0:0:0:0:
455,200,110927,2,0,P|481:128|456:56,1,155.999992858887,6|0,0:0|0:0,0:0:0:0:
357,56,111200,2,0,P|332:129|357:201,1,155.999992858887,6|0,0:0|0:0,0:0:0:0:
404,284,111473,1,6,0:0:0:0:
200,376,111745,6,0,L|192:336,1,40,2|0,0:0|0:0,0:0:0:0:
116,312,111882,2,0,L|124:272,1,40,0|0,0:0|0:0,0:0:0:0:
208,248,112018,2,0,L|200:208,1,40,2|0,0:0|0:0,0:0:0:0:
124,184,112155,2,0,L|132:144,1,40,0|0,0:0|0:0,0:0:0:0:
204,88,112291,6,0,P|132:117|60:87,1,160,2|0,1:2|0:0,0:0:0:0:
132,20,112700,1,0,0:0:0:0:
308,88,112836,6,0,P|379:117|451:87,1,160,2|0,1:2|0:0,0:0:0:0:
380,20,113245,1,0,0:0:0:0:
256,164,113382,6,0,B|256:176|256:176|252:184|252:184|260:184|260:184|256:192|256:192|256:202,3,47.9999985351563,2|0|2|0,0:0|0:0|0:0|0:0,0:0:0:0:
312,296,113927,5,4,1:2:0:0:
380,364,114064,1,0,0:0:0:0:
200,296,114200,5,0,0:0:0:0:
132,364,114336,1,4,1:2:0:0:
344,204,114473,6,0,P|352:165|344:126,1,80
167,126,114745,2,0,P|160:165|168:204,1,80,4|0,1:2|0:0,0:0:0:0:
256,360,115018,5,2,0:0:0:0:
480,192,115291,1,2,0:0:0:0:
256,24,115564,1,2,0:0:0:0:
32,192,115836,5,6,1:2:0:0:
256,192,115905,12,0,117200,0:0:0:0:
