osu file format v14

[General]
AudioFilename: Crack Traxxxx.mp3
AudioLeadIn: 0
PreviewTime: 63745
Countdown: 0
SampleSet: Soft
StackLeniency: 0.2
Mode: 2
LetterboxInBreaks: 0
EpilepsyWarning: 1
WidescreenStoryboard: 0

[Editor]
Bookmarks: 11382,22836,23109,23382,23655,28564,35382,37564,55018,70155,74927,77655,78064,78336,78473,78745,79155,79427,79564,79836,90200,107109
DistanceSpacing: 1.6
BeatDivisor: 4
GridSize: 4
TimelineZoom: 3.599998

[Metadata]
Title:Crack Traxxxx
TitleUnicode:Crack Traxxxx
Artist:Lite Show Magic (t+pazolite vs C-Show)
ArtistUnicode:Lite Show Magic (t+pazolite vs C-Show)
Creator:Fatfan Kolek
Version:Fast's Rain
Source:SOUND VOLTEX II -infinite infection-
Tags:t+pazolite c-show TKSalt TKS Dariano Fanzhen0019 Oracle Natsu P_A_N Aka EvilElvis Gero Onosakihito DJNightmare Fast Spectator sukiNathan Okoratu
BeatmapID:517720
BeatmapSetID:139525

[Difficulty]
HPDrainRate:5.4
CircleSize:3.8
OverallDifficulty:9
ApproachRate:9
SliderMultiplier:1.97
SliderTickRate:1

[Events]
//Background and Video events
0,0,"bg.jpg",0,0
//Break Periods
//Storyboard Layer 0 (Background)
//Storyboard Layer 1 (Fail)
//Storyboard Layer 2 (Pass)
//Storyboard Layer 3 (Foreground)
Sprite,Foreground,Centre,"SB/glowmap.png",320,240 P,0,0,119170,A F,0,2382,,0 M,0,2655,,320,240 S,0,2655,,0.7963637 F,0,2655,4836,1,0 F,0,7018,7291,1,0 F,0,7427,9200,1,0 F,0,12473,12609,1,0 F,0,12745,12882,1,0 F,0,13018,13155,1,0 F,0,13291,13427,1,0 F,0,14655,14791,1,0 F,0,14927,15064,1,0 F,0,15200,15336,1,0 F,0,15473,15609,1,0 F,0,15745,,0.08145462 F,0,15882,,0.4319658 F,0,16018,,0.6533606 F,0,16155,,0.9287182 F,0,16291,16836,1,0 F,0,16905,,0.5032727 F,0,16973,,0.1803636 F,0,17041,,0.5789091 F,0,17109,,0.2065455 F,0,17177,,0.7301819 F,0,17245,,0.1396364 F,0,17314,,0.7883637 F,0,17382,17927,1,0 F,0,19836,20041,1,0 F,0,20109,22291,1,0 F,0,24200,24473,1,0 F,0,30745,,1 F,0,30814,,0 F,0,30882,,1 F,0,30950,,0 F,0,32927,,1 F,0,32995,,0 F,0,33064,,1 F,0,33132,,0 F,0,34018,,1 F,0,34086,,0 F,0,34155,,1 F,0,34223,,0 F,2,35109,35382,0.2589091,1 F,0,35382,36405,1,0 F,0,36473,36677,1,0 F,0,36745,36950,1,0 F,0,37018,37223,1,0 F,0,37291,37495,1,0 F,0,55018,57200,1,0 F,0,62689,,1 F,0,62723,,0 F,0,62791,,1 F,0,62825,,0 F,0,62893,,1 F,0,62927,,0 F,0,62995,,1 F,0,63030,,0 F,0,63098,,1 F,0,63132,,0 F,0,63200,,1 F,0,63234,,0 F,0,63302,,1 F,0,63336,,0 F,0,63405,,1 F,0,63439,,0 F,0,63473,63745,1,0 F,0,67564,67791,1,0 F,0,67836,68064,1,0 F,0,71382,71620,1,0 F,0,71655,71893,1,0 F,0,71927,72166,1,0 F,0,72200,72439,1,0 F,0,76291,,0.3309091 F,0,76359,,0 F,0,76427,,0.674909 F,0,76495,,0 F,0,76564,,1 F,0,76598,,0 F,0,76632,,1 F,0,76666,,0 F,0,76700,,1 F,0,76734,,0 F,0,76768,,1 F,0,76802,,0 F,0,80927,81064,1,0 F,0,81200,82291,1,0 F,0,87745,87814,0.1716364,0 F,0,87882,87950,0.3316363,0 F,0,88018,88223,1,0 F,0,88291,88359,0.1396364,0 F,0,88427,88495,0.3141819,0 F,0,88564,88768,1,0 F,0,88836,89586,1,0 F,0,89655,89927,1,0 F,0,107382,107655,0.5789091,0 F,0,107791,108064,1,0 F,0,108200,108405,0.994909,0 F,0,108473,108950,1,0 F,0,109018,109495,1,0 F,0,109564,109905,1,0 F,0,109973,110245,1,0 F,0,110382,110586,0.9163637,0 F,0,110655,111132,1,0 F,0,111200,111677,1,0 F,0,115836,116109,1,0
Sprite,Foreground,Centre,"SB/glowmap.png",320,240 P,0,0,119170,A F,0,63677,,0 S,0,63745,,0.7963637 F,0,63745,63984,1,0 F,0,64018,64257,1,0 F,0,64291,64530,1,0 F,0,64564,64803,1,0 F,0,64836,65075,1,0 F,0,65109,65348,1,0 F,0,65382,65621,1,0 F,0,65655,65894,1,0 F,0,65927,66166,1,0 F,0,66200,66439,1,0 F,0,66473,66712,1,0 F,0,66745,66984,1,0 F,0,67018,67257,1,0 F,0,67291,67530,1,0 F,0,68109,68348,1,0 F,0,68382,68621,1,0 F,0,68655,68894,1,0 F,0,68927,69166,1,0 F,0,69200,69439,1,0 F,0,69473,69712,1,0 F,0,69745,69984,1,0 F,0,70018,70257,1,0 F,0,70291,70530,1,0 F,0,70564,70803,1,0 F,0,70836,71075,1,0 F,0,71109,71348,1,0 F,0,72473,72712,1,0 F,0,72745,72984,1,0 F,0,73018,73257,1,0 F,0,73291,73530,1,0 F,0,73564,73803,1,0 F,0,73836,74075,1,0 F,0,74109,74348,1,0 F,0,74382,74621,1,0 F,0,74655,74894,1,0 F,0,74927,75166,1,0 F,0,75200,75439,1,0 F,0,75473,75712,1,0 F,0,75745,75984,1,0 F,0,76018,76257,1,0 F,0,76836,77075,1,0 F,0,77245,77484,1,0 F,0,77655,77894,1,0 F,0,78064,78303,1,0 F,0,78336,78575,1,0
Sprite,Foreground,Centre,"SB/glowmap.png",320,240 P,0,0,119170,A S,0,63745,,0.7963637 F,0,78405,,0 F,0,78473,78712,1,0 F,0,79155,79394,1,0 F,0,79427,79666,1,0 F,0,79700,79939,1,0 F,0,79973,80212,1,0
Sprite,Foreground,Centre,"SB/glowmap.png",320,240 P,0,0,119170,A S,0,63745,,0.7963637 F,0,80041,,0 F,0,80109,80348,1,0 F,0,100836,101382,0.541091,0
//Storyboard Sound Samples

[TimingPoints]
2655,272.727272727273,4,2,0,75,1,0
7018,-100,4,1,0,75,0,0
7836,-100,4,2,0,75,0,0
8109,-76.9230769230769,4,1,0,75,0,0
8245,-100,4,2,0,75,0,0
8518,-100,4,1,0,75,0,0
8655,-100,4,2,0,75,0,0
8927,-100,4,1,0,75,0,0
9064,-100,4,2,0,75,0,0
9200,-100,4,1,0,75,0,0
9336,-100,4,2,0,75,0,0
9745,-100,4,1,0,75,0,0
9882,-100,4,2,0,75,0,0
10018,-100,4,1,0,75,0,0
11109,-58.8235294117647,4,1,0,75,0,0
11245,-66.6666666666667,4,2,0,75,0,0
11382,-100,4,1,0,75,0,0
11518,-100,4,2,0,75,0,0
11791,-100,4,1,0,75,0,0
11927,-100,4,2,0,75,0,0
12200,-100,4,1,0,75,0,0
12336,-100,4,2,0,75,0,0
12473,-100,4,1,0,75,0,0
12541,-100,4,2,0,40,0,0
12609,-100,4,1,0,60,0,0
12745,-100,4,1,0,75,0,0
12882,-100,4,1,0,60,0,0
13018,-100,4,1,0,75,0,0
13086,-100,4,2,0,40,0,0
13155,-100,4,1,0,60,0,0
13291,-100,4,1,0,75,0,0
13359,-100,4,2,0,40,0,0
13427,-100,4,1,0,60,0,0
13564,-100,4,1,0,75,0,0
13700,-100,4,2,0,75,0,0
13973,-100,4,1,0,75,0,0
14109,-100,4,2,0,75,0,0
14382,-100,4,1,0,75,0,0
14518,-100,4,2,0,75,0,0
14655,-83.3333333333333,4,1,0,75,0,0
14791,-100,4,1,0,60,0,0
14927,-100,4,1,0,75,0,0
15064,-100,4,1,0,60,0,0
15200,-100,4,1,0,75,0,0
15336,-100,4,1,0,60,0,0
15473,-83.3333333333333,4,1,0,75,0,0
15609,-100,4,2,0,60,0,0
15745,-100,4,1,1,75,0,0
15882,-100,4,2,0,75,0,0
16291,-100,4,1,1,80,0,0
16427,-100,4,2,0,80,0,0
16564,-100,4,1,0,70,0,0
16700,-100,4,2,0,80,0,0
16836,-100,4,1,0,80,0,0
16905,-100,4,2,0,80,0,0
17382,-100,4,1,1,80,0,0
17518,-100,4,2,0,80,0,0
17927,-100,4,2,1,80,0,0
18064,-100,4,2,0,80,0,0
18200,-100,4,2,1,65,0,0
18336,-100,4,3,0,80,0,0
18473,-100,4,2,0,80,0,0
18745,-100,4,3,0,80,0,0
18882,-100,4,2,0,80,0,0
19018,-100,4,1,0,80,0,0
19291,-100,4,2,0,80,0,0
19836,-50,4,1,0,80,0,0
20109,-100,4,1,1,80,0,1
20177,-100,4,1,1,80,0,0
20791,-100,4,2,0,80,0,0
20927,-100,4,1,1,80,0,0
21064,-100,4,2,0,80,0,0
21200,-100,4,1,1,80,0,0
21268,-100,4,2,0,80,0,0
21473,-100,4,1,1,80,0,0
21609,-100,4,2,0,80,0,0
21745,-100,4,1,1,80,0,0
21882,-100,4,2,0,80,0,0
22018,-100,4,1,1,80,0,0
22155,-100,4,2,0,80,0,0
22291,-100,4,1,1,80,0,0
22359,-100,4,2,0,80,0,0
22564,-100,4,1,1,80,0,0
22700,-100,4,2,0,80,0,0
22836,-100,4,1,1,80,0,0
22973,-100,4,2,0,80,0,0
23109,-100,4,1,1,80,0,0
23518,-100,4,2,0,80,0,0
23655,-100,4,2,1,80,0,0
23791,-100,4,2,1,80,0,0
24200,-58.8235294117647,4,1,0,80,0,0
24473,-100,4,1,1,80,0,0
25155,-100,4,2,0,80,0,0
25291,-100,4,1,1,80,0,0
25427,-100,4,2,1,80,0,0
25564,-100,4,1,1,80,0,0
25700,-100,4,2,0,80,0,0
25836,-100,4,1,1,80,0,0
25973,-100,4,2,0,80,0,0
26109,-100,4,1,1,80,0,0
26245,-100,4,2,0,80,0,0
26382,-100,4,1,1,80,0,0
26518,-100,4,2,0,80,0,0
26655,-100,4,1,1,40,0,0
26927,-100,4,1,1,35,0,0
27200,-100,4,1,1,30,0,0
27336,-100,4,1,1,20,0,0
27473,-100,4,2,0,75,0,0
27745,-100,4,1,0,80,0,0
28291,-100,4,2,0,80,0,0
28564,-100,4,2,1,80,0,0
28836,-100,4,1,1,75,0,0
29109,-100,4,1,1,75,0,0
29245,-100,4,2,0,75,0,0
29382,-100,4,1,1,75,0,0
29518,-100,4,2,0,75,0,0
29655,-100,4,1,1,75,0,0
29791,-100,4,2,0,75,0,0
29927,-100,4,1,1,75,0,0
30064,-100,4,2,0,75,0,0
30200,-100,4,1,1,75,0,0
31427,-100,4,2,0,75,0,0
31564,-100,4,1,1,75,0,0
31700,-100,4,2,0,75,0,0
31836,-100,4,1,1,75,0,0
31973,-100,4,2,0,75,0,0
32109,-100,4,1,1,75,0,0
32245,-100,4,2,0,75,0,0
32382,-100,4,1,1,75,0,0
32518,-100,4,2,0,75,0,0
32655,-100,4,1,1,75,0,0
32927,-100,4,2,1,75,0,0
33200,-100,4,1,1,75,0,0
33609,-100,4,2,0,75,0,0
33745,-100,4,1,1,75,0,0
33882,-100,4,2,0,75,0,0
34018,-100,4,3,0,75,0,0
34291,-100,4,1,1,75,0,0
34700,-100,4,2,0,75,0,0
34836,-100,4,1,1,75,0,0
34973,-100,4,2,0,75,0,0
35109,-100,4,1,0,75,0,0
35382,-100,4,1,1,60,0,0
35518,-111.111111111111,4,2,0,60,0,0
35995,-100,4,2,0,5,0,0
36405,-100,4,2,0,40,0,0
36473,-100,4,1,0,80,0,0
36677,-100,4,2,0,80,0,0
36745,-100,4,1,0,80,0,0
36950,-100,4,2,0,80,0,0
37018,-100,4,1,0,80,0,0
37155,-100,4,2,0,80,0,0
37291,-100,4,1,0,80,0,0
37427,-100,4,2,0,80,0,0
37564,-100,4,3,0,80,0,0
37836,-100,4,2,0,75,0,0
38109,-100,4,1,1,75,0,1
38177,-100,4,2,0,75,0,0
38382,-71.4285714285714,4,2,0,80,0,0
38655,-100,4,1,1,50,0,0
38723,-100,4,2,0,50,0,0
38791,-100,4,1,0,60,0,0
38859,-100,4,2,0,60,0,0
38927,-100,4,3,0,70,0,0
38995,-100,4,2,0,70,0,0
39064,-100,4,1,0,75,0,0
39132,-100,4,2,0,75,0,0
39200,-71.4285714285714,4,1,1,80,0,0
39336,-71.4285714285714,4,2,0,75,0,0
39473,-71.4285714285714,4,1,1,80,0,0
39609,-100,4,1,0,60,0,0
39745,-100,4,1,0,70,0,0
40291,-100,4,1,1,75,0,0
40427,-100,4,2,0,40,0,0
40700,-100,4,2,0,75,0,0
40836,-100,4,2,1,40,0,0
40973,-100,4,1,0,50,0,0
41041,-100,4,2,0,50,0,0
41109,-100,4,3,0,60,0,0
41177,-100,4,2,0,60,0,0
41245,-100,4,1,0,70,0,0
41314,-100,4,2,0,70,0,0
41382,-100,4,1,1,75,0,0
41586,-100,4,2,0,40,0,0
41655,-62.5,4,1,0,75,0,0
41859,-100,4,2,0,75,0,0
41927,-100,4,1,0,75,0,0
42336,-100,4,2,0,75,0,0
42473,-100,4,1,0,75,0,0
42609,-100,4,2,0,75,0,0
42745,-100,4,1,0,75,0,0
42882,-100,4,2,0,75,0,0
43018,-100,4,1,1,75,0,0
43086,-100,4,2,0,75,0,0
43155,-100,4,1,0,75,0,0
43223,-100,4,2,0,75,0,0
43291,-100,4,3,0,75,0,0
43427,-100,4,1,0,75,0,0
43564,-100,4,1,1,75,0,0
43700,-100,4,2,0,75,0,0
43836,-100,4,1,1,75,0,0
43973,-100,4,1,0,60,0,0
44177,-100,4,2,0,5,0,0
44655,-100,4,2,0,20,0,0
44791,-100,4,2,0,30,0,0
44927,-100,4,2,0,45,0,0
45064,-100,4,2,0,70,0,0
45200,-66.6666666666667,4,1,0,75,0,0
45336,-100,4,1,0,60,0,0
45473,-100,4,1,0,75,0,0
45541,-100,4,2,0,40,0,0
45609,-100,4,1,0,60,0,0
45745,-66.6666666666667,4,1,0,75,0,0
45882,-100,4,1,0,60,0,0
46018,-76.9230769230769,4,1,0,75,0,0
46086,-100,4,2,0,40,0,0
46155,-100,4,2,0,60,0,0
46291,-100,4,1,0,75,0,0
46564,-100,4,2,0,75,0,0
46836,-100,4,1,1,75,0,0
47109,-100,4,2,0,80,0,0
47382,-100,4,1,1,50,0,0
47518,-100,4,1,0,60,0,0
47655,-100,4,3,0,70,0,0
47791,-100,4,1,0,75,0,0
47927,-100,4,1,1,80,0,0
48064,-100,4,2,0,75,0,0
48200,-100,4,1,1,80,0,0
48336,-100,4,1,0,60,0,0
48473,-100,4,1,0,70,0,0
48745,-100,4,1,0,75,0,0
49018,-100,4,2,1,75,0,0
49155,-100,4,2,0,40,0,0
49427,-100,4,2,0,75,0,0
49564,-100,4,2,1,40,0,0
49700,-100,4,1,0,50,0,0
49836,-100,4,3,0,60,0,0
49973,-100,4,1,0,70,0,0
50109,-66.6666666666667,4,1,1,75,0,0
50245,-66.6666666666667,4,2,0,40,0,0
50382,-52.6315789473684,4,1,0,75,0,0
50655,-100,4,1,0,75,0,0
51609,-100,4,2,0,50,0,0
51745,-100,4,1,0,50,0,0
52018,-100,4,3,0,60,0,0
52086,-100,4,2,0,60,0,0
52155,-100,4,1,0,70,0,0
52291,-100,4,1,1,80,0,0
52427,-100,4,2,0,75,0,0
52564,-100,4,1,1,80,0,0
52700,-100,4,1,0,60,0,0
52836,-66.6666666666667,4,1,0,75,0,0
53791,-50,4,1,0,60,0,0
53927,-100,4,2,1,80,0,0
54064,-50,4,2,0,80,0,0
54200,-50,4,2,1,65,0,0
54336,-50,4,3,0,80,0,0
54473,-50,4,2,0,80,0,0
54745,-66.6666666666667,4,3,0,80,0,0
54882,-50,4,2,0,40,0,0
55018,-50,4,1,0,75,0,0
55291,-133.333333333333,4,2,0,60,0,0
55836,-71.4285714285714,4,2,0,60,0,0
55973,-133.333333333333,4,2,0,30,0,0
56109,-133.333333333333,4,2,0,60,0,0
57200,-133.333333333333,4,2,0,50,0,0
57336,-133.333333333333,4,2,0,40,0,0
57473,-133.333333333333,4,2,0,30,0,0
57609,-100,4,2,0,50,0,0
57882,-133.333333333333,4,2,0,30,0,0
58155,-133.333333333333,4,2,0,20,0,0
58291,-133.333333333333,4,2,0,58,0,0
58564,-133.333333333333,4,2,0,48,0,0
58836,-133.333333333333,4,2,0,38,0,0
59109,-133.333333333333,4,2,0,28,0,0
59382,-100,4,1,1,60,0,0
59791,-100,4,2,0,40,0,0
59927,-100,4,1,1,60,0,0
60064,-100,4,2,0,40,0,0
60200,-100,4,1,1,60,0,0
60336,-100,4,1,0,40,0,0
60473,-100,4,1,1,60,0,0
60882,-100,4,2,0,40,0,0
61018,-100,4,3,1,60,0,0
61155,-100,4,2,0,40,0,0
61291,-100,4,3,0,60,0,0
61427,-100,4,2,0,40,0,0
61564,-100,4,1,0,60,0,0
61973,-100,4,1,1,65,0,0
62245,-100,4,2,0,75,0,0
62518,-100,4,1,0,40,0,0
62689,-100,4,2,0,40,0,0
63473,-50,4,1,0,75,0,0
63745,-83.3333333333333,4,1,1,75,0,1
64291,-83.3333333333333,4,1,0,75,0,1
64427,-83.3333333333333,4,2,0,75,0,1
64564,-83.3333333333333,4,1,1,75,0,1
64700,-83.3333333333333,4,2,0,75,0,1
64836,-83.3333333333333,4,1,1,75,0,1
64973,-83.3333333333333,4,2,0,75,0,1
65109,-83.3333333333333,4,1,1,75,0,1
65245,-83.3333333333333,4,2,0,75,0,1
65382,-83.3333333333333,4,1,1,75,0,1
65518,-83.3333333333333,4,2,0,75,0,1
65655,-83.3333333333333,4,1,1,75,0,1
65791,-83.3333333333333,4,2,0,75,0,1
65927,-83.3333333333333,4,1,1,75,0,1
66064,-83.3333333333333,4,2,0,75,0,1
66200,-83.3333333333333,4,1,1,75,0,1
66336,-83.3333333333333,4,2,0,75,0,1
66473,-83.3333333333333,4,1,1,75,0,1
66609,-83.3333333333333,4,2,0,75,0,1
66745,-83.3333333333333,4,1,1,75,0,1
66882,-83.3333333333333,4,2,0,75,0,1
67018,-83.3333333333333,4,1,1,75,0,1
67155,-83.3333333333333,4,2,0,75,0,1
67291,-83.3333333333333,4,1,1,75,0,1
67427,-83.3333333333333,4,2,0,75,0,1
67564,-83.3333333333333,4,1,1,75,0,1
67836,-83.3333333333333,4,1,1,80,0,1
68109,-83.3333333333333,4,1,1,75,0,1
68518,-83.3333333333333,4,2,0,75,0,1
68655,-83.3333333333333,4,1,1,75,0,1
68791,-83.3333333333333,4,2,0,75,0,1
68927,-83.3333333333333,4,1,1,75,0,1
69064,-83.3333333333333,4,2,0,75,0,1
69200,-83.3333333333333,4,1,1,75,0,1
69336,-83.3333333333333,4,2,0,75,0,1
69473,-83.3333333333333,4,1,1,75,0,1
69609,-83.3333333333333,4,2,0,75,0,1
69745,-83.3333333333333,4,1,1,75,0,1
69882,-83.3333333333333,4,2,0,75,0,1
70018,-83.3333333333333,4,1,1,75,0,1
70291,-83.3333333333333,4,2,0,75,0,1
70564,-71.4285714285714,4,1,0,75,0,1
70836,-83.3333333333333,4,2,0,75,0,1
71109,-76.9230769230769,4,1,0,75,0,1
71382,-83.3333333333333,4,2,0,100,0,1
71518,-83.3333333333333,4,2,0,75,0,1
71655,-83.3333333333333,4,2,0,100,0,1
71791,-83.3333333333333,4,2,0,75,0,1
71927,-83.3333333333333,4,2,0,100,0,1
72064,-83.3333333333333,4,2,0,75,0,1
72200,-83.3333333333333,4,1,0,75,0,1
72336,-83.3333333333333,4,2,0,75,0,1
72473,-83.3333333333333,4,1,1,75,0,1
72609,-83.3333333333333,4,2,0,75,0,1
72745,-83.3333333333333,4,1,1,75,0,1
72882,-83.3333333333333,4,2,0,75,0,1
73018,-83.3333333333333,4,1,1,75,0,1
73155,-83.3333333333333,4,2,0,75,0,1
73291,-83.3333333333333,4,1,1,75,0,1
73427,-83.3333333333333,4,2,0,75,0,1
73564,-83.3333333333333,4,1,1,75,0,1
73700,-83.3333333333333,4,2,0,75,0,1
73836,-83.3333333333333,4,1,1,75,0,1
73905,-83.3333333333333,4,2,0,75,0,1
74109,-83.3333333333333,4,1,1,75,0,1
74245,-83.3333333333333,4,2,0,75,0,1
74382,-83.3333333333333,4,1,1,75,0,1
74518,-83.3333333333333,4,2,0,75,0,1
74655,-83.3333333333333,4,1,1,75,0,1
74791,-83.3333333333333,4,2,0,75,0,1
74927,-83.3333333333333,4,1,1,75,0,1
75064,-83.3333333333333,4,2,0,75,0,1
75200,-83.3333333333333,4,1,1,75,0,1
75336,-83.3333333333333,4,2,0,75,0,1
75473,-83.3333333333333,4,1,1,75,0,1
75609,-83.3333333333333,4,2,0,75,0,1
75745,-83.3333333333333,4,1,1,75,0,1
75814,-83.3333333333333,4,2,0,75,0,1
76018,-83.3333333333333,4,1,1,75,0,1
76155,-83.3333333333333,4,2,0,75,0,1
76291,-83.3333333333333,4,1,1,50,0,1
76564,-83.3333333333333,4,2,0,75,0,1
76836,-83.3333333333333,4,1,1,75,0,1
76973,-83.3333333333333,4,2,0,75,0,1
77245,-83.3333333333333,4,1,1,75,0,1
77382,-83.3333333333333,4,2,0,75,0,1
77655,-52.6315789473684,4,1,1,75,0,1
77791,-83.3333333333333,4,2,0,75,0,1
78064,-50,4,1,1,75,0,1
78200,-83.3333333333333,4,2,0,75,0,1
78336,-83.3333333333333,4,1,1,75,0,1
78609,-83.3333333333333,4,2,0,75,0,1
78745,-83.3333333333333,4,1,1,65,0,1
78882,-83.3333333333333,4,2,0,75,0,1
79155,-83.3333333333333,4,1,1,65,0,1
79291,-83.3333333333333,4,2,0,65,0,1
79427,-83.3333333333333,4,1,1,65,0,1
79564,-83.3333333333333,4,2,0,65,0,1
79700,-83.3333333333333,4,1,0,65,0,1
79836,-83.3333333333333,4,2,0,65,0,1
80109,-100,4,1,0,75,0,0
80143,-100,4,2,0,40,0,0
80927,-50,4,1,0,75,0,0
81473,-133.333333333333,4,2,0,75,0,0
81609,-133.333333333333,4,2,0,40,0,0
81745,-133.333333333333,4,2,0,60,0,0
82155,-133.333333333333,4,2,0,30,0,0
82291,-133.333333333333,4,2,0,60,0,0
82564,-133.333333333333,4,2,0,40,0,0
82836,-133.333333333333,4,2,0,60,0,0
83109,-133.333333333333,4,2,0,40,0,0
83382,-133.333333333333,4,2,0,60,0,0
83655,-133.333333333333,4,2,0,40,0,0
83791,-133.333333333333,4,2,0,40,0,0
84064,-133.333333333333,4,2,0,35,0,0
84473,-133.333333333333,4,2,0,58,0,0
84745,-100,4,2,0,48,0,0
85018,-100,4,2,0,38,0,0
85291,-100,4,2,0,28,0,0
85564,-100,4,2,0,60,0,0
85836,-100,4,2,0,40,0,0
86655,-100,4,1,0,90,0,0
86689,-100,4,2,0,40,0,0
86723,-100,4,2,0,35,0,0
86757,-100,4,2,0,30,0,0
86791,-100,4,2,0,25,0,0
86825,-100,4,2,0,20,0,0
86859,-100,4,2,0,15,0,0
86893,-100,4,2,0,10,0,0
86927,-100,4,2,0,58,0,0
86961,-100,4,2,0,38,0,0
86995,-100,4,2,0,34,0,0
87030,-100,4,2,0,30,0,0
87064,-100,4,2,0,26,0,0
87098,-100,4,2,0,22,0,0
87132,-100,4,2,0,28,0,0
87166,-100,4,2,0,14,0,0
87200,-100,4,2,0,10,0,0
87405,-100,4,2,0,30,0,0
87473,-100,4,2,0,40,0,0
87745,-100,4,1,1,40,0,0
88018,-66.6666666666667,4,1,0,85,0,0
88155,-66.6666666666667,4,2,0,85,0,0
88291,-100,4,1,1,40,0,0
88564,-66.6666666666667,4,1,0,85,0,0
88700,-66.6666666666667,4,2,0,85,0,0
88836,-66.6666666666667,4,1,1,70,0,0
89143,-66.6666666666667,4,2,0,50,0,0
89655,-66.6666666666667,4,1,1,60,0,0
89927,-66.6666666666667,4,1,1,80,0,0
90200,-100,4,1,1,75,0,0
90336,-100,4,2,0,75,0,0
90473,-100,4,1,1,75,0,0
90609,-100,4,2,0,75,0,0
90745,-100,4,1,1,75,0,0
90882,-100,4,2,0,75,0,0
91018,-100,4,1,1,75,0,0
91155,-100,4,2,0,75,0,0
91291,-100,4,1,1,75,0,0
91427,-100,4,2,0,75,0,0
91564,-100,4,1,1,75,0,0
91836,-66.6666666666667,4,1,1,75,0,0
91973,-50,4,2,0,75,0,0
92109,-100,4,1,1,75,0,0
92382,-100,4,2,0,75,0,0
92655,-100,4,2,0,40,0,0
93200,-100,4,1,1,40,0,0
93268,-100,4,2,0,40,0,0
93336,-100,4,1,0,40,0,0
93405,-100,4,2,0,40,0,0
93473,-100,4,3,0,40,0,0
93541,-100,4,2,0,40,0,0
93609,-100,4,1,0,40,0,0
93677,-100,4,2,0,40,0,0
93745,-66.6666666666667,4,1,1,40,0,0
94018,-100,4,1,1,75,0,0
94700,-100,4,2,0,75,0,0
94836,-100,4,1,1,75,0,0
94973,-100,4,2,0,75,0,0
95109,-100,4,1,1,75,0,0
95245,-100,4,2,0,75,0,0
95382,-100,4,1,1,75,0,0
95518,-100,4,2,0,75,0,0
95655,-100,4,1,1,75,0,0
95927,-100,4,1,1,80,0,0
96473,-76.9230769230769,4,1,1,65,0,0
97018,-100,4,1,0,40,0,0
97223,-100,4,2,0,30,0,0
97564,-66.6666666666667,4,1,0,65,0,0
97700,-66.6666666666667,4,2,0,65,0,0
97836,-66.6666666666667,4,1,0,65,0,0
97973,-66.6666666666667,4,2,0,65,0,0
98109,-66.6666666666667,4,1,0,65,0,0
98382,-66.6666666666667,4,1,0,70,0,0
98655,-100,4,1,1,75,0,0
99064,-100,4,2,0,75,0,0
99200,-100,4,1,1,75,0,0
99336,-100,4,2,0,75,0,0
99473,-100,4,1,1,75,0,0
99609,-100,4,2,0,75,0,0
99745,-100,4,1,1,75,0,0
99882,-100,4,2,0,75,0,0
100018,-100,4,1,1,75,0,0
100155,-100,4,2,0,75,0,0
100291,-100,4,1,1,85,0,0
100836,-100,4,1,1,75,0,0
100973,-100,4,2,0,75,0,0
101382,-100,4,2,0,40,0,0
101927,-100,4,1,1,40,0,0
101995,-100,4,2,0,40,0,0
102745,-100,4,1,0,40,0,0
103018,-100,4,1,1,75,0,0
103427,-100,4,2,0,75,0,0
103564,-100,4,1,1,75,0,0
103700,-100,4,2,0,75,0,0
103836,-100,4,1,1,75,0,0
103973,-100,4,2,0,75,0,0
104109,-100,4,1,1,75,0,0
104245,-100,4,2,0,75,0,0
104382,-100,4,1,1,50,0,0
104655,-100,4,1,1,75,0,0
104791,-100,4,2,0,75,0,0
104927,-100,4,1,1,50,0,0
105336,-100,4,2,0,50,0,0
105473,-100,4,2,0,80,0,0
105609,-100,4,2,0,50,0,0
105745,-100,4,1,0,50,0,0
105814,-100,4,2,0,40,0,0
106291,-66.6666666666667,4,1,0,75,0,0
106427,-50,4,2,0,75,0,0
106564,-50,4,1,0,75,0,0
106700,-50,4,2,0,75,0,0
106836,-50,4,1,0,75,0,0
106973,-50,4,2,0,75,0,0
107109,-58.8235294117647,4,1,0,75,0,0
107518,-100,4,2,0,75,0,0
107791,-100,4,1,0,75,0,0
107927,-100,4,2,0,75,0,0
108200,-100,4,1,0,75,0,0
108336,-100,4,2,0,75,0,0
108473,-100,4,1,0,75,0,0
108541,-100,4,2,0,40,0,0
108609,-100,4,1,0,60,0,0
108745,-100,4,1,0,75,0,0
108882,-100,4,1,0,60,0,0
109018,-100,4,1,0,75,0,0
109086,-100,4,2,0,40,0,0
109155,-100,4,1,0,60,0,0
109291,-100,4,1,0,75,0,0
109359,-100,4,2,0,40,0,0
109427,-100,4,1,0,60,0,0
109564,-100,4,1,0,75,0,0
109700,-100,4,2,0,75,0,0
109973,-100,4,1,0,75,0,0
110109,-100,4,2,0,75,0,0
110382,-100,4,1,0,75,0,0
110518,-100,4,2,0,75,0,0
110655,-83.3333333333333,4,1,0,75,0,0
110791,-100,4,1,0,60,0,0
110927,-100,4,1,0,75,0,0
111064,-100,4,1,0,60,0,0
111200,-100,4,1,0,75,0,0
111336,-100,4,1,0,60,0,0
111473,-83.3333333333333,4,1,0,75,0,0
111609,-100,4,2,0,60,0,0
111745,-100,4,1,1,75,0,0
111882,-100,4,2,0,40,0,0
112291,-100,4,1,1,80,0,0
112427,-100,4,2,0,75,0,0
112564,-100,4,1,0,70,0,0
112700,-100,4,2,0,75,0,0
112836,-58.8235294117647,4,1,0,75,0,0
112973,-100,4,2,0,75,0,0
113382,-100,4,1,1,75,0,0
113518,-100,4,2,0,75,0,0
113927,-100,4,2,1,75,0,0
114064,-100,4,2,0,75,0,0
114200,-100,4,2,1,80,0,0
114336,-100,4,3,0,75,0,0
114745,-100,4,1,0,75,0,0
114882,-100,4,2,0,75,0,0
115018,-100,4,1,0,75,0,0
115291,-100,4,2,0,75,0,0
115836,-100,4,1,0,100,0,0

[Colours]
Combo1 : 184,113,255
Combo2 : 255,81,81
Combo3 : 89,242,242
Combo4 : 255,128,64

[HitObjects]
448,100,7018,5,4,0:3:0:0:
64,284,7427,5,4,0:3:0:0:
408,112,7836,5,2,0:0:0:0:
380,145,7905,1,2,0:0:0:0:
375,187,7973,1,2,0:0:0:0:
394,226,8041,1,2,0:0:0:0:
431,247,8109,6,0,P|311:251|229:118,1,256.099988276673,4|0,0:3|0:0,0:0:0:0:
372,80,8518,1,4,0:3:0:0:
104,96,8655,1,0,0:0:0:0:
56,144,8791,1,0,0:0:0:0:
45,211,8927,1,4,0:3:0:0:
75,272,9064,1,0,0:0:0:0:
134,305,9200,2,0,L|248:296,1,98.5,4|0,0:3|0:0,0:0:0:0:
472,112,9473,6,0,L|344:112,1,98.5,4|0,0:3|0:0,0:0:0:0:
232,200,9745,2,0,L|360:200,1,98.5,4|0,0:3|0:0,0:0:0:0:
480,312,10018,2,0,L|352:312,1,98.5,4|0,0:3|0:0,0:0:0:0:
144,40,10291,5,0,0:2:0:0:
100,61,10359,1,0,0:2:0:0:
77,104,10427,1,0,0:2:0:0:
83,152,10495,1,0,0:2:0:0:
116,188,10564,1,0,0:2:0:0:
148,224,10632,1,0,0:2:0:0:
154,272,10700,1,0,0:2:0:0:
131,314,10768,1,0,0:2:0:0:
88,336,10836,6,0,L|32:328,2,49.25,0|0|0,0:2|0:2|0:2,0:0:0:0:
336,380,11109,2,0,P|424:352|480:260,1,167.450003193855,6|0,0:0|0:0,0:0:0:0:
260,316,11382,5,0,0:0:0:0:
380,252,11518,1,4,0:3:0:0:
32,264,11655,2,0,L|19:166,1,98.5,0|4,0:0|0:3,0:0:0:0:
320,168,11927,2,0,L|333:266,1,98.5,0|0,0:0|0:0,0:0:0:0:
184,264,12200,2,0,L|171:166,1,98.5,4|0,0:3|0:0,0:0:0:0:
464,264,12473,6,0,L|528:280,2,49.25,2|0|0,0:1|0:0|0:0,0:0:0:0:
224,240,12745,6,0,L|104:240,1,98.5,2|0,0:0|0:0,0:0:0:0:
384,168,13018,6,0,L|448:184,2,49.25,2|0|0,0:1|0:0|0:0,0:0:0:0:
160,160,13291,6,0,L|96:176,2,49.25,2|0|0,0:1|0:0|0:0,0:0:0:0:
424,184,13564,6,0,L|496:296,2,98.5,4|0|0,0:3|0:0|0:0,0:0:0:0:
88,184,13973,2,0,L|16:296,2,98.5,4|0|0,0:3|0:0|0:0,0:0:0:0:
240,208,14382,2,0,L|256:320,1,98.5,4|0,0:3|0:0,0:0:0:0:
120,104,14655,6,0,L|264:104,1,118.199996392822,2|0,0:1|0:0,0:0:0:0:
480,192,14927,6,0,L|360:192,1,98.5,2|0,0:1|0:0,0:0:0:0:
240,256,15200,6,0,L|360:256,1,98.5,2|0,0:1|0:0,0:0:0:0:
448,320,15473,6,0,L|304:320,1,118.199996392822,2|0,0:1|0:0,0:0:0:0:
83,337,15745,5,8,0:2:0:0:
131,328,15882,1,0,0:0:0:0:
171,298,16018,1,0,0:0:0:0:
194,255,16155,1,4,0:3:0:0:
197,207,16291,1,8,0:2:0:0:
179,161,16427,1,0,0:0:0:0:
144,128,16564,1,0,0:0:0:0:
0,120,16700,1,0,0:0:0:0:
200,64,16836,5,2,0:2:0:0:
237,94,16904,1,2,0:2:0:0:
248,141,16972,1,2,0:2:0:0:
227,185,17040,1,2,0:2:0:0:
184,207,17108,1,2,0:2:0:0:
140,228,17177,1,2,0:2:0:0:
120,272,17245,1,2,0:2:0:0:
131,319,17313,1,2,0:2:0:0:
168,350,17382,2,0,L|280:350,1,98.5,8|0,0:2|0:0,0:0:0:0:
464,324,17655,2,0,P|488:260|480:220,1,98.5,2|2,0:2|0:0,0:0:0:0:
168,132,17927,6,0,L|80:200,2,98.5,8|4|0,0:2|0:3|0:0,0:0:0:0:
388,136,18336,2,0,L|476:204,2,98.5,0|4|0,0:0|0:3|0:0,0:0:0:0:
132,120,18745,2,0,L|36:196,1,98.5,0|0,0:0|0:0,0:0:0:0:
304,224,19018,5,4,0:3:0:0:
336,120,19291,5,2,0:0:0:0:
72,216,19564,5,0,0:0:0:0:
452,224,19836,5,4,0:3:0:0:
96,264,20109,6,0,L|240:264,1,98.5,12|0,0:2|0:0,0:0:0:0:
400,152,20382,1,8,0:2:0:0:
424,312,20518,1,0,0:0:0:0:
152,232,20655,2,0,L|53:232,1,98.5,8|0,0:2|0:0,0:0:0:0:
80,112,20927,2,0,L|178:112,1,98.5,8|0,0:2|0:0,0:0:0:0:
440,88,21200,5,14,0:2:0:0:
473,123,21268,1,2,0:0:0:0:
480,171,21336,1,2,0:0:0:0:
459,214,21405,1,2,0:0:0:0:
417,238,21473,2,0,L|312:240,1,98.5,8|0,0:2|0:0,0:0:0:0:
120,112,21745,1,8,0:2:0:0:
88,288,21882,1,0,0:0:0:0:
296,160,22018,1,8,0:2:0:0:
328,336,22155,1,0,0:0:0:0:
68,88,22291,5,14,0:2:0:0:
35,123,22359,1,2,0:0:0:0:
28,171,22427,1,2,0:0:0:0:
49,214,22495,1,2,0:0:0:0:
91,238,22564,2,0,L|196:240,1,98.5,8|0,0:2|0:0,0:0:0:0:
392,152,22836,2,0,L|497:154,1,98.5,8|0,0:2|0:0,0:0:0:0:
508,256,23109,2,0,L|403:258,1,98.5,8|0,0:2|0:0,0:0:0:0:
152,256,23382,6,0,L|40:208,2,98.5,8|0|8,0:2|0:0|1:2,0:0:0:0:
384,308,23791,2,0,L|496:260,2,98.5,0|2|0,0:0|0:0|0:0,0:0:0:0:
152,256,24200,6,0,B|64:248|64:248|84:84|84:84|200:128,1,334.900006387711,4|0,0:2|0:0,0:0:0:0:
464,320,24609,6,0,L|448:200,1,98.5,0|8,0:0|0:2,0:0:0:0:
248,280,24882,2,0,L|235:183,1,98.5,0|8,0:0|0:2,0:0:0:0:
24,232,25155,2,0,L|40:112,1,98.5,0|8,0:0|0:2,0:0:0:0:
308,360,25427,1,0,0:0:0:0:
464,320,25564,6,0,L|448:200,1,98.5,8|0,0:2|0:0,0:0:0:0:
80,296,25836,2,0,L|94:199,1,98.5,8|0,0:2|0:0,0:0:0:0:
360,308,26109,1,8,0:2:0:0:
488,232,26245,2,0,L|472:112,1,98.5,0|8,0:0|0:2,0:0:0:0:
320,72,26518,1,0,0:0:0:0:
120,32,26655,5,2,0:3:0:0:
75,51,26723,1,2,0:3:0:0:
49,92,26791,1,2,0:3:0:0:
52,141,26859,1,2,0:3:0:0:
81,180,26927,1,2,0:3:0:0:
110,218,26995,1,0,2:0:0:0:
112,267,27064,1,2,0:3:0:0:
86,308,27132,1,2,0:3:0:0:
42,328,27200,5,2,0:3:0:0:
192,360,27336,1,2,0:3:0:0:
136,296,27473,1,4,0:0:0:0:
288,352,27609,1,0,0:0:0:0:
232,272,27745,5,2,0:0:0:0:
376,304,28018,5,2,0:0:0:0:
144,208,28291,5,2,0:2:0:0:
432,220,28564,5,2,0:3:0:0:
192,32,28836,6,0,L|312:32,1,98.5,12|0,0:2|0:0,0:0:0:0:
156,120,29109,2,0,L|276:120,1,98.5,8|0,0:2|0:0,0:0:0:0:
128,208,29382,2,0,L|248:208,1,98.5,8|0,0:2|0:0,0:0:0:0:
448,144,29655,2,0,P|472:184|472:256,1,98.5,8|0,0:2|0:0,0:0:0:0:
352,320,29927,6,0,L|480:320,1,98.5,4|0,0:2|0:0,0:0:0:0:
316,228,30200,2,0,L|444:228,1,98.5,8|0,0:2|0:0,0:0:0:0:
280,128,30473,1,8,0:2:0:0:
384,72,30609,1,0,0:3:0:0:
168,64,30745,1,10,0:2:0:0:
123,100,30814,1,2,0:2:0:0:
114,155,30882,1,2,0:2:0:0:
142,202,30950,1,2,0:2:0:0:
193,214,31018,5,12,0:2:0:0:
328,200,31155,1,0,0:0:0:0:
128,288,31291,1,8,0:2:0:0:
8,272,31427,1,0,0:0:0:0:
376,280,31564,2,0,L|504:280,1,98.5,8|0,0:2|0:0,0:0:0:0:
448,184,31836,2,0,L|320:184,1,98.5,8|0,0:2|0:0,0:0:0:0:
136,280,32109,6,0,L|8:280,1,98.5,8|0,0:2|0:0,0:0:0:0:
64,184,32382,2,0,L|192:184,1,98.5,8|0,0:2|0:0,0:0:0:0:
16,56,32655,1,8,0:2:0:0:
168,24,32791,1,0,0:0:0:0:
371,101,32927,1,10,0:2:0:0:
415,129,32995,1,2,0:2:0:0:
433,178,33064,1,2,0:2:0:0:
417,226,33132,1,2,0:2:0:0:
376,256,33200,5,12,0:2:0:0:
208,128,33336,1,0,0:0:0:0:
168,24,33473,1,8,0:2:0:0:
368,240,33609,1,0,0:0:0:0:
400,360,33745,1,8,0:2:0:0:
200,160,33882,1,0,0:0:0:0:
56,192,34018,1,2,0:2:0:0:
26,241,34086,1,2,0:2:0:0:
30,299,34155,1,2,0:2:0:0:
68,344,34222,1,2,0:2:0:0:
125,357,34291,5,12,0:2:0:0:
264,312,34427,1,0,0:0:0:0:
120,264,34564,1,8,0:2:0:0:
144,152,34700,1,0,0:0:0:0:
368,240,34836,1,8,0:2:0:0:
328,104,34973,1,0,0:0:0:0:
101,148,35109,6,2,P|63:235|107:319,1,197,2|8,0:0|0:2,0:0:0:0:
240,296,35518,5,2,0:0:0:0:
272,232,35655,1,2,0:0:0:0:
176,164,35791,1,2,0:0:0:0:
64,132,35927,6,0,B|11:133|11:81|15:-27|123:17|251:101,1,310.274990531159,2|0,0:0|0:0,0:0:0:0:
392,76,36473,6,0,L|460:152,1,98.5,6|0,0:0|0:0,0:0:0:0:
248,92,36745,2,0,L|140:132,1,98.5,6|0,0:0|0:0,0:0:0:0:
400,152,37018,2,0,L|504:176,1,98.5,6|0,0:0|0:0,0:0:0:0:
180,196,37291,2,0,L|60:196,1,98.5,6|0,0:0|0:0,0:0:0:0:
368,264,37564,5,6,0:2:0:0:
402,262,37632,1,6,0:2:0:0:
432,247,37700,1,6,0:2:0:0:
454,220,37768,1,6,0:2:0:0:
463,188,37836,2,0,L|448:80,1,98.5,2|0,0:1|0:0,0:0:0:0:
64,88,38109,1,14,0:2:0:0:
40,104,38382,6,0,L|192:104,1,137.899995791626
376,32,38655,5,8,0:2:0:0:
408,68,38723,1,0,0:0:0:0:
418,116,38791,1,0,0:0:0:0:
402,162,38859,1,0,0:2:0:0:
366,194,38927,1,2,0:2:0:0:
329,226,38995,1,0,0:0:0:0:
313,272,39064,1,0,0:0:0:0:
323,319,39132,1,0,0:0:0:0:
356,356,39200,2,0,P|424:320|504:360,1,137.899995791626,8|0,0:2|0:0,0:0:0:0:
192,312,39473,2,0,P|120:280|44:316,1,137.899995791626,8|0,0:2|0:0,0:0:0:0:
376,32,39745,6,0,P|440:112|398:198,1,197,2|2,0:1|0:1,0:0:0:0:
168,216,40155,1,2,0:1:0:0:
40,128,40291,2,0,L|176:112,2,98.5,8|0|0,0:2|0:0|0:0,0:0:0:0:
104,288,40700,1,2,0:1:0:0:
376,32,40836,5,8,0:2:0:0:
408,68,40905,1,0,0:0:0:0:
418,116,40973,1,0,0:0:0:0:
402,162,41041,1,0,0:0:0:0:
366,194,41109,1,2,0:2:0:0:
329,226,41177,1,0,0:0:0:0:
313,272,41245,1,0,0:0:0:0:
323,319,41314,1,0,0:0:0:0:
356,356,41382,6,0,B|416:320|464:360|464:360|496:312,1,147.75,8|0,0:2|0:0,0:0:0:0:
304,256,41655,2,0,P|184:224|56:272,1,236.4,6|0,0:0|0:0,0:0:0:0:
40,232,41927,5,2,0:2:0:0:
22,186,41995,1,2,0:2:0:0:
31,138,42064,1,2,0:2:0:0:
62,101,42132,1,2,0:2:0:0:
108,85,42200,2,0,L|248:96,1,98.5,2|0,0:1|0:0,0:0:0:0:
499,153,42473,2,0,L|400:160,1,98.5,2|0,0:1|0:0,0:0:0:0:
112,176,42745,2,0,L|211:183,1,98.5,2|0,0:1|0:0,0:0:0:0:
430,348,43018,5,8,0:2:0:0:
461,310,43086,1,0,0:0:0:0:
471,263,43155,1,0,0:0:0:0:
456,216,43223,1,0,0:0:0:0:
421,182,43291,2,0,L|318:180,1,98.5,2|0,0:2|0:0,0:0:0:0:
31,138,43564,2,0,L|48:16,1,98.5,8|0,0:2|0:0,0:0:0:0:
248,240,43836,2,0,L|231:118,1,98.5,8|0,0:2|0:0,0:0:0:0:
16,288,44109,6,0,B|-8:216|20:160|40:136|60:120|80:80|148:44|168:144|236:128|296:132,1,394,4|0,0:3|0:0,0:0:0:0:
472,160,44791,1,0,0:0:0:0:
492,244,44927,1,0,0:0:0:0:
440,312,45064,1,0,0:0:0:0:
186,153,45200,6,0,P|120:104|24:96,1,147.750005636215,2|0,0:0|0:0,0:0:0:0:
392,176,45473,6,0,L|464:160,2,49.25,2|0|0,0:0|0:0|0:0,0:0:0:0:
160,200,45745,6,0,P|96:136|0:144,1,147.750005636215,2|0,0:0|0:0,0:0:0:0:
416,208,46018,6,0,L|488:172,2,64.0249970691682,2|0|0,0:0|0:0|0:0,0:0:0:0:
160,200,46291,5,2,0:2:0:0:
114,236,46359,1,2,0:2:0:0:
99,292,46427,1,2,0:2:0:0:
121,345,46495,1,2,0:2:0:0:
172,368,46564,2,0,L|288:368,1,98.5,6|0,0:1|0:0,0:0:0:0:
472,168,46836,2,0,P|464:104|344:64,1,197,14|0,0:2|0:0,0:0:0:0:
456,40,47245,1,0,0:0:0:0:
232,120,47382,6,0,L|120:104,2,98.5,8|0|0,0:2|0:0|0:0,0:0:0:0:
352,184,47791,1,0,0:0:0:0:
144,200,47927,2,0,L|32:184,1,98.5,0|0,0:0|0:0,0:0:0:0:
312,256,48200,2,0,L|424:240,1,98.5,0|0,0:0|0:0,0:0:0:0:
92,264,48473,6,0,P|36:216|112:104,1,197,2|2,0:0|0:0,0:0:0:0:
396,276,48882,2,0,L|512:276,2,98.5,2|8|0,0:0|1:2|0:0,0:0:0:0:
196,320,49291,2,0,L|98:322,1,98.5,2|2,0:1|0:1,0:0:0:0:
396,276,49564,5,8,0:0:0:0:
480,200,49700,1,0,0:0:0:0:
460,108,49836,1,2,0:2:0:0:
364,76,49973,1,0,0:0:0:0:
148,156,50109,6,0,B|84:128|84:128|56:40,1,147.750005636215,8|0,0:2|0:0,0:0:0:0:
312,84,50382,6,0,B|381:37|403:73|403:73|388:84|388:84|395:91|395:91|385:98|385:98|395:105|395:105|381:120|381:120|399:123|399:123|388:134|388:134|399:145|399:145|381:148|381:148|392:152|392:152|334:141|268:184,1,374.299990005112,6|2,0:1|0:2,0:0:0:0:
220,200,50723,5,2,0:2:0:0:
192,240,50791,1,2,0:2:0:0:
208,280,50859,1,2,0:2:0:0:
256,296,50927,1,2,0:1:0:0:
484,288,51200,1,2,0:1:0:0:
200,348,51473,2,0,L|101:341,1,98.5,2|0,0:0|0:0,0:0:0:0:
328,336,51745,5,2,0:2:0:0:
372,316,51814,1,2,0:2:0:0:
398,275,51882,1,2,0:2:0:0:
395,226,51950,1,2,0:2:0:0:
366,187,52018,1,2,0:2:0:0:
336,148,52086,1,0,0:0:0:0:
334,99,52155,1,0,0:0:0:0:
360,58,52223,1,0,0:0:0:0:
404,38,52291,6,0,L|512:40,1,98.5,8|0,0:2|0:0,0:0:0:0:
144,80,52564,2,0,L|36:82,1,98.5,8|0,0:2|0:0,0:0:0:0:
248,168,52836,5,6,0:0:0:0:
400,224,53245,5,6,0:0:0:0:
144,296,53518,5,6,0:0:0:0:
408,352,53791,5,6,0:0:0:0:
144,376,53927,5,10,0:2:0:0:
213,341,54064,1,0,0:0:0:0:
252,274,54200,1,8,0:2:0:0:
249,196,54336,1,4,0:3:0:0:
204,133,54473,1,0,0:0:0:0:
132,104,54609,1,0,0:0:0:0:
56,112,54745,6,0,L|224:112,1,147.750005636215,4|0,0:3|0:0,0:0:0:0:
464,112,55018,5,4,0:3:0:0:
352,192,55291,1,2,0:0:0:0:
496,248,55564,1,2,0:0:0:0:
256,328,55836,2,0,P|332:328|352:256,1,137.899995791626
72,112,56109,1,0,0:0:0:0:
180,164,56382,1,2,0:0:0:0:
36,244,56655,1,0,0:0:0:0:
288,236,56927,1,2,0:0:0:0:
76,184,57200,6,0,L|172:168,1,73.8750028181077,2|0,0:0|0:0,0:0:0:0:
0,200,57473,1,0,0:0:0:0:
200,104,57609,2,0,P|268:120|400:104,2,197,2|2|2,0:2|0:0|0:0,0:0:0:0:
440,312,58291,5,2,0:0:0:0:
356,272,58564,5,2,0:0:0:0:
428,224,58836,5,2,0:0:0:0:
368,356,59109,5,2,0:0:0:0:
392,148,59382,5,8,0:2:0:0:
160,80,59518,1,0,0:0:0:0:
16,168,59655,2,0,L|40:280,1,98.5,8|0,0:2|0:0,0:0:0:0:
296,272,59927,1,8,0:2:0:0:
440,184,60064,2,0,L|416:72,1,98.5,0|8,0:0|0:2,0:0:0:0:
264,56,60336,1,0,0:0:0:0:
48,248,60473,6,0,L|256:248,1,197,8|8,0:2|0:2,0:0:0:0:
136,176,60882,1,0,0:0:0:0:
272,160,61018,2,0,L|280:48,1,98.5,8|0,0:2|0:0,0:0:0:0:
112,144,61291,2,0,L|104:32,1,98.5,4|0,0:3|0:0,0:0:0:0:
352,32,61564,5,2,0:0:0:0:
48,168,61973,5,8,0:2:0:0:
280,232,62245,5,2,0:0:0:0:
94,315,62518,5,2,0:0:0:0:
341,332,62689,5,2,0:1:0:0:
376,303,62791,1,2,0:1:0:0:
398,263,62893,1,2,0:1:0:0:
404,218,62995,1,2,0:1:0:0:
393,174,63098,1,2,0:1:0:0:
366,137,63200,1,2,0:1:0:0:
328,112,63302,1,2,0:1:0:0:
283,103,63405,1,2,0:1:0:0:
243,111,63473,6,0,B|155:195|155:195|80:136,1,197,2|0,0:1|0:0,0:0:0:0:
312,192,63745,6,0,L|464:192,1,118.199996392822,12|0,0:2|0:0,0:0:0:0:
304,296,64018,2,0,P|176:264|160:144,1,236.399992785645,8|0,0:2|0:0,0:0:0:0:
264,140,64427,1,0,0:0:0:0:
16,176,64564,1,8,0:2:0:0:
128,104,64700,1,0,0:0:0:0:
336,184,64836,6,0,L|464:184,1,118.199996392822,8|0,0:2|0:0,0:0:0:0:
504,296,65109,1,0,0:0:0:0:
376,352,65245,1,0,0:0:0:0:
176,200,65382,2,0,L|48:200,1,118.199996392822,8|0,0:2|0:0,0:0:0:0:
8,88,65655,1,8,0:2:0:0:
176,40,65791,1,0,0:0:0:0:
416,72,65927,5,8,0:2:0:0:
448,184,66064,1,0,0:0:0:0:
184,128,66200,1,8,0:2:0:0:
92,208,66336,1,0,0:0:0:0:
348,304,66473,1,8,0:2:0:0:
480,304,66609,1,0,0:0:0:0:
208,328,66745,1,8,0:2:0:0:
64,320,66882,1,0,0:0:0:0:
24,200,67018,6,0,L|144:200,1,118.199996392822,8|0,0:2|0:0,0:0:0:0:
392,272,67291,1,8,0:2:0:0:
480,176,67427,1,0,0:0:0:0:
172,128,67564,6,0,L|120:256,1,118.199996392822,12|0,0:2|0:0,0:0:0:0:
408,204,67836,6,0,L|512:280,1,118.199996392822,12|0,0:2|0:0,0:0:0:0:
160,336,68109,5,12,0:2:0:0:
24,272,68245,2,0,L|30:154,1,118.199996392822,0|8,0:0|0:2,0:0:0:0:
288,128,68518,1,0,0:0:0:0:
424,192,68655,2,0,L|417:309,1,118.199996392822,8|0,0:2|0:0,0:0:0:0:
136,280,68927,2,0,L|129:162,1,118.199996392822,8|0,0:2|0:0,0:0:0:0:
272,96,69200,5,8,0:2:0:0:
264,152,69336,1,0,0:0:0:0:
56,208,69473,1,8,0:2:0:0:
40,264,69609,1,0,0:0:0:0:
320,296,69745,2,0,L|436:336,1,118.199996392822,8|0,0:2|0:0,0:0:0:0:
134,331,70018,2,0,L|16:328,1,118.199996392822,8|0,0:2|0:0,0:0:0:0:
296,240,70291,5,2,0:2:0:0:
338,213,70359,1,2,0:2:0:0:
358,167,70427,1,2,0:2:0:0:
345,116,70495,1,2,0:2:0:0:
303,84,70564,2,0,L|468:88,1,137.899995791626,4|0,0:2|0:0,0:0:0:0:
88,80,70836,5,2,0:0:0:0:
46,112,70905,1,2,0:0:0:0:
33,163,70973,1,2,0:0:0:0:
53,209,71041,1,2,0:0:0:0:
95,236,71109,2,0,L|244:236,1,128.049994138336,4|0,0:0|0:0,0:0:0:0:
464,296,71382,6,0,L|448:168,1,118.199996392822,2|0,0:1|0:0,0:0:0:0:
320,304,71655,6,0,L|304:176,1,118.199996392822,2|0,0:1|0:0,0:0:0:0:
472,304,71927,6,0,L|456:176,1,118.199996392822,2|0,0:1|0:0,0:0:0:0:
328,312,72200,6,0,L|312:184,1,118.199996392822,2|0,0:1|0:0,0:0:0:0:
40,304,72473,6,0,L|56:176,1,118.199996392822,12|0,0:2|0:0,0:0:0:0:
336,320,72745,2,0,L|320:192,1,118.199996392822,8|0,0:2|0:0,0:0:0:0:
200,144,73018,1,8,0:2:0:0:
336,88,73155,1,0,0:0:0:0:
120,48,73291,1,8,0:2:0:0:
16,128,73427,1,0,0:0:0:0:
144,192,73564,5,8,0:2:0:0:
48,272,73700,1,0,0:0:0:0:
297,247,73836,1,8,0:2:0:0:
338,217,73905,1,0,0:0:0:0:
354,169,73973,1,0,0:0:0:0:
336,120,74041,1,0,0:0:0:0:
292,92,74109,1,8,0:2:0:0:
440,128,74245,1,0,0:0:0:0:
200,192,74382,2,0,L|72:192,1,118.199996392822,8|0,0:2|0:0,0:0:0:0:
224,296,74655,6,0,L|240:168,1,118.199996392822,8|0,0:2|0:0,0:0:0:0:
88,320,74927,2,0,L|72:192,1,118.199996392822,8|0,0:2|0:0,0:0:0:0:
368,336,75200,1,8,0:2:0:0:
352,280,75336,1,0,0:0:0:0:
207,237,75473,1,8,0:2:0:0:
216,176,75609,1,0,0:0:0:0:
368,144,75745,6,0,L|428:196,2,59.0999981964112,8|0|0,0:2|0:0|0:0,0:0:0:0:
224,120,76018,1,8,0:2:0:0:
360,88,76155,1,0,0:0:0:0:
128,64,76291,6,0,P|64:32|-16:56,1,118.199996392822,0|0,0:2|0:0,0:0:0:0:
264,304,76564,1,2,0:0:0:0:
304,304,76632,1,2,0:0:0:0:
340,283,76700,1,2,0:0:0:0:
359,248,76768,1,2,0:0:0:0:
352,208,76836,5,12,0:2:0:0:
96,176,76973,1,0,0:0:0:0:
80,232,77245,5,12,0:2:0:0:
392,192,77382,1,0,0:0:0:0:
432,232,77655,5,12,0:2:0:0:
92,116,77791,1,0,0:0:0:0:
80,232,78064,5,8,0:2:0:0:
352,152,78200,2,0,L|472:184,1,118.199996392822,0|4,0:0|0:3,0:0:0:0:
208,316,78473,1,0,0:0:0:0:
80,232,78609,2,0,L|96:72,1,118.199996392822,0|8,0:0|0:2,0:0:0:0:
404,276,78882,1,4,0:3:0:0:
424,204,79155,5,12,0:2:0:0:
176,64,79291,2,0,L|36:92,1,118.199996392822,0|8,0:0|0:2,0:0:0:0:
32,232,79564,1,4,0:3:0:0:
260,344,79700,2,0,L|400:316,1,118.199996392822,0|4,0:0|0:3,0:0:0:0:
404,176,79973,1,0,0:0:0:0:
32,280,80109,6,0,L|8:248,22,24.625,4|0|0|0|0|0|0|0|0|0|0|0|0|0|0|0|0|0|0|0|0|0|0,0:2|0:0|0:0|0:0|0:0|0:0|0:0|0:0|0:0|0:0|0:0|0:0|0:0|0:0|0:0|0:0|0:0|0:0|0:0|0:0|0:0|0:0|0:0,0:0:0:0:
256,264,80927,6,0,B|336:236|336:236|336:272|336:272|336:272|336:272|356:272|356:272|336:272|336:272|352:280|352:280|348:308|348:308|368:300|368:300|264:280|164:300,1,394,4|4,0:2|0:2,0:0:0:0:
348,224,81473,6,0,L|436:208,1,73.8750028181077,2|0,0:0|0:0,0:0:0:0:
460,96,81745,1,2,0:0:0:0:
168,252,82018,2,0,L|80:236,1,73.8750028181077,2|0,0:0|0:0,0:0:0:0:
56,124,82290,1,2,0:0:0:0:
264,164,82564,1,2,0:0:0:0:
108,80,82836,1,2,0:0:0:0:
312,128,83109,1,2,0:0:0:0:
96,176,83382,6,0,P|88:112|136:32,1,147.750005636215,2|0,0:0|0:0,0:0:0:0:
352,232,83791,2,0,P|423:245|483:205,2,147.750005636215,2|0|2,0:0|0:0|0:0,0:0:0:0:
72,136,84473,5,0,0:0:0:0:
40,364,84745,5,2,0:0:0:0:
60,212,85018,5,2,0:0:0:0:
48,288,85291,5,2,0:0:0:0:
288,336,85564,6,0,P|384:336|448:248,1,197,2|2,0:0|0:0,0:0:0:0:
200,56,86109,2,0,P|104:56|40:144,1,197,2|2,0:0|0:0,0:0:0:0:
180,208,86518,1,2,0:0:0:0:
456,132,86655,6,0,L|462:99,22,24.625,4|0|0|0|0|0|0|0|0|0|0|0|0|0|0|0|0|0|0|0|0|0|0,0:2|0:0|0:0|0:0|0:0|0:0|0:0|0:0|0:0|0:0|0:0|0:0|0:0|0:0|0:0|0:0|0:0|0:0|0:0|0:0|0:0|0:0|0:0,0:0:0:0:
144,144,87473,5,2,0:0:0:0:
116,184,87541,1,2,0:0:0:0:
114,232,87609,1,2,0:0:0:0:
136,275,87677,1,2,0:0:0:0:
178,300,87745,5,8,0:2:0:0:
416,256,87882,1,8,0:2:0:0:
464,112,88018,1,6,0:2:0:0:
176,72,88155,1,0,0:0:0:0:
114,232,88291,5,8,0:2:0:0:
392,280,88427,1,8,0:2:0:0:
488,152,88564,1,6,0:2:0:0:
224,92,88701,1,0,0:0:0:0:
164,172,88836,6,0,B|360:176,1,147.750005636215,8|0,0:2|0:0,0:0:0:0:
52,258,89143,1,2,0:1:0:0:
46,238,89245,1,2,0:1:0:0:
43,218,89348,1,2,0:1:0:0:
47,199,89450,1,2,0:1:0:0:
55,181,89552,1,2,0:1:0:0:
66,165,89655,1,2,0:1:0:0:
436,288,89927,5,12,0:2:0:0:
200,232,90200,6,0,L|332:232,1,98.5,8|0,0:2|0:0,0:0:0:0:
336,136,90473,2,0,L|204:136,1,98.5,8|0,0:2|0:0,0:0:0:0:
172,44,90745,2,0,L|304:44,1,98.5,8|0,0:2|0:0,0:0:0:0:
500,244,91018,6,0,L|372:244,1,98.5,8|0,0:2|0:0,0:0:0:0:
152,236,91291,2,0,L|54:236,1,98.5,8|0,0:2|0:0,0:0:0:0:
192,200,91564,1,8,0:2:0:0:
214,156,91632,1,0,0:0:0:0:
212,107,91700,1,0,0:0:0:0:
186,66,91768,1,0,0:0:0:0:
144,41,91836,2,0,B|32:40|32:40|32:96,1,147.750005636215,8|0,0:2|0:0,0:0:0:0:
328,136,92109,5,4,0:2:0:0:
141,127,92382,1,2,0:1:0:0:
117,144,92450,1,0,0:1:0:0:
99,167,92518,1,0,0:1:0:0:
89,195,92586,1,0,0:1:0:0:
88,224,92655,1,2,0:1:0:0:
97,252,92723,1,2,0:1:0:0:
114,276,92791,1,2,0:1:0:0:
138,293,92859,1,2,0:1:0:0:
176,304,92927,2,0,L|246:294,1,49.25,2|2,0:1|0:1,0:0:0:0:
304,296,93064,2,0,L|374:286,1,49.25,2|2,0:1|0:1,0:0:0:0:
423,336,93200,5,8,0:2:0:0:
455,300,93268,1,0,0:0:0:0:
462,251,93336,1,0,0:0:0:0:
440,208,93405,1,0,0:0:0:0:
397,185,93473,1,0,0:0:0:0:
354,162,93541,1,0,0:0:0:0:
332,119,93609,1,0,0:0:0:0:
339,70,93677,1,0,0:0:0:0:
371,34,93745,2,0,B|416:80|416:80|448:32|504:64,1,147.750005636215,8|0,0:2|0:0,0:0:0:0:
200,112,94018,5,12,0:2:0:0:
20,192,94291,5,12,0:2:0:0:
372,328,94564,6,0,L|470:328,1,98.5,8|0,0:2|0:0,0:0:0:0:
496,216,94836,1,8,0:2:0:0:
364,196,94973,1,0,0:0:0:0:
16,148,95109,1,8,0:2:0:0:
140,124,95245,1,0,0:2:0:0:
480,72,95382,6,0,L|464:200,1,98.5,8|0,0:2|0:0,0:0:0:0:
336,104,95655,2,0,L|352:232,1,98.5,8|0,0:2|0:0,0:0:0:0:
496,328,95927,1,8,0:2:0:0:
368,360,96064,1,0,0:0:0:0:
32,224,96200,2,0,L|136:224,1,98.5,8|0,0:2|0:0,0:0:0:0:
400,208,96473,6,0,L|256:208,1,128.049994138336,8|0,0:2|0:0,0:0:0:0:
52,144,96745,1,8,0:2:0:0:
260,72,97018,5,2,0:2:0:0:
297,85,97086,1,2,0:2:0:0:
325,113,97155,1,2,0:2:0:0:
340,150,97223,1,2,0:2:0:0:
340,188,97291,1,2,0:2:0:0:
326,224,97359,1,2,0:2:0:0:
299,253,97427,1,2,0:2:0:0:
263,268,97495,1,2,0:2:0:0:
220,264,97564,5,2,0:1:0:0:
496,136,97700,2,0,L|480:312,1,147.750005636215,0|2,0:0|0:1,0:0:0:0:
72,280,97973,1,0,0:0:0:0:
48,136,98109,6,0,L|192:88,1,147.750005636215,2|0,0:1|0:0,0:0:0:0:
220,312,98382,2,0,L|76:264,1,147.750005636215,2|0,0:1|0:0,0:0:0:0:
48,136,98655,5,12,0:2:0:0:
472,128,98927,2,0,L|352:112,1,98.5,8|0,0:2|0:0,0:0:0:0:
232,240,99200,2,0,L|352:224,1,98.5,8|0,0:2|0:0,0:0:0:0:
456,352,99473,1,8,0:2:0:0:
320,328,99609,1,0,0:0:0:0:
24,176,99745,5,8,0:2:0:0:
48,320,99882,1,0,0:0:0:0:
192,312,100018,1,8,0:2:0:0:
176,168,100155,1,0,0:0:0:0:
40,316,100291,5,8,0:2:0:0:
56,172,100427,1,0,0:0:0:0:
504,320,100564,5,8,0:2:0:0:
488,176,100700,1,0,0:0:0:0:
256,96,100836,6,0,B|64:136|64:136|248:200,1,344.75,8|0,0:2|0:0,0:0:0:0:
336,168,101382,5,2,0:2:0:0:
369,175,101450,1,2,0:2:0:0:
395,197,101518,1,2,0:2:0:0:
408,228,101586,1,2,0:2:0:0:
406,262,101655,1,2,0:2:0:0:
388,291,101723,1,2,0:2:0:0:
358,309,101791,1,2,0:2:0:0:
324,311,101859,1,2,0:2:0:0:
128,296,101927,5,10,0:2:0:0:
80,285,101995,1,2,0:2:0:0:
43,253,102064,1,2,0:2:0:0:
27,207,102132,1,2,0:2:0:0:
35,159,102200,1,2,0:2:0:0:
65,121,102268,1,2,0:2:0:0:
110,103,102336,1,2,0:2:0:0:
159,109,102405,1,2,0:2:0:0:
198,138,102473,1,2,0:2:0:0:
336,168,102609,1,0,0:0:0:0:
108,140,102745,2,0,P|92:88|176:56,1,147.75
416,80,103018,6,0,P|486:144|464:235,1,197,12|8,0:2|0:2,0:0:0:0:
248,248,103427,1,0,0:0:0:0:
120,200,103564,2,0,P|72:216|40:280,1,98.5
336,224,103836,2,0,L|312:96,1,98.5,8|0,0:2|0:0,0:0:0:0:
44,76,104109,6,0,L|29:173,1,98.5,8|0,0:2|0:0,0:0:0:0:
248,272,104382,1,2,0:2:0:0:
284,237,104450,1,2,0:2:0:0:
304,192,104518,1,2,0:2:0:0:
297,137,104586,1,2,0:2:0:0:
264,96,104655,5,10,0:2:0:0:
136,80,104791,1,0,0:2:0:0:
400,120,104927,1,2,0:0:0:0:
410,130,104961,1,2,0:0:0:0:
417,143,104995,1,2,0:0:0:0:
422,157,105030,1,2,0:0:0:0:
424,171,105064,1,2,0:0:0:0:
422,186,105098,1,2,0:0:0:0:
417,200,105132,1,2,0:1:0:0:
184,96,105200,5,12,0:2:0:0:
80,144,105336,1,0,0:0:0:0:
40,248,105473,1,6,0:1:0:0:
72,344,105609,1,0,0:0:0:0:
385,340,105745,1,6,0:1:0:0:
422,309,105814,1,0,0:0:0:0:
435,262,105882,1,0,0:0:0:0:
417,217,105950,1,0,0:0:0:0:
376,192,106018,1,0,0:0:0:0:
335,167,106086,1,0,0:0:0:0:
317,122,106155,1,0,0:0:0:0:
330,75,106223,1,0,0:0:0:0:
367,44,106291,6,0,L|504:136,1,147.750005636215,2|0,0:1|0:0,0:0:0:0:
232,168,106564,6,0,B|184:96|184:96|168:160|88:168,1,197,2|0,0:1|0:0,0:0:0:0:
344,272,106836,6,0,B|440:264|440:264|400:200|488:176,1,197,2|0,0:1|0:0,0:0:0:0:
176,352,107109,5,6,0:1:0:0:
136,312,107382,5,4,0:3:0:0:
272,312,107518,1,0,0:0:0:0:
480,264,107655,2,0,L|493:166,1,98.5,0|4,0:0|0:3,0:0:0:0:
205,166,107927,2,0,L|192:264,1,98.5,0|0,0:0|0:0,0:0:0:0:
336,264,108200,2,0,L|349:166,1,98.5,4|0,0:3|0:0,0:0:0:0:
48,264,108473,6,0,L|-16:280,2,49.25,2|0|0,0:1|0:0|0:0,0:0:0:0:
288,240,108745,6,0,L|408:240,1,98.5,2|0,0:0|0:0,0:0:0:0:
128,168,109018,6,0,L|64:184,2,49.25,2|0|0,0:1|0:0|0:0,0:0:0:0:
352,160,109291,6,0,L|416:176,2,49.25,2|0|0,0:1|0:0|0:0,0:0:0:0:
88,184,109564,6,0,L|75:281,1,98.5,4|0,0:3|0:0,0:0:0:0:
320,272,109836,2,0,L|306:175,1,98.5,0|4,0:0|0:3,0:0:0:0:
448,280,110109,2,0,L|461:183,1,98.5
312,176,110382,2,0,L|298:273,1,98.5,4|0,0:3|0:0,0:0:0:0:
392,104,110655,6,0,L|248:104,1,118.199996392822,2|0,0:1|0:0,0:0:0:0:
32,192,110927,6,0,L|152:192,1,98.5,2|0,0:1|0:0,0:0:0:0:
272,256,111200,6,0,L|152:256,1,98.5,2|0,0:1|0:0,0:0:0:0:
64,320,111473,6,0,L|208:320,1,118.199996392822,2|0,0:1|0:0,0:0:0:0:
424,336,111745,5,8,0:2:0:0:
376,327,111882,1,0,0:0:0:0:
336,297,112018,1,0,0:0:0:0:
313,254,112155,1,4,0:3:0:0:
310,206,112291,1,8,0:2:0:0:
328,160,112427,1,0,0:0:0:0:
363,127,112564,1,0,0:0:0:0:
496,104,112700,1,0,0:0:0:0:
292,48,112836,6,0,L|212:112,1,83.7250015969277,2|2,0:2|0:2,0:0:0:0:
164,112,112973,1,0,0:2:0:0:
28,224,113109,2,0,L|140:224,1,98.5,0|0,0:0|0:0,0:0:0:0:
448,272,113382,2,0,L|336:272,1,98.5,8|0,0:2|0:0,0:0:0:0:
144,328,113655,1,2,0:0:0:0:
111,292,113723,1,2,0:0:0:0:
104,244,113791,1,2,0:0:0:0:
126,201,113859,1,2,0:0:0:0:
168,177,113927,5,10,0:2:0:0:
296,200,114064,1,0,0:0:0:0:
184,256,114200,1,8,0:2:0:0:
140,96,114336,1,4,0:0:0:0:
368,144,114473,2,0,P|384:184|368:256,1,98.5
129,70,114745,2,0,L|112:168,1,98.5,4|0,0:3|0:0,0:0:0:0:
440,88,115018,5,4,0:3:0:0:
296,200,115291,5,2,0:0:0:0:
464,192,115564,5,0,0:0:0:0:
72,88,115836,5,4,0:3:0:0:
