osu file format v14

[General]
AudioFilename: Crack Traxxxx.mp3
AudioLeadIn: 0
PreviewTime: 63745
Countdown: 0
SampleSet: Soft
StackLeniency: 0.7
Mode: 0
LetterboxInBreaks: 0
EpilepsyWarning: 1
WidescreenStoryboard: 0

[Editor]
DistanceSpacing: 1.2
BeatDivisor: 2
GridSize: 4
TimelineZoom: 1

[Metadata]
Title:Crack Traxxxx
TitleUnicode:Crack Traxxxx
Artist:Lite Show Magic (t+pazolite vs C-Show)
ArtistUnicode:Lite Show Magic (t+pazolite vs C-Show)
Creator:Fatfan Kolek
Version:Easy
Source:SOUND VOLTEX II -infinite infection-
Tags:t+pazolite c-show TKSalt TKS Dariano Fanzhen0019 Oracle Natsu P_A_N Aka EvilElvis Gero Onosakihito DJNightmare Fast Spectator sukiNathan Okoratu
BeatmapID:348549
BeatmapSetID:139525

[Difficulty]
HPDrainRate:1
CircleSize:3
OverallDifficulty:2
ApproachRate:3
SliderMultiplier:0.7
SliderTickRate:1

[Events]
//Background and Video events
0,0,"bg.jpg",0,0
//Break Periods
2,55218,57942
2,81400,84124
//Storyboard Layer 0 (Background)
//Storyboard Layer 1 (Fail)
//Storyboard Layer 2 (Pass)
//Storyboard Layer 3 (Foreground)
Sprite,Foreground,Centre,"SB/glowmap.png",320,240 P,0,0,119170,A F,0,2382,,0 M,0,2655,,320,240 S,0,2655,,0.7963637 F,0,2655,4836,1,0 F,0,7018,7291,1,0 F,0,7427,9200,1,0 F,0,12473,12609,1,0 F,0,12745,12882,1,0 F,0,13018,13155,1,0 F,0,13291,13427,1,0 F,0,14655,14791,1,0 F,0,14927,15064,1,0 F,0,15200,15336,1,0 F,0,15473,15609,1,0 F,0,15745,,0.08145462 F,0,15882,,0.4319658 F,0,16018,,0.6533606 F,0,16155,,0.9287182 F,0,16291,16836,1,0 F,0,16905,,0.5032727 F,0,16973,,0.1803636 F,0,17041,,0.5789091 F,0,17109,,0.2065455 F,0,17177,,0.7301819 F,0,17245,,0.1396364 F,0,17314,,0.7883637 F,0,17382,17927,1,0 F,0,19836,20041,1,0 F,0,20109,22291,1,0 F,0,24200,24473,1,0 F,0,30745,,1 F,0,30814,,0 F,0,30882,,1 F,0,30950,,0 F,0,32927,,1 F,0,32995,,0 F,0,33064,,1 F,0,33132,,0 F,0,34018,,1 F,0,34086,,0 F,0,34155,,1 F,0,34223,,0 F,2,35109,35382,0.2589091,1 F,0,35382,36405,1,0 F,0,36473,36677,1,0 F,0,36745,36950,1,0 F,0,37018,37223,1,0 F,0,37291,37495,1,0 F,0,55018,57200,1,0 F,0,62689,,1 F,0,62723,,0 F,0,62791,,1 F,0,62825,,0 F,0,62893,,1 F,0,62927,,0 F,0,62995,,1 F,0,63030,,0 F,0,63098,,1 F,0,63132,,0 F,0,63200,,1 F,0,63234,,0 F,0,63302,,1 F,0,63336,,0 F,0,63405,,1 F,0,63439,,0 F,0,63473,63745,1,0 F,0,67564,67791,1,0 F,0,67836,68064,1,0 F,0,71382,71620,1,0 F,0,71655,71893,1,0 F,0,71927,72166,1,0 F,0,72200,72439,1,0 F,0,76291,,0.3309091 F,0,76359,,0 F,0,76427,,0.674909 F,0,76495,,0 F,0,76564,,1 F,0,76598,,0 F,0,76632,,1 F,0,76666,,0 F,0,76700,,1 F,0,76734,,0 F,0,76768,,1 F,0,76802,,0 F,0,80927,81064,1,0 F,0,81200,82291,1,0 F,0,87745,87814,0.1716364,0 F,0,87882,87950,0.3316363,0 F,0,88018,88223,1,0 F,0,88291,88359,0.1396364,0 F,0,88427,88495,0.3141819,0 F,0,88564,88768,1,0 F,0,88836,89586,1,0 F,0,89655,89927,1,0 F,0,107382,107655,0.5789091,0 F,0,107791,108064,1,0 F,0,108200,108405,0.994909,0 F,0,108473,108950,1,0 F,0,109018,109495,1,0 F,0,109564,109905,1,0 F,0,109973,110245,1,0 F,0,110382,110586,0.9163637,0 F,0,110655,111132,1,0 F,0,111200,111677,1,0 F,0,115836,116109,1,0
Sprite,Foreground,Centre,"SB/glowmap.png",320,240 P,0,0,119170,A F,0,63677,,0 S,0,63745,,0.7963637 F,0,63745,63984,1,0 F,0,64018,64257,1,0 F,0,64291,64530,1,0 F,0,64564,64803,1,0 F,0,64836,65075,1,0 F,0,65109,65348,1,0 F,0,65382,65621,1,0 F,0,65655,65894,1,0 F,0,65927,66166,1,0 F,0,66200,66439,1,0 F,0,66473,66712,1,0 F,0,66745,66984,1,0 F,0,67018,67257,1,0 F,0,67291,67530,1,0 F,0,68109,68348,1,0 F,0,68382,68621,1,0 F,0,68655,68894,1,0 F,0,68927,69166,1,0 F,0,69200,69439,1,0 F,0,69473,69712,1,0 F,0,69745,69984,1,0 F,0,70018,70257,1,0 F,0,70291,70530,1,0 F,0,70564,70803,1,0 F,0,70836,71075,1,0 F,0,71109,71348,1,0 F,0,72473,72712,1,0 F,0,72745,72984,1,0 F,0,73018,73257,1,0 F,0,73291,73530,1,0 F,0,73564,73803,1,0 F,0,73836,74075,1,0 F,0,74109,74348,1,0 F,0,74382,74621,1,0 F,0,74655,74894,1,0 F,0,74927,75166,1,0 F,0,75200,75439,1,0 F,0,75473,75712,1,0 F,0,75745,75984,1,0 F,0,76018,76257,1,0 F,0,76836,77075,1,0 F,0,77245,77484,1,0 F,0,77655,77894,1,0 F,0,78064,78303,1,0 F,0,78336,78575,1,0
Sprite,Foreground,Centre,"SB/glowmap.png",320,240 P,0,0,119170,A S,0,63745,,0.7963637 F,0,78405,,0 F,0,78473,78712,1,0 F,0,79155,79394,1,0 F,0,79427,79666,1,0 F,0,79700,79939,1,0 F,0,79973,80212,1,0
Sprite,Foreground,Centre,"SB/glowmap.png",320,240 P,0,0,119170,A S,0,63745,,0.7963637 F,0,80041,,0 F,0,80109,80348,1,0 F,0,100836,101382,0.541091,0
//Storyboard Sound Samples

[TimingPoints]
2655,272.727272727273,4,2,0,80,1,0
63745,-100,4,2,0,80,0,1
81200,-100,4,2,0,80,0,0

[Colours]
Combo1 : 128,0,255
Combo2 : 255,0,0
Combo3 : 0,255,255
Combo4 : 255,128,64

[HitObjects]
208,152,7018,6,0,P|256:132|304:152,1,105,8|8,2:0|2:0,0:0:0:0:
256,192,8109,12,2,10291,0:1:0:0:
208,232,11382,6,0,P|256:212|304:232,2,105,4|0|0,0:0|0:0|1:0,0:0:0:0:
140,284,12473,2,0,P|124:220|160:160,1,140,2|2,0:3|0:3,0:0:0:0:
312,88,13564,2,0,P|360:108|408:88,2,105,4|0|0,0:0|0:0|1:0,0:0:0:0:
260,20,14655,2,0,P|228:76|252:148,1,140,2|2,0:3|0:3,0:0:0:0:
396,220,15745,6,0,B|388:288|388:288|356:300|340:340,1,140,2|4,2:0|0:0,0:0:0:0:
172,340,16836,2,0,B|156:301|124:289|124:289|116:221,1,140,0|4,1:0|0:0,0:0:0:0:
148,56,17927,2,0,B|100:44|100:44|40:44,2,105,4|2|0,1:0|0:0|0:0,0:0:0:0:
188,132,19018,2,0,P|256:116|324:132,1,140,2|2,0:0|0:0,0:0:0:0:
340,300,20109,6,0,P|388:332|468:336,2,140,0|0|0,1:0|1:0|1:0,0:0:0:0:
256,156,21745,1,0,1:0:0:0:
172,300,22291,2,0,P|124:332|44:336,2,140,0|0|0,1:0|1:0|1:0,0:0:0:0:
220,140,23927,6,0,B|256:136|256:136|292:140,1,70,0|4,1:0|1:0,0:0:0:0:
372,128,24473,2,0,B|440:112|440:112|476:52,2,140,0|0|0,1:0|1:0|1:0,0:0:0:0:
256,248,26109,1,0,1:0:0:0:
140,128,26655,2,0,B|72:112|72:112|36:52,2,140,2|2|4,0:0|0:0|0:0,0:0:0:0:
228,272,28291,6,0,B|264:276|264:276|300:272,1,70,4|4,0:0|0:0,0:0:0:0:
356,208,28836,2,0,B|384:192|412:196|412:196|432:156|412:116,2,140,0|2|2,1:0|2:0|2:0,0:0:0:0:
256,344,30473,1,2,2:0:0:0:
156,208,31018,2,0,B|128:192|100:196|100:196|80:156|100:116,2,140,2|2|2,0:0|0:0|0:0,0:0:0:0:
256,344,32655,6,0,B|320:292|304:220,1,140,2|0,0:0|1:0,0:0:0:0:
136,196,33745,1,2,0:0:0:0:
68,144,34018,2,0,B|60:108|60:108|60:72,2,70,0|0|2,1:0|1:0|0:0,0:0:0:0:
136,196,34836,1,2,0:0:0:0:
256,80,35382,2,0,P|324:64|392:80,1,140,0|0,1:0|1:0,0:0:0:0:
476,224,36473,6,0,B|467:260|427:272|427:272|385:280|382:317,2,140,2|2|0,0:3|0:3|1:0,0:0:0:0:
388,80,38109,1,4,0:0:0:0:
292,216,38655,2,0,B|224:216|224:216|184:232|152:216,1,140,2|2,0:0|0:0,0:0:0:0:
76,68,39745,2,0,B|144:68|144:68|184:52|216:68,1,140,2|4,0:1|1:0,0:0:0:0:
368,132,40836,6,0,B|404:124|404:124|432:104,2,70,4|0|0,0:0|0:0|1:0,0:0:0:0:
200,152,41927,2,0,P|160:204|200:255,1,140,0|4,1:0|0:0,0:0:0:0:
364,212,43018,2,0,B|396:228|396:228|412:260|412:260|412:296|412:296|396:324,2,140,2|2|0,0:0|0:0|1:0,0:0:0:0:
256,84,44655,1,0,1:0:0:0:
112,168,45200,6,0,L|58:221,2,70,4|4|4,1:0|1:0|1:0,0:0:0:0:
36,316,46291,2,0,B|92:336|92:336|128:320|172:320,1,140,0|4,1:0|0:0,0:0:0:0:
341,320,47382,2,0,B|384:320|420:336|420:336|476:316,2,140,2|2|2,0:0|0:0|0:1,0:0:0:0:
256,176,49018,1,4,1:0:0:0:
104,104,49564,6,0,B|48:92|48:92|10:18,2,140,4|4|0,0:0|1:0|1:0,0:0:0:0:
176,148,50927,2,0,B|212:152|212:152|248:148,1,70,4|0,0:0|0:0,0:0:0:0:
408,104,51745,2,0,B|449:136|449:136|449:229,1,140,0|4,1:0|1:0,0:0:0:0:
256,192,52836,12,4,55018,1:0:0:0:
296,152,59382,6,0,P|344:132|392:152,2,105,0|0|8,1:0|0:0|1:0,0:0:0:0:
220,192,60473,2,0,P|172:212|124:192,2,105,0|0|8,1:0|0:0|1:0,0:0:0:0:
296,228,61564,2,0,P|344:248|392:228,2,105,4|4|0,1:0|1:0|0:0,0:0:0:0:
220,192,62655,2,0,P|172:108|68:116,1,210,0|4,0:0|0:0,0:0:0:0:
36,192,63745,6,0,B|36:268|36:268|88:304,1,140,6|2,1:0|1:0,0:0:0:0:
168,336,64564,2,0,L|240:336,1,70,2|0,0:0|0:0,0:0:0:0:
380,244,65382,2,0,P|420:192|380:140,1,140,2|4,1:0|0:0,0:0:0:0:
220,88,66473,2,0,B|148:72|148:72|72:88,1,140,0|6,0:0|0:0,0:0:0:0:
100,252,67564,6,0,B|136:256|136:256|172:252,1,70,4|6,1:2|1:2,0:0:0:0:
252,268,68109,2,0,P|320:268|380:308,2,140,6|2|0,0:0|0:0|0:0,0:0:0:0:
92,324,69745,2,0,L|88:254,1,70,2|0,0:0|1:0,0:0:0:0:
60,176,70291,2,0,B|84:144|92:112|92:112|120:128|156:112|156:112|192:128|220:112|220:112|232:144|260:176,1,280,4|4,0:3|1:2,0:0:0:0:
380,292,71927,1,6,1:2:0:0:
460,144,72473,6,0,B|432:80|432:80|396:88|360:80,1,140,4|2,1:0|0:0,0:0:0:0:
256,208,73564,1,0,0:0:0:0:
149,80,74109,2,0,B|116:88|80:80|80:80|52:144,2,140,0|4|4,0:0|0:0|0:0,0:0:0:0:
308,28,75745,2,0,B|340:68|340:68|340:156,1,140,2|6,0:0|0:2,0:0:0:0:
324,324,76836,6,0,B|338:306|338:306|396:301|396:301|411:283,2,105,4|6|6,1:2|1:2|1:2,0:0:0:0:
196,324,78064,2,0,B|182:306|182:306|124:301|124:301|110:283,2,105,6|6|6,1:2|0:2|0:2,0:0:0:0:
256,192,79155,12,4,81200,1:0:0:0:
404,192,85564,6,0,P|356:211|309:193,2,105,2|0|0,0:0|0:0|0:0,0:0:0:0:
456,128,86655,2,0,B|428:96|416:64|416:64|388:80|352:64|352:64|316:80|288:64|288:64|280:96|256:128,1,280,4|4,0:1|0:0,0:0:0:0:
100,192,88291,1,4,0:0:0:0:
192,332,88836,2,0,B|248:288|248:288|388:288,1,210,4|4,0:0|0:0,0:0:0:0:
460,248,89927,6,0,B|460:192|460:192|444:152|400:136,1,140,0|0,1:0|1:0,0:0:0:0:
256,220,91018,1,0,1:0:0:0:
112,136,91564,2,0,B|68:152|52:192|52:192|52:248,2,140,4|0|0,0:0|1:0|1:0,0:0:0:0:
256,48,93200,2,0,B|320:48|320:48|332:84|364:108,1,140,2|2,0:0|0:0,0:0:0:0:
452,252,94291,6,0,P|424:320|360:340,1,140,0|0,1:0|1:0,0:0:0:0:
256,212,95382,1,0,1:0:0:0:
146,340,95927,2,0,P|83:315|60:251,2,140,4|0|0,0:0|1:0|0:0,0:0:0:0:
316,336,97564,1,4,1:0:0:0:
364,268,97836,2,0,B|384:240|384:240|416:224,2,70,4|4|4,1:0|1:0|1:0,0:0:0:0:
316,336,98655,6,0,B|256:336|256:336|240:292|200:272,1,140,0|0,1:0|1:0,0:0:0:0:
208,108,99745,2,0,B|241:91|257:47|257:47|317:47,1,140,0|4,1:0|0:0,0:0:0:0:
256,192,100836,12,0,103018,1:0:0:0:
341,202,104109,6,0,L|265:202,1,70,0|0,1:0|1:0,0:0:0:0:
172,204,104655,2,0,B|141:265|141:265|173:329,2,140,4|4|0,1:0|1:0|1:0,0:0:0:0:
256,58,106291,2,0,B|328:58|328:58|372:110,1,140,4|4,1:0|1:0,0:0:0:0:
256,236,107382,6,0,P|304:256|352:236,2,105,6|6|4,1:0|1:0|2:0,0:0:0:0:
188,288,108473,2,0,P|172:224|208:164,1,140,4|4,1:0|1:0,0:0:0:0:
360,104,109564,2,0,P|408:124|456:104,2,105,6|6|4,1:0|1:0|0:0,0:0:0:0:
308,36,110655,2,0,P|276:88|296:160,1,140,4|4,1:0|1:0,0:0:0:0:
440,232,111745,6,0,B|436:276|436:276|384:284|344:308,1,140,0|4,1:0|0:0,0:0:0:0:
176,308,112836,2,0,B|137:285|85:277|85:277|81:233,1,140,4|2,1:0|0:3,0:0:0:0:
256,192,113927,12,4,115836,0:0:0:0:
