osu file format v14

[General]
AudioFilename: Crack Traxxxx.mp3
AudioLeadIn: 0
PreviewTime: 63745
Countdown: 0
SampleSet: Soft
StackLeniency: 0.3
Mode: 0
LetterboxInBreaks: 0
EpilepsyWarning: 1
WidescreenStoryboard: 0

[Editor]
Bookmarks: 7018,55427,81200,95927,96200,96473,96745,97018,100836,101109,101382,101518,101655,101791,101927,102200,102336,102473,117200
DistanceSpacing: 1.2
BeatDivisor: 4
GridSize: 4
TimelineZoom: 2.5

[Metadata]
Title:Crack Traxxxx
TitleUnicode:Crack Traxxxx
Artist:Lite Show Magic (t+pazolite vs C-Show)
ArtistUnicode:Lite Show Magic (t+pazolite vs C-Show)
Creator:Fatfan Kolek
Version:Akalvis' Insane
Source:SOUND VOLTEX II -infinite infection-
Tags:t+pazolite c-show TKSalt TKS Dariano Fanzhen0019 Oracle Natsu P_A_N Aka EvilElvis Gero Onosakihito DJNightmare Fast Spectator sukiNathan Okoratu
BeatmapID:457833
BeatmapSetID:139525

[Difficulty]
HPDrainRate:6
CircleSize:4
OverallDifficulty:7.5
ApproachRate:9
SliderMultiplier:1.6
SliderTickRate:2

[Events]
//Background and Video events
0,0,"bg.jpg",0,0
//Break Periods
//Storyboard Layer 0 (Background)
//Storyboard Layer 1 (Fail)
//Storyboard Layer 2 (Pass)
//Storyboard Layer 3 (Foreground)
Sprite,Foreground,Centre,"SB/glowmap.png",320,240 P,0,0,119170,A F,0,2382,,0 M,0,2655,,320,240 S,0,2655,,0.7963637 F,0,2655,4836,1,0 F,0,7018,7291,1,0 F,0,7427,9200,1,0 F,0,12473,12609,1,0 F,0,12745,12882,1,0 F,0,13018,13155,1,0 F,0,13291,13427,1,0 F,0,14655,14791,1,0 F,0,14927,15064,1,0 F,0,15200,15336,1,0 F,0,15473,15609,1,0 F,0,15745,,0.08145462 F,0,15882,,0.4319658 F,0,16018,,0.6533606 F,0,16155,,0.9287182 F,0,16291,16836,1,0 F,0,16905,,0.5032727 F,0,16973,,0.1803636 F,0,17041,,0.5789091 F,0,17109,,0.2065455 F,0,17177,,0.7301819 F,0,17245,,0.1396364 F,0,17314,,0.7883637 F,0,17382,17927,1,0 F,0,19836,20041,1,0 F,0,20109,22291,1,0 F,0,24200,24473,1,0 F,0,30745,,1 F,0,30814,,0 F,0,30882,,1 F,0,30950,,0 F,0,32927,,1 F,0,32995,,0 F,0,33064,,1 F,0,33132,,0 F,0,34018,,1 F,0,34086,,0 F,0,34155,,1 F,0,34223,,0 F,2,35109,35382,0.2589091,1 F,0,35382,36405,1,0 F,0,36473,36677,1,0 F,0,36745,36950,1,0 F,0,37018,37223,1,0 F,0,37291,37495,1,0 F,0,55018,57200,1,0 F,0,62689,,1 F,0,62723,,0 F,0,62791,,1 F,0,62825,,0 F,0,62893,,1 F,0,62927,,0 F,0,62995,,1 F,0,63030,,0 F,0,63098,,1 F,0,63132,,0 F,0,63200,,1 F,0,63234,,0 F,0,63302,,1 F,0,63336,,0 F,0,63405,,1 F,0,63439,,0 F,0,63473,63745,1,0 F,0,67564,67791,1,0 F,0,67836,68064,1,0 F,0,71382,71620,1,0 F,0,71655,71893,1,0 F,0,71927,72166,1,0 F,0,72200,72439,1,0 F,0,76291,,0.3309091 F,0,76359,,0 F,0,76427,,0.674909 F,0,76495,,0 F,0,76564,,1 F,0,76598,,0 F,0,76632,,1 F,0,76666,,0 F,0,76700,,1 F,0,76734,,0 F,0,76768,,1 F,0,76802,,0 F,0,80927,81064,1,0 F,0,81200,82291,1,0 F,0,87745,87814,0.1716364,0 F,0,87882,87950,0.3316363,0 F,0,88018,88223,1,0 F,0,88291,88359,0.1396364,0 F,0,88427,88495,0.3141819,0 F,0,88564,88768,1,0 F,0,88836,89586,1,0 F,0,89655,89927,1,0 F,0,107382,107655,0.5789091,0 F,0,107791,108064,1,0 F,0,108200,108405,0.994909,0 F,0,108473,108950,1,0 F,0,109018,109495,1,0 F,0,109564,109905,1,0 F,0,109973,110245,1,0 F,0,110382,110586,0.9163637,0 F,0,110655,111132,1,0 F,0,111200,111677,1,0 F,0,115836,116109,1,0
Sprite,Foreground,Centre,"SB/glowmap.png",320,240 P,0,0,119170,A F,0,63677,,0 S,0,63745,,0.7963637 F,0,63745,63984,1,0 F,0,64018,64257,1,0 F,0,64291,64530,1,0 F,0,64564,64803,1,0 F,0,64836,65075,1,0 F,0,65109,65348,1,0 F,0,65382,65621,1,0 F,0,65655,65894,1,0 F,0,65927,66166,1,0 F,0,66200,66439,1,0 F,0,66473,66712,1,0 F,0,66745,66984,1,0 F,0,67018,67257,1,0 F,0,67291,67530,1,0 F,0,68109,68348,1,0 F,0,68382,68621,1,0 F,0,68655,68894,1,0 F,0,68927,69166,1,0 F,0,69200,69439,1,0 F,0,69473,69712,1,0 F,0,69745,69984,1,0 F,0,70018,70257,1,0 F,0,70291,70530,1,0 F,0,70564,70803,1,0 F,0,70836,71075,1,0 F,0,71109,71348,1,0 F,0,72473,72712,1,0 F,0,72745,72984,1,0 F,0,73018,73257,1,0 F,0,73291,73530,1,0 F,0,73564,73803,1,0 F,0,73836,74075,1,0 F,0,74109,74348,1,0 F,0,74382,74621,1,0 F,0,74655,74894,1,0 F,0,74927,75166,1,0 F,0,75200,75439,1,0 F,0,75473,75712,1,0 F,0,75745,75984,1,0 F,0,76018,76257,1,0 F,0,76836,77075,1,0 F,0,77245,77484,1,0 F,0,77655,77894,1,0 F,0,78064,78303,1,0 F,0,78336,78575,1,0
Sprite,Foreground,Centre,"SB/glowmap.png",320,240 P,0,0,119170,A S,0,63745,,0.7963637 F,0,78405,,0 F,0,78473,78712,1,0 F,0,79155,79394,1,0 F,0,79427,79666,1,0 F,0,79700,79939,1,0 F,0,79973,80212,1,0
Sprite,Foreground,Centre,"SB/glowmap.png",320,240 P,0,0,119170,A S,0,63745,,0.7963637 F,0,80041,,0 F,0,80109,80348,1,0 F,0,100836,101382,0.541091,0
//Storyboard Sound Samples

[TimingPoints]
2655,272.727272727273,4,2,0,80,1,0
12473,-83.3333333333333,4,2,0,80,0,0
13564,-100,4,2,0,80,0,0
14655,-83.3333333333333,4,2,0,80,0,0
15745,-100,4,2,0,80,0,0
19836,-83.3333333333333,4,2,0,80,0,0
20109,-100,4,2,0,80,0,0
22018,-100,4,1,0,80,0,0
22291,-100,4,2,0,80,0,0
22564,-100,4,1,0,80,0,0
22768,-100,4,2,0,80,0,0
23927,-133.333333333333,4,2,0,80,0,0
24200,-83.3333333333333,4,2,0,80,0,0
24473,-100,4,2,0,80,0,0
26382,-75.187969924812,4,2,0,80,0,0
26655,-100,4,2,0,80,0,0
27473,-133.333333333333,4,2,0,80,0,0
27745,-83.3333333333333,4,2,0,80,0,0
28836,-100,4,2,0,80,0,0
35109,-76.9230769230769,4,2,0,80,0,0
36473,-83.3333333333333,4,2,0,80,0,0
37564,-100,4,2,0,80,0,0
41655,-83.3333333333333,4,2,0,80,0,0
41927,-100,4,2,0,80,0,0
42200,-83.3333333333333,4,2,0,80,0,0
42882,-100,4,2,0,80,0,0
44109,-200,4,2,0,80,0,0
45200,-83.3333333333333,4,2,0,80,0,0
47109,-100,4,2,0,80,0,0
48473,-92.8505106778087,4,2,0,80,0,0
50382,-83.3333333333333,4,2,0,80,0,0
50927,-100,4,2,0,80,0,0
55018,-76.9230769230769,4,2,0,80,0,0
55291,-100,4,2,0,80,0,0
55564,-125,4,2,0,80,0,0
58291,-153.846153846154,4,2,0,80,0,0
58836,-200,4,2,0,80,0,0
59041,-200,4,2,0,40,0,0
59382,-83.3333333333333,4,2,0,80,0,0
59791,-100,4,2,0,80,0,0
62655,-90.9090909090909,4,2,0,80,0,0
63473,-76.9230769230769,4,2,0,80,0,0
63745,-100,4,2,0,80,0,1
67564,-83.3333333333333,4,2,0,80,0,0
68109,-100,4,2,0,80,0,1
71382,-83.3333333333333,4,2,0,80,0,0
72473,-100,4,2,0,80,0,1
76291,-83.3333333333333,4,2,0,80,0,0
76836,-100,4,2,0,80,0,1
80109,-200,4,2,0,80,0,0
80927,-76.9230769230769,4,2,0,80,0,1
81200,-133.333333333333,4,2,0,80,0,0
84609,-133.333333333333,4,2,0,30,0,0
84745,-153.846153846154,4,2,0,80,0,0
84882,-153.846153846154,4,2,0,30,0,0
85018,-181.818181818182,4,2,0,80,0,0
85155,-181.818181818182,4,2,0,30,0,0
85291,-200,4,2,0,80,0,0
85427,-200,4,2,0,30,0,0
85564,-133.333333333333,4,2,0,80,0,0
86927,-200,4,2,0,80,0,0
87745,-100,4,2,0,80,0,0
88018,-76.9230769230769,4,2,0,80,0,0
88291,-100,4,2,0,80,0,0
88564,-76.9230769230769,4,2,0,80,0,0
88836,-100,4,2,0,80,0,0
89655,-76.9230769230769,4,2,0,80,0,0
89927,-100,4,2,0,80,0,0
91564,-76.9230769230769,4,2,0,80,0,0
92109,-133.333333333333,4,2,0,80,0,0
92927,-100,4,2,0,80,0,0
94018,-76.9230769230769,4,2,0,80,0,0
94291,-100,4,2,0,80,0,0
95927,-76.9230769230769,4,2,0,80,0,0
96200,-100,4,2,0,80,0,0
96473,-100,4,2,0,80,0,0
97155,-133.333333333333,4,2,0,80,0,0
97564,-76.9230769230769,4,2,0,80,0,0
98655,-100,4,2,0,80,0,0
100291,-76.9230769230769,4,2,0,80,0,0
100836,-133.333333333333,4,2,0,80,0,0
101927,-100,4,2,0,80,0,0
103018,-76.9230769230769,4,2,0,80,0,0
103427,-100,4,2,0,80,0,0
105473,-83.3333333333333,4,2,0,80,0,0
107382,-100,4,2,0,80,0,0
108473,-83.3333333333333,4,2,0,80,0,0
109564,-100,4,2,0,80,0,0
110655,-83.3333333333333,4,2,0,80,0,0
111745,-100,4,2,0,80,0,0
112291,-100,4,2,0,80,0,0
115836,-83.3333333333333,4,2,0,80,0,0

[Colours]
Combo1 : 128,0,255
Combo2 : 255,0,0
Combo3 : 0,255,255
Combo4 : 255,128,64

[HitObjects]
38,218,7018,6,0,L|22:54,1,160,4|0,1:0|0:0,0:0:0:0:
114,312,7427,2,0,L|130:148,1,160,4|0,1:0|0:0,0:0:0:0:
202,34,7836,2,0,L|214:79,4,40,2|2|2|0|4,0:0|0:0|0:0|0:0|0:0,0:0:0:0:
256,192,8177,12,0,10291,0:0:0:0:
21,200,11109,6,0,B|156:188,1,120,12|0,1:0|0:0,0:0:0:0:
197,222,11382,2,0,L|104:215,1,80,4|0,1:2|0:0,0:0:0:0:
65,286,11655,1,0,0:0:0:0:
275,343,11791,2,0,B|312:352|312:352|365:344,1,80,4|0,1:2|0:0,0:0:0:0:
413,261,12064,1,0,0:0:0:0:
352,179,12200,2,0,B|311:171|311:171|259:186,1,80,4|0,1:2|0:0,0:0:0:0:
490,291,12473,6,0,B|484:234|484:234|497:214|497:214|485:132,1,143.999995605469,6|0,1:0|0:1,0:0:0:0:
482,70,12745,2,0,B|412:55|412:55|333:81,1,143.999995605469,6|0,1:0|0:0,0:0:0:0:
239,160,13018,2,0,B|309:175|309:175|388:149,1,143.999995605469,6|0,1:0|0:0,0:0:0:0:
270,82,13291,2,0,B|200:67|200:67|121:93,1,143.999995605469,6|0,1:0|0:0,0:0:0:0:
102,57,13564,6,0,L|93:150,1,80,4|0,1:2|0:0,0:0:0:0:
28,213,13836,1,0,0:0:0:0:
165,317,13973,2,0,L|174:224,1,80,4|0,1:2|0:0,0:0:0:0:
239,161,14245,1,0,0:0:0:0:
15,118,14382,1,4,1:2:0:0:
15,118,14518,1,0,0:0:0:0:
28,213,14655,6,0,P|86:191|107:103,1,143.999995605469,6|0,1:0|0:0,0:0:0:0:
177,32,14927,2,0,P|196:99|259:127,1,143.999995605469,6|0,1:0|0:0,0:0:0:0:
320,216,15200,2,0,P|252:231|220:293,1,143.999995605469,6|0,1:0|0:0,0:0:0:0:
156,369,15473,2,0,P|123:307|55:293,1,143.999995605469,6|0,1:0|0:0,0:0:0:0:
55,292,15745,6,0,L|47:199,1,80,2|0,0:0|0:0,0:0:0:0:
214,229,16018,2,0,L|206:136,1,80,2|0,0:0|0:0,0:0:0:0:
108,115,16291,1,10,1:2:0:0:
17,190,16427,2,0,L|4:25,1,160,0|0,0:0|0:0,0:0:0:0:
103,18,16836,6,0,P|143:20|189:31,1,80,4|0,0:0|0:0,0:0:0:0:
294,137,17109,2,0,P|255:135|208:124,1,80,8|0,1:2|0:0,0:0:0:0:
345,67,17382,2,0,P|378:140|337:223,1,160,4|2,1:2|0:0,0:0:0:0:
281,266,17791,1,2,0:0:0:0:
341,329,17927,6,0,P|379:337|421:332,1,80,4|0,3:0|0:0,0:0:0:0:
507,234,18200,1,0,0:0:0:0:
507,234,18336,2,4,P|469:242|427:237,1,80,4|0,1:2|0:0,1:2:0:0:
294,149,18609,1,0,0:0:0:0:
294,149,18745,2,0,P|332:157|374:152,1,80,4|4,1:3|0:0,0:0:0:0:
503,66,19018,5,2,1:0:0:0:
503,66,19291,1,2,0:1:0:0:
503,66,19564,2,0,L|514:20,2,40,2|2|0,0:0|0:0|0:0,0:0:0:0:
503,66,19836,6,0,L|343:45,1,143.999995605469,14|0,0:0|0:0,0:0:0:0:
360,47,20109,6,0,L|261:55,1,80,0|2,1:0|0:1,0:0:0:0:
331,239,20382,2,0,L|231:246,1,80,0|2,1:0|0:1,0:0:0:0:
215,108,20655,2,0,L|115:115,1,80,2|0,1:0|0:0,0:0:0:0:
173,280,20928,2,0,L|73:287,1,80,0|2,1:0|0:1,0:0:0:0:
31,195,21200,6,0,L|130:202,1,80,0|2,1:0|0:1,0:0:0:0:
66,355,21473,2,0,L|165:362,1,80,2|0,1:0|0:0,0:0:0:0:
205,188,21746,2,0,L|304:195,1,80,2|0,1:0|0:0,0:0:0:0:
240,351,22019,2,2,L|383:364,1,120,4|0,1:2|2:0,0:0:0:0:
388,366,22291,6,0,P|399:320|384:286,1,80,2|0,1:0|0:0,0:0:0:0:
511,186,22564,2,2,P|433:214|348:172,1,160,0|0,1:0|1:0,0:0:0:0:
320,101,22973,1,2,0:1:0:0:
378,23,23109,2,0,P|417:15|468:28,1,80,2|0,1:0|0:0,0:0:0:0:
510,97,23382,5,4,1:2:0:0:
510,97,23518,1,2,0:1:0:0:
488,279,23655,2,0,B|496:318|496:318|479:361,1,80,0|4,1:0|0:2,0:0:0:0:
326,366,23927,6,0,B|306:330|306:330|320:269,1,90.0000034332277,2|0,1:0|0:0,0:0:0:0:
271,208,24200,6,0,B|351:197|351:197|411:277,1,143.999995605469,14|0,1:0|0:0,0:0:0:0:
416,216,24473,6,0,L|402:314,1,80,4|2,1:0|0:1,0:0:0:0:
191,229,24745,2,0,L|205:131,1,80,2|0,1:0|0:0,0:0:0:0:
288,49,25018,2,0,L|311:144,1,80,0|2,1:0|0:1,0:0:0:0:
99,121,25291,2,0,L|117:43,1,80,0|2,1:0|0:1,0:0:0:0:
206,75,25564,5,0,1:0:0:0:
206,75,25700,1,2,0:1:0:0:
190,227,25836,2,0,P|130:251|31:206,1,160,2|2,1:0|1:0,0:0:0:0:
21,327,26245,1,0,0:0:0:0:
261,334,26382,6,0,L|270:171,1,159.599993424683,2|0,1:0|0:0,0:0:0:0:
253,139,26655,6,0,L|297:145,4,40,2|2|2|0|2,0:0|0:0|0:0|0:0|0:0,0:0:0:0:
376,184,27064,1,2,0:0:0:0:
459,145,27200,2,0,B|471:108|471:108|455:59,1,80,0|4,1:0|3:0,0:0:0:0:
201,11,27473,6,0,B|178:49|178:49|189:103,1,90.0000034332277,2|0,0:0|0:0,0:0:0:0:
143,112,27745,6,0,B|267:126|267:126|238:136,1,143.999995605469,6|0,1:0|0:0,0:0:0:0:
188,189,28018,2,0,L|44:172,1,143.999995605469,6|0,1:0|0:0,0:0:0:0:
4,240,28291,2,0,B|76:251|76:251|56:262,1,95.9999970703126,6|4,1:0|0:0,0:0:0:0:
230,357,28564,2,0,B|158:346|158:346|177:334,1,95.9999970703126,6|0,0:0|0:0,0:0:0:0:
325,328,28836,6,0,P|342:290|334:242,1,80,2|4,1:0|0:0,0:0:0:0:
461,246,29109,2,0,P|428:236|392:198,1,80,2|4,1:0|0:0,0:0:0:0:
344,374,29382,2,0,P|361:336|353:288,1,80,2|4,1:0|0:0,0:0:0:0:
480,292,29655,2,0,P|447:282|411:244,1,80,2|4,1:0|0:0,0:0:0:0:
493,358,29927,6,0,L|510:186,1,160,2|2,1:0|1:0,0:0:0:0:
457,112,30336,1,2,1:0:0:0:
506,36,30473,2,0,B|467:23|467:23|417:37,1,80,2|4,1:0|0:0,0:0:0:0:
353,188,30745,2,0,B|392:201|392:201|442:187,1,80,2|2,0:0|0:0,0:0:0:0:
356,92,31018,6,0,L|263:111,1,80,2|4,1:0|0:0,0:0:0:0:
212,35,31291,2,0,L|182:113,1,80,2|4,1:0|0:0,0:0:0:0:
86,149,31564,2,0,L|176:196,1,80,2|4,1:0|0:0,0:0:0:0:
123,271,31836,2,0,L|234:249,1,80,2|2,1:0|0:1,0:0:0:0:
263,326,32109,6,0,L|286:238,1,80,0|2,1:0|0:1,0:0:0:0:
381,273,32382,2,0,L|338:185,1,80,2|2,1:0|0:1,0:0:0:0:
48,196,32655,2,0,L|17:323,1,120,4|0,1:2|0:0,0:0:0:0:
106,328,32927,2,0,L|101:281,3,40,2|2|2|2,0:0|0:0|0:0|0:0,0:0:0:0:
163,384,33200,6,0,P|181:351|181:300,1,80,6|4,1:0|0:0,0:0:0:0:
298,286,33473,2,0,P|261:268|240:210,1,80,2|4,1:0|0:0,0:0:0:0:
151,210,33745,2,0,P|181:167|182:137,1,80,2|4,1:0|0:0,0:0:0:0:
280,85,34018,2,0,P|252:79|238:72,3,40,2|2|2|2,0:0|0:0|0:0|0:0,0:0:0:0:
298,104,34291,6,0,L|428:93,1,120,6|0,1:0|0:0,0:0:0:0:
417,93,34564,2,0,L|504:109,1,80,2|4,1:0|0:0,0:0:0:0:
511,192,34836,2,0,B|486:228|486:228|504:324,1,120,2|0,1:0|0:0,0:0:0:0:
438,350,35109,6,0,B|385:342|385:342|357:361|357:361|268:344,1,155.999992858887,4|0,1:2|0:0,0:0:0:0:
250,361,35382,5,4,1:0:0:0:
250,361,36473,2,0,B|234:291|279:260|279:260|254:269|226:267,1,143.999995605469,4|0,1:0|0:0,0:0:0:0:
174,295,36745,2,0,P|112:309|53:242,1,143.999995605469,4|0,1:0|0:0,0:0:0:0:
53,163,37018,2,0,P|102:114|170:126,1,143.999995605469,4|0,1:0|0:0,0:0:0:0:
128,206,37291,2,0,L|144:37,1,143.999995605469,4|0,3:0|0:0,0:0:0:0:
168,32,37564,6,0,L|212:38,3,40,2|2|2|2,1:2|1:2|1:2|1:2,0:0:0:0:
150,19,37836,2,0,L|63:38,1,80,4|0,1:2|0:0,0:0:0:0:
222,118,38109,2,0,L|309:99,1,80,8|0,0:0|0:0,0:0:0:0:
391,133,38382,1,2,0:0:0:0:
476,175,38518,1,2,0:0:0:0:
476,175,38655,6,0,P|485:142|468:87,1,80,0|0,1:0|0:0,0:0:0:0:
319,182,38927,2,0,P|309:220|318:258,1,80,2|2,0:0|0:1,0:0:0:0:
473,354,39200,2,0,P|482:315|472:277,1,80,2|2,1:0|0:0,0:0:0:0:
394,309,39473,1,2,0:1:0:0:
394,309,39609,1,2,0:1:0:0:
249,354,39745,6,0,B|112:338,1,120,4|0,0:2|0:0,0:0:0:0:
105,357,40018,2,0,P|97:328|114:267,1,80,2|2,1:0|0:1,0:0:0:0:
14,199,40291,2,0,P|81:228|166:190,1,160,4|0,0:2|0:0,0:0:0:0:
255,240,40700,1,2,0:1:0:0:
255,240,40836,6,0,B|279:145|232:186|261:69,1,160,4|2,3:0|1:0,0:0:0:0:
326,21,41245,1,0,0:0:0:0:
375,103,41382,2,0,P|433:91|489:111,1,120,4|0,1:2|0:0,0:0:0:0:
503,71,41655,6,0,L|483:223,1,143.999995605469,6|0,1:0|0:0,0:0:0:0:
496,236,41927,2,0,L|452:242,3,40,2|2|2|2,1:2|1:2|1:2|1:2,0:0:0:0:
481,260,42200,2,0,L|368:269,1,95.9999970703126,12|0,1:2|0:0,0:0:0:0:
138,336,42473,2,0,L|281:327,1,143.999995605469,4|0,1:2|0:0,0:0:0:0:
296,347,42745,2,0,P|309:298|290:237,1,95.9999970703126,0|0,1:0|0:0,0:0:0:0:
347,173,43018,6,0,P|316:160|245:178,1,80,4|2,1:0|0:0,0:0:0:0:
183,197,43291,1,2,0:0:0:0:
183,197,43427,1,2,1:2:0:0:
106,262,43564,2,0,P|60:270|23:262,1,80,4|0,1:2|0:0,0:0:0:0:
23,137,43836,2,0,P|69:129|106:137,1,80,4|0,0:0|0:0,0:0:0:0:
183,197,44109,6,0,B|238:172|368:147|257:270|399:254|477:206,1,300,4|0,3:0|0:0,0:0:0:0:
485,149,45200,6,0,L|466:305,1,143.999995605469,4|0,1:0|0:0,0:0:0:0:
510,315,45473,2,0,P|441:312|375:350,1,143.999995605469,4|0,1:0|0:0,0:0:0:0:
294,356,45745,2,0,L|123:348,1,143.999995605469,4|0,1:0|0:0,0:0:0:0:
51,362,46018,1,6,1:0:0:0:
51,362,46291,6,0,L|39:313,3,47.9999985351563,2|2|2|2,1:2|1:2|1:2|1:2,0:0:0:0:
66,319,46564,2,0,L|35:174,1,143.999995605469,4|0,1:2|0:0,0:0:0:0:
66,190,46836,2,0,L|46:88,1,95.9999970703126,8|0,1:2|0:0,0:0:0:0:
122,35,47109,2,0,P|163:24|205:36,1,80,2|2,0:0|0:0,0:0:0:0:
294,42,47382,6,0,P|236:77|249:167,1,160,0|2,1:0|0:0,0:0:0:0:
315,224,47791,1,2,0:0:0:0:
287,315,47927,2,0,P|245:313|203:333,1,80,2|0,1:0|0:0,0:0:0:0:
109,249,48200,2,0,P|165:244|199:255,1,80,2|2,0:1|0:1,0:0:0:0:
395,360,48473,6,0,L|407:210,1,129.240001439594,4|0,1:2|0:0,0:0:0:0:
503,229,48745,2,0,B|510:189|510:189|448:164,1,86.160000959729,2|2,1:0|0:1,0:0:0:0:
315,224,49018,2,0,B|310:165|310:165|387:151,1,129.240001439594,4|0,3:0|0:0,0:0:0:0:
402,133,49291,1,2,0:1:0:0:
494,86,49427,1,2,0:1:0:0:
403,33,49564,6,0,L|296:26,1,86.160000959729,0|2,1:0|0:1,0:0:0:0:
218,130,49836,2,0,L|303:124,1,86.160000959729,0|2,0:0|0:1,0:0:0:0:
174,51,50109,2,0,B|108:64|108:64|111:156,1,129.240001439594,4|0,3:0|0:0,0:0:0:0:
110,125,50382,6,0,L|128:275,1,143.999995605469,4|0,1:2|0:0,0:0:0:0:
115,291,50655,2,0,P|88:288|60:290,3,47.9999985351563,2|2|2|2,1:2|1:2|1:2|1:2,0:0:0:0:
128,320,50927,6,0,P|187:311|246:357,1,120,4|0,1:0|0:0,0:0:0:0:
236,341,51200,2,0,P|279:363|348:348,1,120,4|0,1:2|0:0,0:0:0:0:
388,376,51473,2,0,L|399:295,1,80,0|0,1:0|0:0,0:0:0:0:
408,186,51745,2,0,L|366:198,1,40,6|2,1:2|1:2,0:0:0:0:
407,166,51882,2,0,L|459:178,1,40,2|2,1:2|1:2,0:0:0:0:
409,147,52018,6,0,L|326:158,1,80,6|0,1:2|1:0,0:0:0:0:
421,48,52291,2,0,L|504:59,1,80,4|0,1:0|1:0,0:0:0:0:
310,84,52564,1,4,1:2:0:0:
310,84,52700,1,2,0:1:0:0:
214,122,52836,6,0,B|41:101,1,160,4|0,1:0|0:0,0:0:0:0:
10,188,53245,1,4,1:0:0:0:
408,116,53518,1,0,1:0:0:0:
10,188,53791,1,0,1:0:0:0:
95,167,53927,5,4,1:0:0:0:
180,189,54064,1,2,0:0:0:0:
263,216,54200,1,2,0:0:0:0:
350,223,54336,1,4,1:0:0:0:
444,200,54473,1,2,1:2:0:0:
376,132,54609,1,2,0:0:0:0:
392,312,54745,1,4,1:0:0:0:
480,280,54882,1,2,0:0:0:0:
483,262,54950,1,2,0:0:0:0:
485,246,55018,6,0,L|512:34,1,207.999990478516,4|0,1:0|0:0,0:0:0:0:
511,39,55564,1,0,0:0:0:0:
337,122,55836,6,0,P|374:114|411:87,1,64,0|0,0:0|0:0,0:0:0:0:
228,82,56109,2,0,L|87:70,1,128,0|0,0:0|0:0,0:0:0:0:
85,92,56655,1,0,0:0:0:0:
70,112,56927,1,0,0:0:0:0:
55,133,57200,1,0,0:0:0:0:
220,250,57609,6,0,P|178:201|106:195,1,128
133,284,58155,1,0,0:0:0:0:
269,163,58291,6,0,L|255:59,1,103.999995239258,2|2,0:0|0:0,0:0:0:0:
371,207,58836,6,0,L|359:122,1,80,2|2,0:0|0:0,0:0:0:0:
369,110,59382,6,0,P|291:156|186:111,1,191.999994140625,4|12,1:0|1:2,0:0:0:0:
42,215,59791,6,0,P|118:201|183:245,1,160,0|0,0:0|1:0,0:0:0:0:
172,371,60200,5,12,1:2:0:0:
99,300,60336,1,0,0:0:0:0:
263,329,60473,2,0,B|279:342|287:360|287:360|278:298|317:245,1,160,0|12,1:0|1:2,0:0:0:0:
418,150,60882,2,0,P|420:234|484:287,1,160,4|0,0:3|0:0,0:0:0:0:
320,160,61291,2,0,P|277:140|213:142,1,80,12|0,1:2|0:0,0:0:0:0:
118,170,61564,5,4,1:0:0:0:
393,75,61973,2,0,P|440:77|491:185,1,160,4|0,1:0|0:0,0:0:0:0:
475,270,62382,1,4,1:0:0:0:
381,224,62518,1,0,0:0:0:0:
366,323,62655,6,0,B|373:348|373:348|316:307|259:315,1,132.00000402832,4|0,3:0|0:0,0:0:0:0:
201,344,62927,2,0,P|136:354|78:322,1,132.00000402832,4|0,3:0|0:0,0:0:0:0:
92,245,63200,2,0,B|111:185|59:182|92:90,1,132.00000402832,4|0,3:0|0:0,0:0:0:0:
186,146,63473,6,10,B|245:140|245:140|273:154|273:154|361:142,1,155.999992858887,14|0,1:0|0:0,1:0:0:0:
296,62,63745,6,0,B|257:49|257:49|189:57,1,80,6|2,1:0|0:1,0:0:0:0:
223,250,64018,2,0,B|264:255|264:255|328:234,1,80,4|2,1:2|0:1,0:0:0:0:
492,207,64291,2,0,L|367:190,1,120,2|2,1:0|0:1,0:0:0:0:
345,186,64564,1,4,1:2:0:0:
169,343,64700,6,0,P|213:323|300:354,1,120,2|0,0:1|0:0,0:0:0:0:
298,359,64973,1,2,0:1:0:0:
399,360,65109,2,0,P|446:362|458:358,3,40,4|2|2|2,1:2|0:0|0:0|0:0,0:0:0:0:
467,336,65382,2,0,L|455:233,1,80,2|2,1:0|0:0,0:0:0:0:
353,247,65655,2,0,L|341:144,1,80,4|2,1:2|0:1,0:0:0:0:
232,121,65927,6,0,P|189:136|132:121,1,80,6|2,1:0|0:1,0:0:0:0:
181,31,66200,1,4,1:2:0:0:
334,147,66336,2,0,P|396:164|484:126,1,160,2|2,0:1|0:1,0:0:0:0:
268,203,66745,1,6,1:2:0:0:
154,132,66882,1,2,0:1:0:0:
302,50,67018,2,0,L|391:44,1,80
455,223,67291,2,0,L|366:229,1,80,10|10,0:0|0:0,0:0:0:0:
140,279,67564,6,0,B|133:294|133:294|177:280|220:278,1,95.9999970703126,14|0,1:0|0:0,0:0:0:0:
374,326,67836,2,0,B|380:310|380:310|336:324|293:326,1,95.9999970703126,6|0,1:0|0:0,0:0:0:0:
195,187,68109,6,0,P|183:137|195:79,1,80,6|2,1:0|0:1,0:0:0:0:
256,32,68382,1,4,1:2:0:0:
310,201,68518,1,0,0:0:0:0:
425,117,68655,2,0,L|300:114,1,120,2|0,1:0|0:1,0:0:0:0:
269,133,68927,1,4,1:2:0:0:
122,280,69064,2,0,P|189:266|273:345,1,160,2|2,0:1|0:1,0:0:0:0:
56,212,69473,2,0,L|49:146,1,40,4|2,1:2|0:0,0:0:0:0:
86,161,69609,2,0,L|93:95,1,40,2|2,0:0|0:0,0:0:0:0:
128,109,69745,2,0,P|164:89|231:98,1,80,2|0,1:0|0:0,0:0:0:0:
383,153,70018,6,0,P|353:161|316:163,1,40,2|0,1:0|0:0,0:0:0:0:
358,196,70155,2,0,P|326:194|291:184,1,40,2|0,1:0|0:0,0:0:0:0:
314,236,70291,2,0,P|286:220|258:196,3,40,4|0|2|2,1:2|0:0|0:0|0:0,0:0:0:0:
255,186,70564,1,0,0:0:0:0:
172,307,70836,6,0,P|144:322|116:346,3,40,4|0|2|2,1:2|0:0|0:0|0:0,0:0:0:0:
110,319,71109,2,0,P|110:259|101:213,1,80,2|2,1:0|0:1,0:0:0:0:
175,100,71382,6,0,B|201:192|201:192|239:229,1,143.999995605469,14|0,0:0|0:0,0:0:0:0:
269,244,71655,2,0,P|314:187|411:196,1,143.999995605469,12|0,1:2|0:0,0:0:0:0:
420,223,71927,2,0,L|438:368,1,143.999995605469,14|0,1:0|0:0,0:0:0:0:
503,269,72200,2,0,B|494:208|494:208|500:192|500:192|489:125,1,143.999995605469,4|0,1:2|0:0,0:0:0:0:
433,68,72473,6,0,P|399:85|358:85,1,80,2|2,1:0|0:1,0:0:0:0:
326,197,72745,2,0,P|291:174|253:168,1,80,4|2,1:2|0:1,0:0:0:0:
160,104,73018,2,0,P|123:123|73:130,1,80,2|0,1:0|0:0,0:0:0:0:
38,232,73291,1,4,1:2:0:0:
141,273,73427,2,0,P|212:261|295:291,1,160,2|2,0:1|0:1,0:0:0:0:
391,345,73836,2,0,L|382:387,3,40,6|2|2|0,1:2|0:0|0:0|0:0,0:0:0:0:
417,333,74109,2,0,P|405:287|411:227,1,80,2|2,1:0|0:0,0:0:0:0:
479,133,74382,2,0,P|491:176|487:219,1,80,4|2,1:2|0:1,0:0:0:0:
346,162,74655,5,6,1:0:0:0:
267,100,74791,1,0,0:0:0:0:
405,93,74927,1,4,1:2:0:0:
236,186,75064,2,0,L|145:179,1,80,2|2,0:1|1:0,0:0:0:0:
64,277,75336,1,2,0:1:0:0:
160,317,75473,2,0,L|257:308,1,80,4|2,1:2|0:1,0:0:0:0:
412,336,75745,5,2,1:0:0:0:
328,215,75882,1,0,0:0:0:0:
468,264,76018,1,10,0:0:0:0:
322,303,76155,1,10,0:0:0:0:
404,188,76291,6,0,B|399:155|399:155|402:146|402:146|390:93|390:93|394:78|394:78|386:36,1,143.999995605469,4|0,3:0|0:0,0:0:0:0:
390,28,76564,2,0,L|331:15,3,47.9999985351563,2|2|2|2,0:0|0:0|0:0|0:0,0:0:0:0:
310,55,76836,6,0,P|246:29|142:52,1,160,4|0,1:0|0:0,0:0:0:0:
83,141,77245,1,4,1:0:0:0:
83,141,77655,6,0,L|94:220,1,80,4|0,1:0|0:0,0:0:0:0:
243,313,78064,2,0,P|311:256|407:283,1,160,4|4,1:0|1:0,0:0:0:0:
453,308,78473,1,4,1:2:0:0:
453,308,78745,2,0,L|468:224,1,80,2|0,1:0|0:0,0:0:0:0:
501,49,79155,6,0,L|329:62,1,160,4|4,1:0|1:0,0:0:0:0:
306,138,79564,2,0,P|270:135|230:112,1,80,4|0,1:2|0:0,0:0:0:0:
190,36,79836,1,2,1:0:0:0:
190,36,79973,1,2,0:1:0:0:
190,36,80109,6,0,P|139:34|70:175,1,220,4|0,1:0|0:0,0:0:0:0:
31,193,80927,6,0,P|86:180|133:202,1,103.999995239258,4|0,1:2|0:0,0:0:0:0:
202,273,81200,6,0,P|156:296|77:270,2,120.000004577637,4|0|0,1:2|0:0|0:0,0:0:0:0:
202,273,82018,2,0,L|212:202,1,60.0000022888184
289,225,82291,6,0,L|270:91,2,120.000004577637,0|0|0,0:0|0:0|0:0,0:0:0:0:
289,225,83109,2,0,P|323:235|357:229,1,60.0000022888184
445,260,83382,5,0,0:0:0:0:
445,260,83791,1,0,0:0:0:0:
476,131,84064,1,0,0:0:0:0:
348,164,84336,1,0,0:0:0:0:
290,224,84473,6,0,P|246:231|212:229,1,60.0000022888184,2|0,0:0|0:0,0:0:0:0:
249,245,84745,2,0,P|208:250|184:249,1,51.999997619629,2|0,0:0|0:0,0:0:0:0:
205,267,85018,2,0,P|166:272|152:272,1,44.0000013427735,2|0,0:0|0:0,0:0:0:0:
154,290,85291,2,0,P|125:289|106:287,1,40,2|0,0:0|0:0,0:0:0:0:
34,343,85564,6,0,L|14:211,2,120.000004577637,2|0|0,0:0|0:0|0:0,0:0:0:0:
33,343,86382,2,0,P|66:344|97:353,1,60.0000022888184
262,327,86655,5,12,1:2:0:0:
262,327,86927,2,0,B|269:315|269:315|250:307|250:307|269:298|269:298|253:278|253:278|269:266|269:266|255:248|255:248|271:233|271:233|257:219|257:219|270:206|270:206|259:191|259:191|269:184|269:184|261:169,1,220,4|0,3:0|0:0,0:0:0:0:
294,142,87745,6,0,L|205:153,1,80,4|2,1:0|1:0,0:0:0:0:
347,202,88018,6,0,P|384:145|322:72,1,155.999992858887,4|0,1:2|0:0,0:0:0:0:
375,46,88291,6,0,L|286:57,1,80,4|2,1:0|1:0,0:0:0:0:
179,32,88564,6,0,L|6:50,1,155.999992858887,4|0,1:2|0:0,0:0:0:0:
8,77,88836,1,4,1:0:0:0:
142,143,88973,1,2,1:0:0:0:
163,242,89143,6,0,L|94:253,4,60
249,263,89655,6,0,L|271:92,1,155.999992858887,6|0,1:0|0:0,0:0:0:0:
300,73,89927,6,0,P|262:65|216:70,1,80,4|2,1:2|0:1,0:0:0:0:
434,2,90200,2,0,P|385:18|351:16,1,80,4|2,1:2|0:1,0:0:0:0:
512,103,90473,2,0,P|469:89|429:93,1,80,4|2,1:2|0:1,0:0:0:0:
435,263,90745,2,0,P|474:264|512:251,1,80,4|2,1:2|0:1,0:0:0:0:
418,172,91018,6,0,L|323:186,1,80,4|2,1:2|0:1,0:0:0:0:
229,276,91291,2,0,L|324:262,1,80,2|2,1:0|1:0,0:0:0:0:
188,195,91564,6,0,B|121:214|64:196|64:196|107:249,1,155.999992858887,4|0,1:2|0:0,0:0:0:0:
94,248,91836,2,0,L|116:73,1,155.999992858887,6|0,1:0|0:0,0:0:0:0:
182,44,92109,6,0,P|142:16|33:115,1,210.000008010865,4|0,3:0|0:0,0:0:0:0:
6,116,92655,6,0,L|13:152,1,30.0000011444092,2|2,0:0|0:0,0:0:0:0:
29,164,92791,2,0,L|23:201,1,30.0000011444092,2|2,0:0|0:0,0:0:0:0:
1,215,92927,6,0,L|11:258,1,40,2|2,0:0|0:0,0:0:0:0:
34,267,93064,2,0,L|20:315,1,40,2|2,0:0|0:0,0:0:0:0:
12,353,93200,6,0,L|102:367,1,80,4|8,1:2|0:0,0:0:0:0:
96,371,93405,1,2,0:0:0:0:
101,376,93473,1,8,0:0:0:0:
174,316,93609,2,0,L|198:358,2,40,2|8|2,0:0|0:0|0:0,0:0:0:0:
265,284,93882,1,12,0:0:0:0:
263,291,93950,1,0,0:0:0:0:
261,297,94018,6,0,B|430:323,1,155.999992858887,4|0,1:2|0:0,0:0:0:0:
478,289,94291,6,0,L|399:299,1,80,4|2,1:2|0:1,0:0:0:0:
163,186,94564,2,0,L|242:196,1,80,4|2,1:2|0:1,0:0:0:0:
407,199,94836,2,0,L|328:209,1,80,4|2,1:2|0:1,0:0:0:0:
92,96,95109,2,0,L|171:106,1,80,4|2,1:2|0:1,0:0:0:0:
353,117,95382,2,0,L|274:127,1,80,4|2,1:2|0:1,0:0:0:0:
126,219,95655,5,2,1:0:0:0:
300,169,95791,1,2,0:1:0:0:
146,174,95927,2,0,L|121:334,1,155.999992858887,4|0,1:2|0:0,0:0:0:0:
162,376,96200,2,0,L|144:279,1,80,6|0,1:0|0:0,0:0:0:0:
442,280,96473,6,0,L|433:336,1,40,4|2,3:0|0:0,0:0:0:0:
407,348,96609,2,0,L|414:309,1,40,2|2,0:0|0:0,0:0:0:0:
380,288,96745,2,0,L|371:344,1,40,4|2,3:0|0:0,0:0:0:0:
342,360,96882,2,0,L|349:321,1,40,4|2,3:0|0:0,0:0:0:0:
323,288,97018,1,0,0:0:0:0:
237,323,97155,6,0,B|179:353|149:297|90:328,1,150.000005722046,4|0,3:0|0:0,0:0:0:0:
68,258,97564,6,0,P|119:209|117:123,1,155.999992858887,4|0,1:2|0:0,0:0:0:0:
71,107,97836,2,0,L|255:97,1,155.999992858887,6|0,1:0|0:0,0:0:0:0:
271,38,98109,2,0,L|262:193,1,155.999992858887,4|0,1:2|0:0,0:0:0:0:
298,255,98382,2,0,P|373:217|467:250,1,155.999992858887,6|0,1:0|0:0,0:0:0:0:
491,244,98655,6,0,L|476:135,1,80,4|2,1:2|0:1,0:0:0:0:
451,356,98927,2,0,P|418:323|359:303,1,80,4|2,1:2|0:1,0:0:0:0:
222,349,99200,2,0,P|263:326|328:328,1,80,4|2,1:2|0:1,0:0:0:0:
159,269,99473,2,0,P|119:262|85:241,1,80,4|2,1:2|0:1,0:0:0:0:
129,64,99745,2,0,P|113:100|112:140,1,80,2|2,1:0|0:1,0:0:0:0:
316,108,100018,2,0,P|315:68|299:31,1,80,2|0,1:0|0:0,0:0:0:0:
215,145,100291,6,0,L|200:335,1,155.999992858887,4|0,1:2|0:0,0:0:0:0:
191,340,100564,2,0,P|263:319|364:351,1,155.999992858887,6|0,1:0|0:0,0:0:0:0:
366,352,100836,6,0,P|391:363|439:365,1,60.0000022888184,4|8,3:0|0:0,0:0:0:0:
479,270,101109,2,0,L|486:230,3,30.0000011444092,2|2|8|0,0:0|0:0|0:0|0:0,0:0:0:0:
507,204,101382,2,0,P|500:193|482:175,1,30.0000011444092,4|0,1:2|0:0,0:0:0:0:
487,138,101518,2,0,P|472:128|440:123,1,30.0000011444092,0|2,1:0|0:0,0:0:0:0:
439,87,101655,2,0,P|421:87|390:94,1,30.0000011444092,8|0,0:0|0:0,0:0:0:0:
373,66,101791,2,0,P|356:72|330:90,1,30.0000011444092,0|0,1:0|0:0,0:0:0:0:
304,136,101927,6,0,P|261:155|201:150,1,80,4|8,1:0|0:0,0:0:0:0:
119,130,102200,2,0,P|88:127|63:130,1,40,2|2,0:0|0:0,0:0:0:0:
58,156,102336,2,0,P|30:169|10:185,1,40,4|0,1:2|0:0,0:0:0:0:
25,211,102473,2,0,P|14:243|13:269,3,40,0|2|4|0,1:0|0:0|1:0|0:0,0:0:0:0:
60,309,102745,6,0,L|191:300,1,120,6|0,1:2|0:0,0:0:0:0:
275,282,103018,6,0,L|137:278,1,103.999995239258,4|2,1:2|0:1,0:0:0:0:
353,223,103291,5,4,1:2:0:0:
425,291,103427,2,0,L|505:284,1,80,2|4,0:1|1:2,0:0:0:0:
482,140,103700,2,0,L|399:147,1,80,2|2,0:1|1:0,0:0:0:0:
218,126,103973,2,0,L|298:119,1,80,2|4,0:1|1:2,0:0:0:0:
201,35,104245,5,2,0:1:0:0:
67,81,104382,2,0,P|41:77|8:55,3,40,2|2|2|0,1:2|0:0|1:2|0:0,0:0:0:0:
10,96,104655,2,0,P|7:140|20:206,1,80,4|2,1:2|0:1,0:0:0:0:
70,311,104927,2,10,L|79:335,7,20,8|0|10|0|0|0|0|0,0:0|0:0|0:0|0:0|0:0|0:0|0:0|0:0,0:0:0:0:
88,279,105200,6,0,P|136:264|179:271,1,80,4|8,3:0|0:0,0:0:0:0:
203,295,105473,6,0,L|187:126,1,143.999995605469,4|0,1:2|0:0,0:0:0:0:
174,75,105745,2,0,P|234:124|330:104,1,143.999995605469,6|0,1:0|0:0,0:0:0:0:
366,78,106018,2,0,P|384:53|392:31,3,47.9999985351563,4|10|10|10,1:2|0:0|0:0|0:0,0:0:0:0:
389,112,106291,6,0,B|383:169|383:169|396:189|396:189|384:271,1,143.999995605469,4|0,1:2|0:0,0:0:0:0:
408,321,106563,2,0,B|338:336|338:336|259:310,1,143.999995605469,6|0,1:0|0:0,0:0:0:0:
170,239,106836,2,0,B|240:224|240:224|319:250,1,143.999995605469,4|0,1:2|0:0,0:0:0:0:
177,313,107109,2,0,B|107:328|107:328|28:302,1,143.999995605469,6|0,1:0|0:0,0:0:0:0:
4,284,107382,6,0,L|11:370,1,80,4|10,1:2|0:0,0:0:0:0:
91,222,107655,1,2,1:0:0:0:
21,113,107791,2,0,L|9:192,1,80,4|10,1:2|0:0,0:0:0:0:
103,56,108064,1,2,1:0:0:0:
249,124,108200,2,0,L|154:120,1,80,4|2,1:2|0:1,0:0:0:0:
351,122,108473,6,0,P|334:190|273:223,1,143.999995605469,6|0,1:0|0:0,0:0:0:0:
191,243,108745,2,0,P|254:248|298:348,1,143.999995605469,4|0,1:2|0:0,0:0:0:0:
364,360,109018,2,0,P|375:332|395:306,3,47.9999985351563,6|10|2|8,1:0|0:0|0:0|0:0,0:0:0:0:
459,274,109291,2,0,L|444:124,1,143.999995605469,4|0,1:2|0:0,0:0:0:0:
422,97,109564,6,0,L|516:105,1,80,4|8,1:0|0:0,0:0:0:0:
357,31,109836,1,2,1:0:0:0:
299,160,109973,2,0,L|310:239,1,80,4|8,1:2|0:0,0:0:0:0:
206,57,110245,1,2,1:0:0:0:
158,219,110382,2,0,L|169:298,1,80,8|2,0:0|0:1,0:0:0:0:
129,76,110655,6,0,P|73:33|-29:71,1,143.999995605469,4|0,1:2|0:0,0:0:0:0:
33,130,110927,2,0,B|24:189|24:189|34:212|34:212|25:278,1,143.999995605469,6|0,1:0|0:0,0:0:0:0:
72,351,111200,2,0,P|106:310|218:310,1,143.999995605469,4|0,1:2|0:0,0:0:0:0:
263,345,111473,2,0,B|342:372|330:323|429:349,1,143.999995605469,6|0,1:0|0:0,0:0:0:0:
304,264,111745,6,0,P|277:242|268:217,3,40,4|2|2|2,1:3|0:0|0:0|0:0,0:0:0:0:
265,198,112018,2,0,P|267:173|276:149,3,40,4|2|2|2,1:3|0:0|0:0|0:0,0:0:0:0:
289,122,112291,6,0,P|286:78|289:21,1,80,4|8,1:2|0:0,0:0:0:0:
185,14,112564,2,0,P|188:58|185:115,1,80,8|0,0:0|0:0,0:0:0:0:
353,197,112836,2,0,P|417:196|470:156,1,120,4|0,1:0|0:0,0:0:0:0:
454,213,113109,2,0,L|447:335,1,120,12|0,1:2|0:0,0:0:0:0:
410,351,113382,6,0,L|317:340,1,80,8|2,1:2|0:0,0:0:0:0:
162,268,113655,2,0,L|242:278,1,80,8|2,0:0|0:0,0:0:0:0:
67,334,113927,6,0,P|49:289|54:247,1,80,4|2,1:0|0:0,0:0:0:0:
91,171,114200,1,2,0:0:0:0:
231,124,114336,2,0,P|249:79|248:37,1,80,4|0,1:2|0:0,0:0:0:0:
162,64,114609,1,2,0:0:0:0:
344,176,114745,2,0,L|429:171,1,80,4|2,1:0|0:0,0:0:0:0:
238,236,115018,5,2,1:0:0:0:
343,90,115291,1,2,0:1:0:0:
377,307,115564,1,2,0:1:0:0:
377,307,115836,6,0,P|328:288|280:296,1,95.9999970703126,4|0,1:2|0:0,0:0:0:0:
