osu file format v14

[General]
AudioFilename: Crack Traxxxx.mp3
AudioLeadIn: 0
PreviewTime: 63751
Countdown: 0
SampleSet: Soft
StackLeniency: 0.7
Mode: 3
LetterboxInBreaks: 0
SpecialStyle: 0
WidescreenStoryboard: 0

[Editor]
DistanceSpacing: 0.8
BeatDivisor: 4
GridSize: 4
TimelineZoom: 3.499999

[Metadata]
Title:Crack Traxxxx
TitleUnicode:Crack Traxxxx
Artist:Lite Show Magic (t+pazolite vs C-Show)
ArtistUnicode:Lite Show Magic (t+pazolite vs C-Show)
Creator:-BANGKE-
Version:EXHAUST Lv.14
Source:SOUND VOLTEX II -infinite infection-
Tags:SDVX 2 FLOOR sherrysina Konami Bemani jubeat 制作決定記念 オリジナル楽曲コンテスト Production Confirmation Commemorative Original Song Contest CAWOL ASHITA
BeatmapID:777869
BeatmapSetID:353037

[Difficulty]
HPDrainRate:8
CircleSize:4
OverallDifficulty:8
ApproachRate:5
SliderMultiplier:1.4
SliderTickRate:1

[Events]
//Background and Video events
0,0,"BG.png",0,0
//Break Periods
//Storyboard Layer 0 (Background)
//Storyboard Layer 1 (Fail)
//Storyboard Layer 2 (Pass)
//Storyboard Layer 3 (Foreground)
//Storyboard Layer 4 (Overlay)
//Storyboard Sound Samples

[TimingPoints]
2661,272.727272727273,4,2,1,40,1,0
63751,-100,4,2,1,40,0,1
81206,-100,4,2,1,40,0,0
89933,-100,4,2,1,40,0,1
107388,-100,4,2,1,40,0,0

[HitObjects]
448,192,615,128,0,2661:0:0:0:0:
64,192,2661,128,0,7024:0:0:0:0:
192,192,2661,128,0,6751:0:0:0:0:
320,192,7024,1,4,0:0:0:0:
448,192,7024,128,0,7433:0:0:0:0:
192,192,7024,1,0,0:0:0:0:
64,192,7433,128,0,7842:0:0:0:0:
192,192,7433,1,0,0:0:0:0:
320,192,7433,1,4,0:0:0:0:
192,192,7842,1,0,0:0:0:0:
320,192,7911,1,0,0:0:0:0:
192,192,7979,1,0,0:0:0:0:
320,192,8047,1,0,0:0:0:0:
448,192,8115,128,0,10297:0:0:0:0:
64,192,8115,1,0,0:0:0:0:
192,192,8251,1,0,0:0:0:0:
320,192,8388,1,0,0:0:0:0:
192,192,8524,1,0,0:0:0:0:
320,192,8661,1,0,0:0:0:0:
64,192,8797,1,0,0:0:0:0:
320,192,8933,1,0,0:0:0:0:
192,192,9070,1,0,0:0:0:0:
64,192,9206,1,0,0:0:0:0:
192,192,9342,1,0,0:0:0:0:
320,192,9479,1,0,0:0:0:0:
64,192,9615,1,0,0:0:0:0:
320,192,9751,1,0,0:0:0:0:
192,192,9888,1,0,0:0:0:0:
64,192,10024,1,0,0:0:0:0:
320,192,10161,1,0,0:0:0:0:
64,192,10297,1,0,0:0:0:0:
192,192,10297,1,0,0:0:0:0:
448,192,10365,1,0,0:0:0:0:
320,192,10433,1,0,0:0:0:0:
192,192,10433,1,0,0:0:0:0:
64,192,10501,1,0,0:0:0:0:
320,192,10570,1,0,0:0:0:0:
448,192,10570,1,0,0:0:0:0:
192,192,10638,1,0,0:0:0:0:
448,192,10706,1,0,0:0:0:0:
64,192,10706,1,0,0:0:0:0:
320,192,10774,1,0,0:0:0:0:
64,192,10842,128,0,10979:0:0:0:0:
192,192,10842,1,0,0:0:0:0:
448,192,10979,128,0,11115:0:0:0:0:
64,192,11115,1,0,0:0:0:0:
192,192,11115,1,0,0:0:0:0:
320,192,11115,1,4,0:0:0:0:
64,192,11388,1,0,0:0:0:0:
448,192,11388,1,0,0:0:0:0:
192,192,11388,1,0,0:0:0:40:normal-hitclap.wav
320,192,11524,1,0,0:0:0:0:
192,192,11661,1,0,0:0:0:0:
64,192,11797,1,0,0:0:0:0:
448,192,11797,1,0,0:0:0:0:
320,192,11797,1,0,0:0:0:40:normal-hitclap.wav
192,192,11933,1,0,0:0:0:0:
320,192,12070,1,0,0:0:0:0:
64,192,12206,1,0,0:0:0:0:
448,192,12206,1,0,0:0:0:0:
192,192,12206,1,0,0:0:0:40:normal-hitclap.wav
320,192,12342,1,0,0:0:0:0:
192,192,12479,1,0,0:0:0:0:
448,192,12479,128,0,12751:0:0:0:0:
64,192,12479,1,4,0:0:0:0:
192,192,12751,1,0,0:0:0:0:
320,192,12751,128,0,13024:0:0:0:0:
64,192,12751,1,4,0:0:0:0:
448,192,13024,1,4,0:0:0:0:
192,192,13024,128,0,13297:0:0:0:0:
64,192,13024,1,0,0:0:0:0:
448,192,13297,1,4,0:0:0:0:
320,192,13297,1,0,0:0:0:0:
64,192,13297,128,0,13570:0:0:0:0:
448,192,13570,1,0,0:0:0:0:
192,192,13570,1,0,0:0:0:0:
320,192,13570,1,0,0:0:0:40:normal-hitclap.wav
448,192,13706,1,0,0:0:0:0:
320,192,13842,1,0,0:0:0:0:
64,192,13979,1,0,0:0:0:0:
448,192,13979,1,0,0:0:0:0:
192,192,13979,1,0,0:0:0:40:normal-hitclap.wav
64,192,14115,1,0,0:0:0:0:
192,192,14251,1,0,0:0:0:0:
448,192,14388,1,0,0:0:0:0:
64,192,14388,1,0,0:0:0:0:
320,192,14388,1,0,0:0:0:40:normal-hitclap.wav
448,192,14524,1,0,0:0:0:0:
64,192,14661,128,0,14933:0:0:0:0:
192,192,14661,1,0,0:0:0:0:
320,192,14661,1,4,0:0:0:0:
192,192,14933,128,0,15206:0:0:0:0:
320,192,14933,1,0,0:0:0:0:
448,192,14933,1,4,0:0:0:0:
448,192,15206,1,0,0:0:0:0:
64,192,15206,1,4,0:0:0:0:
320,192,15206,128,0,15479:0:0:0:0:
192,192,15479,1,4,0:0:0:0:
64,192,15479,1,0,0:0:0:0:
448,192,15479,128,0,15751:0:0:0:0:
192,192,15751,1,0,0:0:0:0:
64,192,15751,128,0,15888:0:0:0:0:
448,192,15888,128,0,16024:0:0:0:0:
192,192,16024,128,0,16161:0:0:0:0:
320,192,16161,128,0,16297:0:0:0:0:
448,192,16297,128,0,16842:0:0:0:0:
192,192,16297,1,0,0:0:0:40:LR_Clap DS.wav
64,192,16297,1,0,0:0:0:0:
320,192,16570,128,0,16842:0:0:0:0:
64,192,16842,1,0,0:0:0:0:
192,192,16842,1,0,0:0:0:0:
448,192,16911,1,0,0:0:0:0:
320,192,16979,1,0,0:0:0:0:
192,192,16979,1,0,0:0:0:0:
64,192,17047,1,0,0:0:0:0:
320,192,17115,1,0,0:0:0:0:
448,192,17115,1,0,0:0:0:0:
192,192,17183,1,0,0:0:0:0:
320,192,17251,1,0,0:0:0:0:
64,192,17251,1,0,0:0:0:0:
448,192,17320,1,0,0:0:0:0:
64,192,17388,128,0,17933:0:0:0:0:
320,192,17388,1,0,0:0:0:40:LR_Clap DS.wav
192,192,17388,1,0,0:0:0:0:
192,192,17661,128,0,17933:0:0:0:0:
448,192,17933,1,0,0:0:0:0:
320,192,17933,1,0,0:0:0:40:normal-hitclap.wav
192,192,18070,1,0,0:0:0:0:
320,192,18206,1,0,0:0:0:0:
448,192,18342,1,0,0:0:0:0:
64,192,18342,1,0,0:0:0:40:normal-hitclap.wav
192,192,18342,1,0,0:0:0:0:
320,192,18479,1,0,0:0:0:0:
192,192,18615,1,0,0:0:0:0:
448,192,18751,1,0,0:0:0:0:
64,192,18751,1,0,0:0:0:40:normal-hitclap.wav
320,192,18751,1,0,0:0:0:0:
192,192,18888,1,0,0:0:0:0:
64,192,19024,1,2,0:0:0:0:
320,192,19024,1,0,0:0:0:40:normal-hitclap.wav
448,192,19024,1,0,0:0:0:0:
448,192,19297,1,8,0:0:0:0:
64,192,19570,1,2,0:0:0:0:
320,192,19842,1,0,0:0:0:0:
448,192,19842,1,0,0:0:0:0:
192,192,19842,1,4,0:0:0:0:
64,192,20115,1,0,0:0:0:0:
448,192,20115,1,0,0:0:0:0:
192,192,20115,1,0,0:0:0:0:
320,192,20251,1,0,0:0:0:0:
64,192,20320,1,0,0:0:0:0:
448,192,20388,1,0,0:0:0:0:
192,192,20388,1,0,0:0:0:0:
448,192,20524,1,0,0:0:0:0:
192,192,20661,1,0,0:0:0:0:
64,192,20661,1,0,0:0:0:0:
192,192,20797,1,0,0:0:0:0:
64,192,20933,1,0,0:0:0:0:
320,192,20933,1,0,0:0:0:0:
320,192,21070,1,0,0:0:0:0:
448,192,21206,1,0,0:0:0:0:
64,192,21206,1,0,0:0:0:0:
64,192,21342,1,0,0:0:0:0:
192,192,21479,1,0,0:0:0:0:
448,192,21479,1,0,0:0:0:0:
448,192,21615,1,0,0:0:0:0:
320,192,21751,1,0,0:0:0:0:
64,192,21751,1,0,0:0:0:0:
320,192,21888,1,0,0:0:0:0:
448,192,22024,1,0,0:0:0:0:
64,192,22024,128,0,22297:0:0:0:0:
192,192,22297,1,0,0:0:0:0:
320,192,22297,1,0,0:0:0:0:
448,192,22433,1,0,0:0:0:0:
320,192,22501,1,0,0:0:0:0:
64,192,22570,1,0,0:0:0:0:
192,192,22570,1,0,0:0:0:0:
64,192,22706,1,0,0:0:0:0:
320,192,22842,1,0,0:0:0:0:
448,192,22842,1,0,0:0:0:0:
320,192,22979,1,0,0:0:0:0:
64,192,23115,1,0,0:0:0:0:
448,192,23115,1,0,0:0:0:0:
192,192,23183,1,0,0:0:0:0:
448,192,23251,1,0,0:0:0:0:
192,192,23388,1,0,0:0:0:0:
320,192,23388,1,0,0:0:0:0:
192,192,23524,1,0,0:0:0:0:
64,192,23661,1,0,0:0:0:0:
448,192,23661,1,0,0:0:0:0:
64,192,23797,1,0,0:0:0:0:
192,192,23933,1,0,0:0:0:0:
448,192,23933,128,0,24206:0:0:0:0:
320,192,23933,1,0,0:0:0:40:normal-hitclap.wav
64,192,24206,1,4,0:0:0:0:
192,192,24206,1,0,0:0:0:0:
320,192,24206,1,0,0:0:0:0:
448,192,24479,1,0,0:0:0:0:
192,192,24479,1,0,0:0:0:0:
64,192,24479,1,0,0:0:0:0:
320,192,24615,1,0,0:0:0:0:
192,192,24683,1,0,0:0:0:0:
64,192,24751,1,0,0:0:0:0:
448,192,24751,1,0,0:0:0:0:
448,192,24888,1,0,0:0:0:0:
64,192,25024,1,0,0:0:0:0:
192,192,25024,1,0,0:0:0:0:
192,192,25161,1,0,0:0:0:0:
64,192,25297,1,0,0:0:0:0:
448,192,25297,1,0,0:0:0:0:
320,192,25365,1,0,0:0:0:0:
192,192,25433,1,0,0:0:0:0:
448,192,25570,1,0,0:0:0:0:
64,192,25570,1,0,0:0:0:0:
64,192,25706,1,0,0:0:0:0:
192,192,25842,1,0,0:0:0:0:
320,192,25842,1,0,0:0:0:0:
192,192,25979,1,0,0:0:0:0:
320,192,26115,1,0,0:0:0:0:
64,192,26115,1,0,0:0:0:0:
320,192,26251,1,0,0:0:0:0:
192,192,26388,1,0,0:0:0:0:
448,192,26388,128,0,26661:0:0:0:0:
64,192,26661,1,0,0:0:0:0:
192,192,26661,1,0,0:0:0:0:
320,192,26729,1,0,0:0:0:0:
448,192,26797,1,0,0:0:0:0:
64,192,26865,1,0,0:0:0:0:
320,192,26933,1,0,0:0:0:0:
192,192,26933,1,0,0:0:0:0:
448,192,27070,1,0,0:0:0:0:
320,192,27138,1,0,0:0:0:0:
64,192,27206,1,0,0:0:0:0:
192,192,27206,1,0,0:0:0:0:
320,192,27342,1,0,0:0:0:0:
192,192,27411,1,0,0:0:0:0:
64,192,27479,128,0,27615:0:0:0:0:
448,192,27479,1,0,0:0:0:0:
320,192,27615,128,0,27751:0:0:0:0:
448,192,27751,128,0,28024:0:0:0:0:
64,192,27751,1,0,0:0:0:0:
192,192,27751,1,4,0:0:0:0:
64,192,28024,128,0,28297:0:0:0:0:
192,192,28024,1,4,0:0:0:0:
320,192,28024,1,0,0:0:0:0:
448,192,28297,128,0,28570:0:0:0:0:
320,192,28297,1,0,0:0:0:0:
192,192,28570,1,0,0:0:0:0:
320,192,28570,1,4,0:0:0:0:
64,192,28570,1,0,0:0:0:0:
64,192,28842,1,0,0:0:0:0:
192,192,28842,1,0,0:0:0:0:
320,192,28842,1,0,0:0:0:0:
448,192,28979,1,0,0:0:0:0:
320,192,29047,1,0,0:0:0:0:
64,192,29115,1,0,0:0:0:0:
192,192,29115,1,0,0:0:0:0:
320,192,29251,1,0,0:0:0:0:
448,192,29320,1,0,0:0:0:0:
64,192,29388,1,0,0:0:0:0:
192,192,29388,1,0,0:0:0:0:
448,192,29524,1,0,0:0:0:0:
320,192,29592,1,0,0:0:0:0:
192,192,29661,1,0,0:0:0:0:
64,192,29661,1,0,0:0:0:0:
320,192,29797,1,0,0:0:0:0:
448,192,29865,1,0,0:0:0:0:
192,192,29933,1,0,0:0:0:0:
64,192,29933,1,0,0:0:0:0:
448,192,30070,1,0,0:0:0:0:
320,192,30138,1,0,0:0:0:0:
192,192,30206,1,0,0:0:0:0:
64,192,30206,1,0,0:0:0:0:
192,192,30342,1,0,0:0:0:0:
320,192,30411,1,0,0:0:0:0:
64,192,30479,1,0,0:0:0:0:
448,192,30479,1,0,0:0:0:0:
192,192,30615,1,0,0:0:0:0:
320,192,30683,1,0,0:0:0:0:
448,192,30751,128,0,31024:0:0:0:0:
64,192,30751,1,0,0:0:0:0:
192,192,30820,1,0,0:0:0:0:
320,192,30888,1,0,0:0:0:0:
192,192,30956,1,0,0:0:0:0:
64,192,31024,1,0,0:0:0:0:
320,192,31024,1,0,0:0:0:0:
192,192,31161,1,0,0:0:0:0:
64,192,31229,1,0,0:0:0:0:
448,192,31297,1,0,0:0:0:0:
320,192,31297,1,0,0:0:0:0:
64,192,31433,1,0,0:0:0:0:
192,192,31501,1,0,0:0:0:0:
448,192,31570,1,0,0:0:0:0:
320,192,31570,1,0,0:0:0:0:
192,192,31706,1,0,0:0:0:0:
64,192,31774,1,0,0:0:0:0:
320,192,31842,1,0,0:0:0:0:
448,192,31842,1,0,0:0:0:0:
64,192,31979,1,0,0:0:0:0:
192,192,32047,1,0,0:0:0:0:
448,192,32115,1,0,0:0:0:0:
320,192,32115,1,0,0:0:0:0:
192,192,32251,1,0,0:0:0:0:
64,192,32320,1,0,0:0:0:0:
320,192,32388,1,0,0:0:0:0:
448,192,32388,1,0,0:0:0:0:
64,192,32524,1,0,0:0:0:0:
192,192,32592,1,0,0:0:0:0:
448,192,32661,1,0,0:0:0:0:
320,192,32661,1,0,0:0:0:0:
320,192,32797,1,0,0:0:0:0:
192,192,32865,1,0,0:0:0:0:
64,192,32933,128,0,33206:0:0:0:0:
448,192,32933,1,0,0:0:0:0:
320,192,33001,1,0,0:0:0:0:
192,192,33070,1,0,0:0:0:0:
320,192,33138,1,0,0:0:0:0:
448,192,33206,1,0,0:0:0:0:
192,192,33206,1,0,0:0:0:0:
320,192,33342,1,0,0:0:0:0:
192,192,33411,1,0,0:0:0:0:
64,192,33479,1,0,0:0:0:0:
448,192,33479,1,0,0:0:0:0:
192,192,33615,1,0,0:0:0:0:
448,192,33683,1,0,0:0:0:0:
64,192,33751,1,0,0:0:0:0:
320,192,33751,1,0,0:0:0:0:
192,192,33888,1,0,0:0:0:0:
320,192,33956,1,0,0:0:0:0:
448,192,34024,128,0,34297:0:0:0:0:
64,192,34024,1,0,0:0:0:0:
192,192,34092,1,0,0:0:0:0:
320,192,34161,1,0,0:0:0:0:
192,192,34229,1,0,0:0:0:0:
64,192,34297,1,0,0:0:0:0:
320,192,34297,1,0,0:0:0:0:
192,192,34433,1,0,0:0:0:0:
64,192,34501,1,0,0:0:0:0:
320,192,34570,1,0,0:0:0:0:
448,192,34570,1,0,0:0:0:0:
192,192,34706,1,0,0:0:0:0:
320,192,34774,1,0,0:0:0:0:
448,192,34842,1,0,0:0:0:0:
64,192,34842,1,0,0:0:0:0:
192,192,34979,1,0,0:0:0:0:
64,192,35115,128,0,35388:0:0:0:0:
448,192,35115,128,0,35388:0:0:0:0:
320,192,35388,1,0,0:0:0:0:
192,192,35388,128,0,35933:0:0:0:0:
64,192,35933,128,0,36206:0:0:0:0:
448,192,36206,1,0,0:0:0:0:
320,192,36274,1,0,0:0:0:0:
192,192,36342,1,0,0:0:0:0:
64,192,36411,1,0,0:0:0:0:
320,192,36479,1,0,0:0:0:0:
448,192,36479,128,0,36751:0:0:0:0:
192,192,36479,1,4,0:0:0:0:
320,192,36751,128,0,37024:0:0:0:0:
64,192,36751,1,4,0:0:0:0:
192,192,36751,1,0,0:0:0:0:
192,192,37024,128,0,37297:0:0:0:0:
448,192,37024,1,4,0:0:0:0:
64,192,37024,1,0,0:0:0:0:
320,192,37297,1,0,0:0:0:0:
448,192,37297,1,4,0:0:0:0:
64,192,37297,128,0,37570:0:0:0:0:
448,192,37570,1,0,0:0:0:0:
320,192,37570,1,0,0:0:0:0:
192,192,37638,1,0,0:0:0:0:
64,192,37638,1,0,0:0:0:0:
320,192,37706,1,0,0:0:0:0:
448,192,37706,1,0,0:0:0:0:
192,192,37774,1,0,0:0:0:0:
448,192,37842,1,4,0:0:0:0:
320,192,37842,1,0,0:0:0:0:
64,192,37842,1,0,0:0:0:0:
64,192,38115,1,0,0:0:0:0:
448,192,38115,1,0,0:0:0:40:LR_Clap DS.wav
192,192,38115,1,4,0:0:0:0:
320,192,38388,128,0,38524:0:0:0:0:
192,192,38524,128,0,38661:0:0:0:0:
64,192,38661,128,0,39751:0:0:0:0:
448,192,38661,1,0,0:0:0:0:
320,192,38797,1,0,0:0:0:0:
192,192,38933,1,0,0:0:0:0:
448,192,39070,1,0,0:0:0:0:
320,192,39206,1,0,0:0:0:0:
192,192,39206,1,0,0:0:0:40:LR_Clap DS.wav
192,192,39342,1,0,0:0:0:0:
448,192,39479,1,0,0:0:0:0:
448,192,39615,1,0,0:0:0:0:
192,192,39751,1,0,0:0:0:0:
320,192,39751,128,0,41388:0:0:0:0:
64,192,40024,128,0,40161:0:0:0:0:
192,192,40161,128,0,40297:0:0:0:0:
448,192,40297,128,0,40570:0:0:0:0:
64,192,40297,1,0,0:0:0:40:LR_Clap DS.wav
192,192,40570,128,0,40706:0:0:0:0:
64,192,40706,128,0,40842:0:0:0:0:
192,192,40842,1,0,0:0:0:0:
448,192,40842,1,0,0:0:0:0:
64,192,40979,128,0,41115:0:0:0:0:
192,192,41115,1,0,0:0:0:0:
448,192,41251,128,0,41388:0:0:0:0:
64,192,41388,128,0,41524:0:0:0:0:
192,192,41388,1,0,0:0:0:40:LR_Clap DS.wav
448,192,41524,128,0,41661:0:0:0:0:
64,192,41661,1,0,0:0:0:0:
192,192,41661,1,0,0:0:0:0:
320,192,41661,128,4,41933:0:0:0:0:
64,192,41933,1,0,0:0:0:0:
192,192,41933,1,0,0:0:0:0:
320,192,42001,1,0,0:0:0:0:
448,192,42001,1,0,0:0:0:0:
192,192,42070,1,0,0:0:0:0:
64,192,42070,1,0,0:0:0:0:
320,192,42138,1,0,0:0:0:0:
64,192,42206,1,4,0:0:0:0:
192,192,42206,1,0,0:0:0:0:
448,192,42206,1,0,0:0:0:0:
320,192,42479,1,0,0:0:0:40:LR_Clap DS.wav
448,192,42479,1,4,0:0:0:0:
64,192,42479,1,0,0:0:0:0:
192,192,42751,128,0,42888:0:0:0:0:
320,192,42888,128,0,43024:0:0:0:0:
448,192,43024,128,0,44115:0:0:0:0:
64,192,43024,1,0,0:0:0:0:
192,192,43161,1,0,0:0:0:0:
320,192,43297,1,0,0:0:0:0:
192,192,43433,1,0,0:0:0:0:
64,192,43433,1,0,0:0:0:0:
64,192,43570,1,0,0:0:0:0:
320,192,43570,1,0,0:0:0:40:LR_Clap DS.wav
320,192,43706,1,0,0:0:0:0:
64,192,43842,1,0,0:0:0:0:
192,192,43842,1,0,0:0:0:0:
192,192,43979,1,0,0:0:0:0:
64,192,44115,128,0,44251:0:0:0:0:
320,192,44115,1,0,0:0:0:0:
192,192,44251,128,0,44388:0:0:0:0:
448,192,44388,128,0,44524:0:0:0:0:
320,192,44524,128,0,44661:0:0:0:0:
64,192,44661,128,0,44933:0:0:0:0:
448,192,44933,128,0,45206:0:0:0:0:
192,192,45206,1,0,0:0:0:0:
64,192,45206,1,4,0:0:0:0:
320,192,45206,1,0,0:0:0:0:
320,192,45479,1,0,0:0:0:0:
448,192,45479,1,4,0:0:0:0:
64,192,45479,1,0,0:0:0:0:
64,192,45751,1,4,0:0:0:0:
192,192,45751,1,0,0:0:0:0:
448,192,45751,1,0,0:0:0:0:
320,192,46024,1,0,0:0:0:0:
448,192,46024,128,0,46297:0:0:0:0:
64,192,46297,1,0,0:0:0:0:
192,192,46297,1,0,0:0:0:0:
320,192,46365,1,0,0:0:0:0:
448,192,46365,1,0,0:0:0:0:
192,192,46433,1,0,0:0:0:0:
64,192,46433,1,0,0:0:0:0:
320,192,46501,1,0,0:0:0:0:
64,192,46570,1,4,0:0:0:0:
192,192,46570,1,0,0:0:0:0:
448,192,46570,1,0,0:0:0:0:
320,192,46842,1,0,0:0:0:40:LR_Clap DS.wav
448,192,46842,1,4,0:0:0:0:
64,192,46842,1,0,0:0:0:40:LR_Clap DS.wav
192,192,47115,128,0,47251:0:0:0:0:
320,192,47251,128,0,47388:0:0:0:0:
64,192,47388,128,0,48479:0:0:0:0:
448,192,47388,1,0,0:0:0:0:
192,192,47524,1,0,0:0:0:0:
320,192,47661,1,0,0:0:0:0:
448,192,47797,1,0,0:0:0:0:
192,192,47933,1,0,0:0:0:0:
320,192,47933,1,0,0:0:0:40:LR_Clap DS.wav
192,192,48070,1,0,0:0:0:0:
448,192,48206,1,0,0:0:0:0:
448,192,48342,1,0,0:0:0:0:
320,192,48479,128,0,50115:0:0:0:0:
192,192,48479,1,0,0:0:0:0:
64,192,48751,128,0,48888:0:0:0:0:
192,192,48888,128,0,49024:0:0:0:0:
448,192,49024,128,0,49297:0:0:0:0:
64,192,49024,1,0,0:0:0:40:LR_Clap DS.wav
64,192,49297,128,0,49433:0:0:0:0:
192,192,49433,128,0,49570:0:0:0:0:
64,192,49570,1,0,0:0:0:0:
448,192,49570,1,0,0:0:0:0:
192,192,49706,128,0,49842:0:0:0:0:
64,192,49842,1,0,0:0:0:0:
448,192,49979,128,0,50115:0:0:0:0:
64,192,50115,128,0,50251:0:0:0:0:
192,192,50115,1,0,0:0:0:40:LR_Clap DS.wav
320,192,50251,128,0,50388:0:0:0:0:
448,192,50388,1,4,0:0:0:0:
64,192,50388,1,0,0:0:0:0:
192,192,50388,128,0,50661:0:0:0:0:
448,192,50661,1,0,0:0:0:0:
320,192,50661,1,0,0:0:0:0:
192,192,50729,1,0,0:0:0:0:
64,192,50729,1,0,0:0:0:0:
320,192,50797,1,0,0:0:0:0:
448,192,50797,1,0,0:0:0:0:
192,192,50865,1,0,0:0:0:0:
64,192,50933,1,4,0:0:0:0:
448,192,50933,1,0,0:0:0:0:
320,192,50933,1,0,0:0:0:0:
192,192,51206,1,0,0:0:0:0:
64,192,51206,1,4,0:0:0:0:
448,192,51206,1,0,0:0:0:0:
448,192,51479,1,0,0:0:0:0:
64,192,51479,1,0,0:0:0:0:
320,192,51615,1,0,0:0:0:0:
64,192,51751,1,0,0:0:0:0:
192,192,51751,1,0,0:0:0:0:
320,192,51820,1,0,0:0:0:0:
448,192,51820,1,0,0:0:0:0:
64,192,51888,1,0,0:0:0:0:
192,192,51888,1,0,0:0:0:0:
320,192,51956,1,0,0:0:0:0:
192,192,52024,1,0,0:0:0:0:
448,192,52024,1,4,0:0:0:0:
64,192,52024,1,0,0:0:0:0:
320,192,52161,1,0,0:0:0:0:
448,192,52297,1,0,0:0:0:0:
64,192,52297,1,0,0:0:0:0:
192,192,52297,1,0,0:0:0:40:LR_Clap DS.wav
192,192,52433,1,0,0:0:0:0:
64,192,52570,1,0,0:0:0:0:
448,192,52570,1,0,0:0:0:0:
320,192,52638,1,0,0:0:0:0:
192,192,52706,1,0,0:0:0:0:
64,192,52706,1,0,0:0:0:0:
448,192,52774,1,0,0:0:0:0:
64,192,52842,128,0,53251:0:0:0:0:
192,192,52842,128,0,53251:0:0:0:0:
320,192,52842,1,0,0:0:0:0:
320,192,53251,1,0,0:0:0:40:normal-hitclap.wav
448,192,53251,1,0,0:0:0:0:
320,192,53524,1,0,0:0:0:40:normal-hitclap.wav
448,192,53524,1,0,0:0:0:0:
64,192,53524,1,0,0:0:0:0:
448,192,53797,1,0,0:0:0:0:
320,192,53797,1,0,0:0:0:40:normal-hitclap.wav
64,192,53797,1,0,0:0:0:0:
64,192,53933,1,0,0:0:0:0:
192,192,53933,1,0,0:0:0:40:normal-hitclap.wav
320,192,53933,1,0,0:0:0:0:
448,192,54070,1,0,0:0:0:0:
64,192,54206,1,0,0:0:0:0:
320,192,54206,1,0,0:0:0:0:
448,192,54342,1,0,0:0:0:0:
192,192,54342,1,0,0:0:0:40:normal-hitclap.wav
64,192,54342,1,0,0:0:0:0:
320,192,54479,1,0,0:0:0:0:
64,192,54615,1,0,0:0:0:0:
192,192,54615,1,0,0:0:0:0:
448,192,54751,1,0,0:0:0:0:
320,192,54751,1,0,0:0:0:40:normal-hitclap.wav
64,192,54751,1,0,0:0:0:0:
192,192,54888,1,0,0:0:0:0:
64,192,55024,1,4,0:0:0:0:
320,192,55024,1,0,0:0:0:0:
448,192,55024,1,0,0:0:0:0:
192,192,55297,1,0,0:0:0:40:tick.wav
320,192,55570,1,0,0:0:0:40:tick.wav
64,192,55842,1,0,0:0:0:40:tick.wav
192,192,55979,1,0,0:0:0:40:tick.wav
320,192,56115,1,0,0:0:0:40:tick.wav
448,192,56388,1,0,0:0:0:40:tick.wav
64,192,56661,1,0,0:0:0:40:tick.wav
320,192,56933,1,0,0:0:0:40:tick.wav
192,192,57206,1,0,0:0:0:40:tick.wav
448,192,57615,1,0,0:0:0:40:tick.wav
64,192,57888,1,0,0:0:0:40:tick.wav
192,192,58161,1,0,0:0:0:40:tick.wav
320,192,58297,1,0,0:0:0:40:tick.wav
320,192,58570,1,0,0:0:0:30:tick.wav
320,192,58842,1,0,0:0:0:20:tick.wav
320,192,59115,1,0,0:0:0:10:tick.wav
448,192,59388,1,0,0:0:0:0:
64,192,59388,128,0,59661:0:0:0:0:
192,192,59388,128,0,59661:0:0:0:0:
448,192,59661,1,0,0:0:0:0:
320,192,59661,1,0,0:0:0:40:LR_Clap DS.wav
64,192,59797,1,0,0:0:0:0:
192,192,59933,1,0,0:0:0:0:
320,192,59933,1,0,0:0:0:0:
448,192,60070,1,0,0:0:0:0:
320,192,60070,1,0,0:0:0:0:
64,192,60206,1,0,0:0:0:0:
192,192,60206,1,0,0:0:0:40:LR_Clap DS.wav
448,192,60206,1,0,0:0:0:0:
64,192,60342,1,0,0:0:0:0:
320,192,60342,1,0,0:0:0:0:
192,192,60479,128,0,60751:0:0:0:0:
320,192,60479,128,0,60751:0:0:0:0:
448,192,60479,1,0,0:0:0:0:
64,192,60751,1,0,0:0:0:0:
448,192,60751,1,0,0:0:0:40:LR_Clap DS.wav
320,192,60888,1,0,0:0:0:0:
192,192,61024,1,0,0:0:0:0:
64,192,61024,1,0,0:0:0:0:
320,192,61161,1,0,0:0:0:0:
448,192,61161,1,0,0:0:0:0:
64,192,61297,1,0,0:0:0:0:
192,192,61297,1,0,0:0:0:40:LR_Clap DS.wav
448,192,61297,1,0,0:0:0:0:
320,192,61433,1,0,0:0:0:0:
192,192,61433,1,0,0:0:0:0:
64,192,61570,1,0,0:0:0:0:
320,192,61570,128,0,61706:0:0:0:0:
448,192,61570,128,0,61706:0:0:0:0:
448,192,61979,1,0,0:0:0:0:
64,192,61979,128,0,62115:0:0:0:0:
192,192,61979,128,0,62115:0:0:0:0:
320,192,62251,1,0,0:0:0:0:
64,192,62251,1,0,0:0:0:0:
64,192,62388,1,0,0:0:0:0:
448,192,62388,1,0,0:0:0:0:
192,192,62388,1,0,0:0:0:0:
320,192,62524,1,0,0:0:0:0:
192,192,62524,1,0,0:0:0:0:
448,192,62661,1,0,0:0:0:0:
64,192,62661,128,0,62842:0:0:0:0:
192,192,62751,128,0,62933:0:0:0:0:
320,192,62842,128,0,63024:0:0:0:0:
448,192,62933,128,0,63115:0:0:0:0:
64,192,63024,128,0,63206:0:0:0:0:
192,192,63115,128,0,63297:0:0:0:0:
320,192,63206,128,0,63388:0:0:0:0:
448,192,63297,128,0,63479:0:0:0:0:
64,192,63388,128,0,63479:0:0:0:0:
320,192,63479,1,4,0:0:0:0:
192,192,63479,1,0,0:0:0:0:
64,192,63751,1,0,0:0:0:0:
448,192,63751,1,0,0:0:0:0:
320,192,63751,128,0,63888:0:0:0:0:
192,192,63888,1,0,0:0:0:0:
448,192,64024,1,0,0:0:0:0:
64,192,64024,128,0,64161:0:0:0:0:
320,192,64161,128,0,64297:0:0:0:0:
192,192,64161,1,0,0:0:0:0:
64,192,64297,1,0,0:0:0:0:
448,192,64297,128,0,64433:0:0:0:0:
192,192,64433,1,0,0:0:0:0:
448,192,64570,1,0,0:0:0:0:
320,192,64570,128,0,64706:0:0:0:0:
192,192,64706,128,0,64842:0:0:0:0:
64,192,64706,1,0,0:0:0:0:
320,192,64842,1,0,0:0:0:0:
448,192,64842,1,0,0:0:0:0:
64,192,64979,128,0,65115:0:0:0:0:
192,192,64979,1,0,0:0:0:0:
448,192,65115,1,0,0:0:0:0:
320,192,65115,1,0,0:0:0:0:
192,192,65183,1,0,0:0:0:0:
448,192,65251,1,0,0:0:0:0:
64,192,65251,1,0,0:0:0:0:
320,192,65320,1,0,0:0:0:0:
64,192,65388,1,0,0:0:0:0:
192,192,65388,1,0,0:0:0:0:
320,192,65524,1,0,0:0:0:0:
448,192,65524,128,0,65661:0:0:0:0:
64,192,65661,1,0,0:0:0:0:
192,192,65661,1,0,0:0:0:0:
320,192,65797,128,0,65933:0:0:0:0:
64,192,65797,1,0,0:0:0:0:
192,192,65933,1,0,0:0:0:0:
448,192,65933,1,0,0:0:0:0:
64,192,66070,128,0,66206:0:0:0:0:
320,192,66070,1,0,0:0:0:0:
192,192,66206,1,0,0:0:0:0:
448,192,66206,1,0,0:0:0:0:
192,192,66342,128,0,66479:0:0:0:0:
64,192,66342,1,0,0:0:0:0:
320,192,66479,1,0,0:0:0:0:
448,192,66479,1,0,0:0:0:0:
320,192,66615,128,0,66751:0:0:0:0:
64,192,66615,1,0,0:0:0:0:
192,192,66751,128,0,66888:0:0:0:0:
448,192,66751,1,0,0:0:0:0:
64,192,66888,128,0,67024:0:0:0:0:
320,192,66888,1,0,0:0:0:0:
448,192,67024,1,0,0:0:0:0:
320,192,67024,128,0,67161:0:0:0:0:
192,192,67161,1,0,0:0:0:0:
64,192,67297,1,0,0:0:0:0:
448,192,67297,1,0,0:0:0:0:
320,192,67433,1,0,0:0:0:0:
192,192,67570,1,4,0:0:0:0:
448,192,67570,1,0,0:0:0:0:
64,192,67570,128,0,67842:0:0:0:0:
192,192,67842,1,0,0:0:0:0:
448,192,67842,1,4,0:0:0:0:
320,192,67842,128,0,68115:0:0:0:0:
448,192,68115,1,0,0:0:0:0:
64,192,68115,1,0,0:0:0:0:
192,192,68115,1,0,0:0:0:0:
320,192,68251,1,0,0:0:0:0:
192,192,68388,1,0,0:0:0:0:
448,192,68388,128,0,68524:0:0:0:0:
64,192,68524,128,0,68661:0:0:0:0:
320,192,68524,1,0,0:0:0:0:
192,192,68661,1,0,0:0:0:0:
320,192,68661,128,0,68797:0:0:0:0:
64,192,68797,1,0,0:0:0:0:
192,192,68865,1,0,0:0:0:0:
320,192,68933,1,0,0:0:0:0:
448,192,68933,128,0,69070:0:0:0:0:
64,192,69070,128,0,69206:0:0:0:0:
192,192,69070,1,0,0:0:0:0:
320,192,69206,1,0,0:0:0:0:
448,192,69206,1,0,0:0:0:0:
448,192,69342,128,0,69479:0:0:0:0:
64,192,69342,1,0,0:0:0:0:
64,192,69479,1,0,0:0:0:0:
192,192,69479,1,0,0:0:0:0:
448,192,69547,1,0,0:0:0:0:
192,192,69615,1,0,0:0:0:0:
320,192,69615,1,0,0:0:0:0:
64,192,69683,1,0,0:0:0:0:
320,192,69751,1,0,0:0:0:0:
448,192,69751,1,0,0:0:0:0:
192,192,69820,1,0,0:0:0:0:
448,192,69888,1,0,0:0:0:0:
64,192,69888,1,0,0:0:0:0:
320,192,69956,1,0,0:0:0:0:
192,192,70024,1,0,0:0:0:0:
448,192,70024,1,0,0:0:0:0:
64,192,70092,1,0,0:0:0:0:
320,192,70161,1,0,0:0:0:0:
192,192,70161,1,0,0:0:0:0:
448,192,70229,1,0,0:0:0:0:
64,192,70297,1,0,0:0:0:0:
192,192,70297,1,0,0:0:0:0:
448,192,70365,1,0,0:0:0:0:
320,192,70365,1,0,0:0:0:0:
64,192,70433,1,0,0:0:0:0:
192,192,70433,1,0,0:0:0:0:
448,192,70501,1,0,0:0:0:0:
320,192,70501,1,0,0:0:0:0:
64,192,70570,1,0,0:0:0:0:
192,192,70570,1,0,0:0:0:0:
320,192,70706,1,0,0:0:0:0:
64,192,70842,1,0,0:0:0:0:
448,192,70842,1,0,0:0:0:0:
320,192,70911,1,0,0:0:0:0:
192,192,70911,1,0,0:0:0:0:
64,192,70979,1,0,0:0:0:0:
448,192,70979,1,0,0:0:0:0:
192,192,71047,1,0,0:0:0:0:
320,192,71047,1,0,0:0:0:0:
64,192,71115,1,0,0:0:0:0:
448,192,71115,1,0,0:0:0:0:
192,192,71251,1,0,0:0:0:0:
64,192,71388,1,4,0:0:0:0:
448,192,71388,128,0,71661:0:0:0:0:
320,192,71388,1,0,0:0:0:0:
64,192,71661,1,0,0:0:0:0:
192,192,71661,1,4,0:0:0:0:
320,192,71661,128,0,71933:0:0:0:0:
64,192,71933,1,4,0:0:0:0:
448,192,71933,128,0,72206:0:0:0:0:
192,192,71933,1,0,0:0:0:0:
320,192,72206,128,0,72479:0:0:0:0:
192,192,72206,1,4,0:0:0:0:
64,192,72206,1,0,0:0:0:0:
192,192,72479,1,0,0:0:0:0:
448,192,72479,1,0,0:0:0:0:
64,192,72479,128,0,72615:0:0:0:0:
320,192,72615,128,0,72751:0:0:0:0:
448,192,72615,1,0,0:0:0:0:
192,192,72751,128,0,72888:0:0:0:0:
64,192,72751,1,0,0:0:0:0:
64,192,72888,128,0,73024:0:0:0:0:
320,192,72888,1,0,0:0:0:0:
448,192,73024,128,0,73161:0:0:0:0:
192,192,73024,1,0,0:0:0:0:
320,192,73161,1,0,0:0:0:0:
64,192,73297,1,0,0:0:0:0:
192,192,73297,128,0,73433:0:0:0:0:
448,192,73433,128,0,73570:0:0:0:0:
320,192,73433,1,0,0:0:0:0:
64,192,73570,1,0,0:0:0:0:
192,192,73570,1,0,0:0:0:0:
320,192,73706,128,0,73842:0:0:0:0:
192,192,73706,1,0,0:0:0:0:
64,192,73842,1,0,0:0:0:0:
448,192,73842,1,0,0:0:0:0:
192,192,73911,1,0,0:0:0:0:
320,192,73979,1,0,0:0:0:0:
448,192,73979,1,0,0:0:0:0:
192,192,74047,1,0,0:0:0:0:
448,192,74115,1,0,0:0:0:0:
64,192,74115,1,0,0:0:0:0:
320,192,74251,128,0,74388:0:0:0:0:
192,192,74251,1,0,0:0:0:0:
64,192,74388,1,0,0:0:0:0:
448,192,74388,1,0,0:0:0:0:
448,192,74524,128,0,74661:0:0:0:0:
192,192,74524,1,0,0:0:0:0:
320,192,74661,1,0,0:0:0:0:
64,192,74661,1,0,0:0:0:0:
64,192,74797,128,0,74933:0:0:0:0:
448,192,74797,1,0,0:0:0:0:
448,192,74933,1,0,0:0:0:0:
192,192,74933,1,0,0:0:0:0:
192,192,75070,128,0,75206:0:0:0:0:
320,192,75070,1,0,0:0:0:0:
64,192,75206,1,0,0:0:0:0:
448,192,75206,1,0,0:0:0:0:
320,192,75342,128,0,75479:0:0:0:0:
64,192,75342,1,0,0:0:0:0:
448,192,75479,1,0,0:0:0:0:
192,192,75479,128,0,75615:0:0:0:0:
64,192,75615,128,0,75751:0:0:0:0:
448,192,75615,1,0,0:0:0:0:
192,192,75751,1,0,0:0:0:0:
320,192,75751,128,0,75888:0:0:0:0:
64,192,75888,1,0,0:0:0:0:
192,192,76024,1,0,0:0:0:0:
448,192,76024,1,0,0:0:0:0:
320,192,76161,1,0,0:0:0:0:
192,192,76297,1,0,0:0:0:0:
64,192,76297,1,0,0:0:0:0:
64,192,76433,1,0,0:0:0:0:
192,192,76433,1,0,0:0:0:0:
448,192,76570,1,0,0:0:0:0:
320,192,76570,1,0,0:0:0:0:
64,192,76638,1,0,0:0:0:0:
192,192,76638,1,0,0:0:0:0:
320,192,76706,1,0,0:0:0:0:
448,192,76706,1,0,0:0:0:0:
192,192,76774,1,0,0:0:0:0:
320,192,76842,1,0,0:0:0:40:normal-hitclap.wav
64,192,76842,1,0,0:0:0:0:
448,192,76842,128,0,76979:0:0:0:0:
192,192,76979,128,0,77115:0:0:0:0:
320,192,77115,128,0,77251:0:0:0:0:
192,192,77251,1,0,0:0:0:0:
448,192,77251,1,0,0:0:0:40:normal-hitclap.wav
64,192,77251,128,0,77388:0:0:0:0:
320,192,77388,128,0,77524:0:0:0:0:
192,192,77524,1,0,0:0:0:0:
64,192,77661,1,0,0:0:0:0:
320,192,77661,1,0,0:0:0:40:normal-hitclap.wav
448,192,77661,128,0,77797:0:0:0:0:
192,192,77797,128,0,77933:0:0:0:0:
320,192,77933,1,0,0:0:0:0:
448,192,78070,1,0,0:0:0:40:normal-hitclap.wav
192,192,78070,1,0,0:0:0:0:
64,192,78070,128,0,78206:0:0:0:0:
320,192,78206,1,0,0:0:0:0:
64,192,78342,1,0,0:0:0:0:
448,192,78342,1,0,0:0:0:40:normal-hitclap.wav
192,192,78342,128,0,78479:0:0:0:0:
448,192,78479,128,0,78615:0:0:0:0:
320,192,78479,1,0,0:0:0:40:normal-hitclap.wav
64,192,78479,1,0,0:0:0:0:
64,192,78615,128,0,78751:0:0:0:0:
192,192,78751,128,0,78888:0:0:0:0:
320,192,78888,128,0,79024:0:0:0:0:
448,192,79161,1,0,0:0:0:40:normal-hitclap.wav
192,192,79161,1,0,0:0:0:0:
64,192,79161,128,0,79297:0:0:0:0:
448,192,79297,128,0,79433:0:0:0:0:
320,192,79433,1,0,0:0:0:40:normal-hitclap.wav
64,192,79433,1,0,0:0:0:0:
192,192,79433,128,0,79570:0:0:0:0:
320,192,79570,128,0,79706:0:0:0:0:
64,192,79706,1,0,0:0:0:0:
192,192,79706,1,0,0:0:0:40:normal-hitclap.wav
448,192,79706,128,0,79842:0:0:0:0:
192,192,79842,128,0,79979:0:0:0:0:
320,192,79979,1,0,0:0:0:0:
448,192,79979,1,0,0:0:0:40:normal-hitclap.wav
64,192,79979,128,0,80115:0:0:0:0:
320,192,80115,1,0,0:0:0:40:normal-hitclap.wav
448,192,80115,128,0,80933:0:0:0:0:
192,192,80115,1,0,0:0:0:0:
64,192,80388,1,0,0:0:0:0:
320,192,80524,1,0,0:0:0:0:
64,192,80661,1,0,0:0:0:0:
320,192,80797,1,0,0:0:0:0:
320,192,80933,1,0,0:0:0:0:
64,192,80933,1,4,0:0:0:0:
192,192,80933,1,0,0:0:0:0:
192,192,81070,1,0,0:0:0:0:
320,192,81206,1,0,0:0:0:0:
448,192,81206,1,4,0:0:0:0:
64,192,81206,1,0,0:0:0:0:
192,192,81479,1,0,0:0:0:40:tick.wav
320,192,81751,1,0,0:0:0:40:tick.wav
64,192,82024,1,0,0:0:0:40:tick.wav
192,192,82161,1,0,0:0:0:40:tick.wav
320,192,82297,1,0,0:0:0:40:tick.wav
448,192,82570,1,0,0:0:0:40:tick.wav
320,192,82842,1,0,0:0:0:40:tick.wav
64,192,83115,1,0,0:0:0:40:tick.wav
192,192,83388,1,0,0:0:0:40:tick.wav
448,192,83797,1,0,0:0:0:40:tick.wav
64,192,84070,1,0,0:0:0:40:tick.wav
192,192,84342,1,0,0:0:0:40:tick.wav
320,192,84479,1,0,0:0:0:40:tick.wav
320,192,84751,1,0,0:0:0:30:tick.wav
320,192,85024,1,0,0:0:0:20:tick.wav
320,192,85297,1,0,0:0:0:10:tick.wav
64,192,85570,1,0,0:0:0:40:tick.wav
192,192,85842,1,0,0:0:0:40:tick.wav
320,192,86115,1,0,0:0:0:40:tick.wav
64,192,86388,1,0,0:0:0:40:tick.wav
192,192,86524,1,0,0:0:0:40:tick.wav
320,192,86661,1,0,0:0:0:0:
448,192,86661,1,4,0:0:0:0:
64,192,86661,1,0,0:0:0:0:
192,192,86933,128,0,87479:0:0:0:0:
448,192,87479,1,0,0:0:0:0:
64,192,87547,1,0,0:0:0:0:
192,192,87615,1,0,0:0:0:0:
320,192,87683,1,0,0:0:0:0:
64,192,87751,1,0,0:0:0:0:
192,192,87751,1,0,0:0:0:0:
448,192,87751,1,0,0:0:0:0:
320,192,87888,1,0,0:0:0:0:
448,192,87888,1,0,0:0:0:0:
192,192,87888,1,0,0:0:0:0:
64,192,88024,1,0,0:0:0:0:
448,192,88024,1,4,0:0:0:0:
320,192,88024,1,0,0:0:0:0:
192,192,88024,1,0,0:0:0:0:
192,192,88297,1,0,0:0:0:0:
320,192,88297,1,0,0:0:0:0:
64,192,88297,1,0,0:0:0:0:
64,192,88433,1,0,0:0:0:0:
448,192,88433,1,0,0:0:0:0:
320,192,88433,1,0,0:0:0:0:
192,192,88570,1,0,0:0:0:0:
320,192,88570,1,0,0:0:0:0:
448,192,88570,1,4,0:0:0:0:
64,192,88570,1,0,0:0:0:0:
192,192,88842,1,0,0:0:0:0:
448,192,88842,1,4,0:0:0:0:
64,192,88842,1,0,0:0:0:0:
320,192,88842,1,0,0:0:0:0:
320,192,88979,128,0,89115:0:0:0:0:
64,192,89115,128,0,89251:0:0:0:0:
192,192,89251,128,0,89342:0:0:0:0:
448,192,89342,128,0,89433:0:0:0:0:
320,192,89433,128,0,89524:0:0:0:0:
64,192,89524,128,0,89661:0:0:0:0:
448,192,89661,1,0,0:0:0:0:
320,192,89661,1,0,0:0:0:0:
192,192,89661,1,4,0:0:0:0:
320,192,89933,1,0,0:0:0:0:
448,192,89933,1,0,0:0:0:0:
64,192,89933,1,0,0:0:0:0:
192,192,89933,1,0,0:0:0:0:
320,192,90070,1,0,0:0:0:0:
64,192,90206,1,0,0:0:0:0:
192,192,90206,1,0,0:0:0:0:
448,192,90206,1,0,0:0:0:0:
192,192,90342,1,0,0:0:0:0:
64,192,90479,1,0,0:0:0:0:
448,192,90479,1,0,0:0:0:0:
320,192,90479,1,0,0:0:0:0:
448,192,90615,1,0,0:0:0:0:
320,192,90751,1,0,0:0:0:0:
192,192,90751,1,0,0:0:0:0:
64,192,90751,1,0,0:0:0:0:
320,192,90888,1,0,0:0:0:0:
64,192,91024,1,0,0:0:0:0:
192,192,91024,1,0,0:0:0:0:
448,192,91024,1,0,0:0:0:0:
192,192,91161,1,0,0:0:0:0:
64,192,91297,1,0,0:0:0:0:
448,192,91297,1,0,0:0:0:0:
320,192,91297,1,0,0:0:0:0:
64,192,91433,1,0,0:0:0:0:
320,192,91570,1,0,0:0:0:0:
192,192,91570,1,0,0:0:0:0:
448,192,91570,1,4,0:0:0:0:
64,192,91842,1,4,0:0:0:0:
448,192,91842,1,0,0:0:0:0:
192,192,91842,1,0,0:0:0:0:
64,192,92115,128,0,92661:0:0:0:0:
448,192,92115,1,0,0:0:0:0:
320,192,92115,1,0,0:0:0:0:
192,192,92388,128,0,92661:0:0:0:0:
448,192,92661,128,0,92729:0:0:0:0:
320,192,92729,128,0,92797:0:0:0:0:
64,192,92797,128,0,92865:0:0:0:0:
192,192,92865,128,0,92933:0:0:0:0:
320,192,92933,128,0,93001:0:0:0:0:
448,192,93001,128,0,93070:0:0:0:0:
192,192,93070,128,0,93138:0:0:0:0:
64,192,93138,128,0,93206:0:0:0:0:
320,192,93206,1,0,0:0:0:0:
448,192,93206,1,0,0:0:0:0:
320,192,93342,1,0,0:0:0:0:
448,192,93342,1,0,0:0:0:0:
192,192,93479,1,0,0:0:0:0:
64,192,93479,1,0,0:0:0:0:
192,192,93615,1,0,0:0:0:0:
64,192,93615,1,0,0:0:0:0:
448,192,93751,1,0,0:0:0:0:
320,192,93751,1,0,0:0:0:0:
320,192,93888,1,0,0:0:0:0:
448,192,93888,1,0,0:0:0:0:
192,192,94024,1,0,0:0:0:0:
448,192,94024,1,4,0:0:0:0:
64,192,94024,1,0,0:0:0:0:
64,192,94297,1,0,0:0:0:0:
448,192,94297,1,0,0:0:0:0:
320,192,94297,1,0,0:0:0:0:
192,192,94297,1,0,0:0:0:0:
320,192,94433,1,0,0:0:0:0:
192,192,94570,1,0,0:0:0:0:
64,192,94570,1,0,0:0:0:0:
448,192,94570,1,0,0:0:0:0:
192,192,94706,1,0,0:0:0:0:
64,192,94842,1,0,0:0:0:0:
448,192,94842,1,0,0:0:0:0:
320,192,94842,1,0,0:0:0:0:
64,192,94979,1,0,0:0:0:0:
448,192,95115,1,0,0:0:0:0:
320,192,95115,1,0,0:0:0:0:
192,192,95115,1,0,0:0:0:0:
320,192,95251,1,0,0:0:0:0:
64,192,95388,1,0,0:0:0:0:
448,192,95388,1,0,0:0:0:0:
192,192,95388,1,0,0:0:0:0:
448,192,95524,1,0,0:0:0:0:
192,192,95661,1,0,0:0:0:0:
320,192,95661,1,0,0:0:0:0:
64,192,95661,1,0,0:0:0:0:
192,192,95797,1,0,0:0:0:0:
64,192,95933,1,0,0:0:0:0:
320,192,95933,1,0,0:0:0:0:
448,192,95933,1,4,0:0:0:0:
64,192,96206,1,4,0:0:0:0:
192,192,96206,1,0,0:0:0:0:
448,192,96206,1,0,0:0:0:0:
64,192,96479,1,0,0:0:0:0:
320,192,96479,1,0,0:0:0:40:normal-hitclap.wav
448,192,96479,1,0,0:0:0:0:
192,192,96615,1,0,0:0:0:40:normal-hitclap.wav
448,192,96615,1,0,0:0:0:0:
64,192,96615,1,0,0:0:0:0:
320,192,96751,128,0,97570:0:0:0:0:
448,192,96751,128,0,97024:0:0:0:0:
64,192,96751,1,0,0:0:0:40:normal-hitclap.wav
192,192,97024,128,0,97570:0:0:0:0:
64,192,97570,1,4,0:0:0:0:
448,192,97570,1,0,0:0:0:0:
64,192,97842,1,0,0:0:0:0:
320,192,97842,1,0,0:0:0:0:
448,192,97842,1,4,0:0:0:0:
192,192,98115,1,0,0:0:0:0:
64,192,98115,1,4,0:0:0:0:
448,192,98115,1,0,0:0:0:0:
320,192,98388,1,0,0:0:0:0:
448,192,98388,1,4,0:0:0:0:
64,192,98388,1,0,0:0:0:0:
64,192,98661,1,0,0:0:0:0:
192,192,98661,1,0,0:0:0:0:
320,192,98661,1,0,0:0:0:0:
448,192,98661,1,0,0:0:0:0:
64,192,98797,1,0,0:0:0:0:
192,192,98933,1,0,0:0:0:0:
448,192,98933,1,0,0:0:0:0:
320,192,98933,1,0,0:0:0:0:
192,192,99070,1,0,0:0:0:0:
64,192,99206,1,0,0:0:0:0:
320,192,99206,1,0,0:0:0:0:
448,192,99206,1,0,0:0:0:0:
320,192,99342,1,0,0:0:0:0:
448,192,99479,1,0,0:0:0:0:
192,192,99479,1,0,0:0:0:0:
64,192,99479,1,0,0:0:0:0:
448,192,99615,1,0,0:0:0:0:
64,192,99751,1,0,0:0:0:0:
320,192,99751,1,0,0:0:0:0:
192,192,99751,1,0,0:0:0:0:
64,192,99888,1,0,0:0:0:0:
192,192,100024,1,0,0:0:0:0:
448,192,100024,1,0,0:0:0:0:
320,192,100024,1,0,0:0:0:0:
448,192,100161,1,0,0:0:0:0:
64,192,100297,1,0,0:0:0:0:
320,192,100297,1,0,0:0:0:0:
192,192,100297,1,4,0:0:0:0:
64,192,100570,1,4,0:0:0:0:
448,192,100570,1,0,0:0:0:0:
320,192,100570,1,0,0:0:0:0:
448,192,100842,128,0,100979:0:0:0:0:
192,192,100842,1,0,0:0:0:0:
64,192,100842,1,0,0:0:0:0:
320,192,100979,128,0,101115:0:0:0:0:
192,192,101115,128,0,101251:0:0:0:0:
64,192,101251,128,0,101388:0:0:0:0:
448,192,101388,128,0,101524:0:0:0:0:
320,192,101524,128,0,101661:0:0:0:0:
192,192,101661,128,0,101797:0:0:0:0:
448,192,101797,128,0,101933:0:0:0:0:
64,192,101933,128,0,102070:0:0:0:0:
320,192,101933,1,0,0:0:0:40:LR_Clap DS.wav
192,192,101933,1,0,0:0:0:0:
192,192,102070,128,0,102206:0:0:0:0:
320,192,102206,128,0,102342:0:0:0:0:
448,192,102342,128,0,102479:0:0:0:0:
64,192,102479,128,0,102615:0:0:0:0:
192,192,102615,128,0,102751:0:0:0:0:
320,192,102751,128,0,103024:0:0:0:0:
64,192,103024,1,0,0:0:0:0:
192,192,103024,1,0,0:0:0:0:
448,192,103024,1,0,0:0:0:0:
448,192,103161,128,0,103297:0:0:0:0:
320,192,103161,1,0,0:0:0:0:
192,192,103297,1,0,0:0:0:0:
64,192,103297,1,0,0:0:0:0:
320,192,103433,128,0,103570:0:0:0:0:
192,192,103433,1,0,0:0:0:0:
64,192,103570,1,0,0:0:0:0:
448,192,103570,1,0,0:0:0:0:
192,192,103706,128,0,103842:0:0:0:0:
64,192,103706,1,0,0:0:0:0:
448,192,103842,1,0,0:0:0:0:
320,192,103842,1,0,0:0:0:0:
64,192,103979,128,0,104115:0:0:0:0:
320,192,103979,1,0,0:0:0:0:
448,192,104115,1,0,0:0:0:0:
192,192,104115,1,0,0:0:0:0:
320,192,104251,128,0,104388:0:0:0:0:
448,192,104251,1,0,0:0:0:0:
64,192,104388,1,0,0:0:0:0:
192,192,104388,1,0,0:0:0:0:
64,192,104456,1,0,0:0:0:0:
192,192,104456,1,0,0:0:0:0:
320,192,104524,1,0,0:0:0:0:
448,192,104524,1,0,0:0:0:0:
320,192,104592,1,0,0:0:0:0:
448,192,104592,1,0,0:0:0:0:
64,192,104661,1,0,0:0:0:0:
192,192,104661,1,0,0:0:0:0:
448,192,104933,1,0,0:0:0:0:
320,192,104967,1,0,0:0:0:0:
64,192,105001,1,0,0:0:0:0:
192,192,105036,1,0,0:0:0:0:
448,192,105070,1,0,0:0:0:0:
320,192,105104,1,0,0:0:0:0:
64,192,105138,1,0,0:0:0:0:
192,192,105172,1,0,0:0:0:0:
320,192,105206,1,0,0:0:0:0:
448,192,105206,1,0,0:0:0:0:
192,192,105342,128,0,105479:0:0:0:0:
320,192,105479,1,0,0:0:0:0:
64,192,105479,1,4,0:0:0:0:
448,192,105479,1,0,0:0:0:0:
192,192,105751,1,0,0:0:0:0:
320,192,105751,1,0,0:0:0:0:
448,192,105751,1,4,0:0:0:0:
64,192,105888,1,0,0:0:0:0:
192,192,105956,1,0,0:0:0:0:
448,192,106024,1,0,0:0:0:0:
320,192,106092,1,0,0:0:0:0:
64,192,106161,1,0,0:0:0:0:
192,192,106229,1,0,0:0:0:0:
320,192,106297,1,4,0:0:0:0:
448,192,106297,1,0,0:0:0:0:
64,192,106297,128,0,106570:0:0:0:0:
192,192,106570,128,0,106842:0:0:0:0:
320,192,106570,1,0,0:0:0:0:
448,192,106570,1,4,0:0:0:0:
64,192,106842,128,0,107115:0:0:0:0:
320,192,106842,1,4,0:0:0:0:
448,192,106842,1,0,0:0:0:0:
448,192,107115,128,0,107388:0:0:0:0:
192,192,107115,1,0,0:0:0:0:
192,192,107388,1,0,0:0:0:0:
64,192,107388,1,0,0:0:0:0:
320,192,107388,1,0,0:0:0:40:normal-hitclap.wav
448,192,107524,1,0,0:0:0:0:
320,192,107661,1,0,0:0:0:0:
64,192,107797,1,0,0:0:0:0:
448,192,107797,1,0,0:0:0:0:
192,192,107797,1,0,0:0:0:40:normal-hitclap.wav
320,192,107933,1,0,0:0:0:0:
192,192,108070,1,0,0:0:0:0:
320,192,108206,1,0,0:0:0:0:
448,192,108206,1,0,0:0:0:0:
64,192,108206,1,0,0:0:0:40:normal-hitclap.wav
192,192,108342,1,0,0:0:0:0:
320,192,108479,1,0,0:0:0:0:
64,192,108479,1,4,0:0:0:0:
448,192,108479,128,0,108751:0:0:0:0:
320,192,108751,128,0,109024:0:0:0:0:
192,192,108751,1,4,0:0:0:0:
64,192,108751,1,0,0:0:0:0:
192,192,109024,128,0,109297:0:0:0:0:
64,192,109024,1,4,0:0:0:0:
448,192,109024,1,0,0:0:0:0:
64,192,109297,128,0,109570:0:0:0:0:
320,192,109297,1,0,0:0:0:0:
448,192,109297,1,4,0:0:0:0:
448,192,109570,1,0,0:0:0:0:
192,192,109570,1,0,0:0:0:0:
320,192,109570,1,0,0:0:0:40:normal-hitclap.wav
64,192,109706,1,0,0:0:0:0:
192,192,109842,1,0,0:0:0:0:
64,192,109979,1,0,0:0:0:0:
448,192,109979,1,0,0:0:0:0:
320,192,109979,1,0,0:0:0:40:normal-hitclap.wav
192,192,110115,1,0,0:0:0:0:
320,192,110251,1,0,0:0:0:0:
64,192,110388,1,0,0:0:0:0:
448,192,110388,1,0,0:0:0:0:
192,192,110388,1,0,0:0:0:40:normal-hitclap.wav
320,192,110524,1,0,0:0:0:0:
64,192,110661,128,0,110933:0:0:0:0:
448,192,110661,1,0,0:0:0:0:
192,192,110661,1,4,0:0:0:0:
192,192,110933,128,0,111206:0:0:0:0:
448,192,110933,1,0,0:0:0:0:
320,192,110933,1,4,0:0:0:0:
448,192,111206,1,0,0:0:0:0:
64,192,111206,1,4,0:0:0:0:
320,192,111206,128,0,111479:0:0:0:0:
448,192,111479,128,0,111751:0:0:0:0:
64,192,111479,1,4,0:0:0:0:
192,192,111479,1,0,0:0:0:0:
64,192,111751,1,0,0:0:0:0:
320,192,111751,1,0,0:0:0:0:
192,192,111820,1,0,0:0:0:0:
448,192,111888,1,0,0:0:0:0:
64,192,111888,1,0,0:0:0:0:
320,192,111956,1,0,0:0:0:0:
448,192,112024,1,0,0:0:0:0:
192,192,112024,1,0,0:0:0:0:
64,192,112092,1,0,0:0:0:0:
320,192,112161,1,0,0:0:0:0:
192,192,112161,1,0,0:0:0:0:
448,192,112229,1,0,0:0:0:0:
64,192,112297,128,0,112570:0:0:0:0:
192,192,112297,1,0,0:0:0:40:LR_Clap DS.wav
320,192,112297,1,0,0:0:0:0:
448,192,112570,128,0,112842:0:0:0:0:
320,192,112842,1,0,0:0:0:0:
192,192,112842,128,0,113115:0:0:0:0:
320,192,113115,128,0,113388:0:0:0:0:
64,192,113388,1,0,0:0:0:0:
192,192,113388,1,0,0:0:0:40:LR_Clap DS.wav
448,192,113388,1,0,0:0:0:0:
192,192,113524,1,0,0:0:0:0:
64,192,113524,1,0,0:0:0:0:
320,192,113661,1,0,0:0:0:0:
448,192,113661,1,0,0:0:0:0:
320,192,113797,1,0,0:0:0:0:
448,192,113797,1,0,0:0:0:0:
64,192,113933,1,0,0:0:0:0:
448,192,113933,1,0,0:0:0:0:
192,192,113933,1,0,0:0:0:40:normal-hitclap.wav
320,192,114070,1,0,0:0:0:0:
192,192,114206,1,0,0:0:0:0:
64,192,114342,1,0,0:0:0:0:
448,192,114342,1,0,0:0:0:0:
320,192,114342,1,0,0:0:0:40:normal-hitclap.wav
192,192,114479,1,0,0:0:0:0:
320,192,114615,1,0,0:0:0:0:
64,192,114751,1,0,0:0:0:0:
448,192,114751,1,0,0:0:0:0:
192,192,114751,1,0,0:0:0:40:normal-hitclap.wav
320,192,114888,1,0,0:0:0:0:
64,192,115024,1,2,0:0:0:0:
448,192,115024,1,0,0:0:0:0:
192,192,115024,1,0,0:0:0:40:normal-hitclap.wav
320,192,115297,1,8,0:0:0:0:
192,192,115570,1,2,0:0:0:0:
448,192,115842,1,0,0:0:0:0:
64,192,115842,1,4,0:0:0:0:
320,192,115842,1,0,0:0:0:0:
