osu file format v9

[General]
AudioFilename: Ragnarok battle offline Opening -HD-.mp3
AudioLeadIn: 0
PreviewTime: 59737
Countdown: 0
SampleSet: Soft
StackLeniency: 0.7
Mode: 0
LetterboxInBreaks: 0

[Editor]
Bookmarks: 13918,24464,33555,48100
DistanceSpacing: 0.8
BeatDivisor: 2
GridSize: 4

[Metadata]
Title:Sajin no Kanata He
Artist:Lisa-Rec
Creator:Tur00
Version:Orc Hero
Source:Ragnarok Battle Offline
Tags:R_e_v_i_v_e Raito bermei inazawa RBO opening Konei

[Difficulty]
HPDrainRate:4
CircleSize:4
OverallDifficulty:4
ApproachRate:5
SliderMultiplier:1.1
SliderTickRate:2

[Events]
//Background and Video events
Video,0,"RBO.avi"
0,0,"BG.jpg"
//Break Periods
//Storyboard Layer 0 (Background)
//Storyboard Layer 1 (Fail)
//Storyboard Layer 2 (Pass)
//Storyboard Layer 3 (Foreground)
//Storyboard Sound Samples
//Background Colour Transformations
3,100,163,162,255

[TimingPoints]
1491,363.636363636364,4,2,1,70,1,0
59672,-100,4,2,1,80,0,1
85854,-100,4,2,1,80,0,0

[Colours]
Combo1 : 255,189,89
Combo2 : 252,235,116
Combo3 : 0,128,255
Combo4 : 252,103,103

[HitObjects]
256,136,13127,1,4
164,232,13672,2,0,B|164:176,1,55,0|2
256,272,14400,2,0,B|256:212,1,55,0|2
320,100,15127,2,0,B|320:156,1,55,0|2
320,288,15854,1,0
320,332,16036,6,0,B|291:320|247:344|208:332,1,110,2|8
204,244,16763,2,0,B|172:232|128:256|92:244,1,110,0|8
92,156,17491,2,0,B|199:117|312:156,1,220,2|2
388,316,18945,5,4
256,296,19491,2,0,B|256:240,1,55,0|2
124,241,20218,2,0,B|124:296,1,55,0|2
124,164,20945,1,0
124,120,21127,2,0,B|236:120,1,110,2|8
324,120,21854,6,0,B|360:132|360:196|324:208,1,110,0|8
236,208,22581,2,0,B|184:236|132:208,2,110,0|8|2
236,296,23672,1,0
280,296,23854,2,2,B|336:296,1,55,2|2
380,296,24218,2,2,B|436:296,1,55,2|2
408,212,24763,6,0,B|356:192|300:212,1,110,4|2
212,212,25491,2,0,B|172:164|212:112,1,110,0|2
128,80,26218,1,0
260,60,26763,2,0,B|316:60,1,55,0|2
164,152,27672,6,0,B|216:124|268:152,1,110,2|8
216,220,28400,2,0,B|268:248|320:220,1,110,0|8
352,300,29127,2,0,B|412:276|436:216|412:156|346:135,1,220,0|8
228,264,30581,6,0,B|116:264,1,110,4|2
44,216,31309,2,0,B|44:104,1,110,0|2
124,64,32036,2,0,B|180:56|180:56|220:96,1,110,0|8
300,124,32763,1,2
232,180,33127,1,10
256,192,33491,12,2,35672
256,248,36400,6,0,B|204:276|152:248,1,110,4|8
152,164,37127,2,0,B|204:132|256:164,1,110,0|8
336,204,37854,2,0,B|364:188|424:220|448:204,2,110,0|8|0
384,280,38945,2,0,B|364:308|304:308|284:280,1,110,8|2
112,320,40036,6,0,B|112:208,1,110,0|8
112,120,40763,2,0,B|167:112|167:112|220:120,1,110,0|8
308,120,41491,1,2
152,200,42218,6,0,B|123:253|151:305,1,110,4|8
228,348,42945,2,0,B|284:340|340:348,1,110,0|8
408,296,43672,1,0
408,208,44036,1,8
408,120,44400,2,0,B|356:88|304:120,1,110,0|8
216,120,45127,6,0,B|104:120,1,110,0|8
104,208,45854,2,0,B|104:276|176:276,1,110,2|8
260,276,46581,2,0,B|336:276|396:216|396:120,1,220,2|2
312,100,47672,1,2
228,72,48036,6,0,B|176:88|176:88|124:72,1,110,4|8
116,160,48763,2,0,B|136:212|136:212|116:264,1,110,2|8
204,272,49491,2,0,B|256:252|256:252|308:272,1,110,2|8
360,272,50036,2,0,B|428:272|428:204,1,110
428,160,50581,1,8
344,180,50945,6,0,B|116:180,1,220,4|0
100,96,52036,1,8
188,96,52400,2,0,B|300:96,1,110,0|10
384,88,53127,1,2
412,172,53491,1,8
400,260,53854,6,0,B|340:252|320:192,1,110,4|8
300,108,54581,2,0,B|292:84|256:68|220:84|212:108,1,110,0|0
192,192,55309,2,0,B|172:252|112:260,1,110,4|0
256,192,56036,12,0,58036
256,192,59672,5,6
396,300,60400,1,2
256,192,61127,1,2
80,192,61854,1,2
80,280,62218,1,8
168,280,62581,6,0,B|280:280,1,110,0|8
280,192,63309,1,0
280,104,63672,2,0,B|208:104,2,55,8|0|0
368,104,64400,1,8
368,192,64763,2,0,B|391:246|368:304,1,110,2|8
280,300,65491,6,0,B|168:300,1,110,0|8
80,300,66218,2,0,B|58:247|81:192,1,110,2|8
80,104,66945,2,0,B|168:104|168:104|184:88,1,110,0|8
256,36,67672,1,0
328,88,68036,2,0,B|344:104|344:104|432:104,1,110,8|0
436,188,68763,5,8
436,276,69127,1,0
348,276,69491,2,0,B|288:276,1,55,8|0
248,276,69854,1,0
160,276,70218,1,8
160,188,70581,1,2
160,100,70945,6,0,B|276:100,1,110,8|6
360,100,71672,1,2
448,100,72036,2,0,B|456:118|456:118|440:182|440:182|448:212,1,110,0|8
360,208,72763,2,0,B|304:192|248:208,1,110,0|8
252,296,73491,2,0,B|200:280|140:296,1,110,0|8
52,296,74218,5,0
52,208,74581,2,0,B|52:96,1,110,8|0
140,96,75309,2,2,B|140:40,2,55,2|2|4
196,164,76036,1,2
256,228,76400,1,0
344,228,76763,1,8
432,228,77127,6,0,B|428:292|368:312,1,110,0|8
284,312,77854,2,0,B|172:312,1,110,0|8
84,312,78581,2,0,B|52:268|52:260|116:160|116:152|84:104,1,220
260,120,80036,5,0
348,120,80400,1,8
436,120,80763,1,0
436,208,81127,1,8
436,296,81491,2,0,B|384:328|332:296,1,110,0|8
244,296,82218,2,0,B|192:264|140:296,1,110,0|8
52,308,82945,6,0,B|51:245|104:220,1,110,4|8
164,156,83672,1,0
220,88,84036,1,8
276,156,84400,2,0,B|328:176|328:176|388:156,1,110,0|8
380,248,85127,2,0,B|328:264|328:264|268:248,1,110,0|8
256,192,85854,12,4,88581
