osu file format v9

[General]
AudioFilename: Ragnarok battle offline Opening -HD-.mp3
AudioLeadIn: 0
PreviewTime: 59737
Countdown: 0
SampleSet: Soft
StackLeniency: 0.7
Mode: 0
LetterboxInBreaks: 0

[Editor]
DistanceSpacing: 0.7
BeatDivisor: 2
GridSize: 4

[Metadata]
Title:Sajin no Kanata He
Artist:Lisa-Rec
Creator:Tur00
Version:Eclipse
Source:Ragnarok Battle Offline
Tags:R_e_v_i_v_e Raito bermei inazawa RBO opening Konei

[Difficulty]
HPDrainRate:2
CircleSize:3
OverallDifficulty:2
ApproachRate:3
SliderMultiplier:1
SliderTickRate:2

[Events]
//Background and Video events
Video,0,"RBO.avi"
0,0,"BG.jpg"
//Break Periods
//Storyboard Layer 0 (Background)
//Storyboard Layer 1 (Fail)
//Storyboard Layer 2 (Pass)
//Storyboard Layer 3 (Foreground)
//Storyboard Sound Samples
//Background Colour Transformations
3,100,163,162,255

[TimingPoints]
1491,363.636363636364,4,2,1,70,1,0
59672,-100,4,2,1,80,0,1
85854,-100,4,2,1,80,0,0

[Colours]
Combo1 : 255,189,89
Combo2 : 252,235,116
Combo3 : 0,128,255
Combo4 : 252,103,103

[HitObjects]
256,192,13127,1,4
160,88,13854,2,0,B|256:36|352:88,1,200
448,188,15309,1,2
404,320,16036,2,0,B|308:296|260:192|308:88|404:64,2,350,8|0|8
468,292,18945,6,0,B|468:92,1,200,2|2
352,172,20400,2,0,B|256:132|156:172,1,200,0|2
60,272,21854,2,0,B|156:312|256:272,2,200,0|8|2
156,172,24036,1,8
160,32,24763,6,0,B|273:48|296:160,1,200,4|0
156,172,26218,2,0,B|173:285|286:302,1,200,2|2
428,292,27672,2,0,B|428:92,1,200,0|8
304,156,29127,2,0,B|304:80|164:80|164:156,1,200,2|8
140,292,30581,6,0,B|240:332|340:292,1,200,4|2
472,264,32036,1,10
472,124,32763,1,2
336,148,33491,2,0,B|280:148|240:168|240:168|200:148|140:148,1,200,8|0
216,32,34945,1,2
348,72,35672,1,2
392,192,36400,6,0,B|392:248|360:288,1,100,4|8
308,332,37127,2,0,B|264:372|217:332,1,100,0|8
160,292,37854,1,2
60,192,38581,1,2
164,100,39309,5,2
304,100,40036,2,0,B|392:92|436:156|436:216,2,200,2|8|2
328,236,42218,6,0,B|324:288|256:316|188:288|184:236,1,200,4|2
256,116,43672,2,0,B|256:72|228:56|192:56,1,100,0|8
120,56,44400,2,0,B|120:160,1,100,0|8
120,228,45127,1,0
256,268,45854,5,2
388,228,46581,2,0,B|387:167|343:103|255:111,1,200
192,136,47672,1,2
124,112,48036,6,0,B|32:124|0:220|32:300|128:308,1,300,4|8
200,308,49491,2,0,B|264:308|264:244,1,100,2|8
264,176,50218,2,0,B|264:116|200:116,1,100,2|8
132,116,50945,1,2
132,256,51672,5,8
256,324,52400,1,0
396,304,53127,1,8
416,236,53491,1,2
424,168,53854,6,0,B|424:112|384:72|320:56|280:76,1,200,4|8
256,216,55309,1,2
256,192,56036,12,2,58036
392,48,59672,6,0,B|416:96|416:152,1,100,4|8
392,208,60400,2,0,B|344:232|296:208,1,100,0|8
224,208,61127,2,0,B|176:232|128:208,1,100,0|8
96,144,61854,2,0,B|95:95|119:47,1,100,2|8
188,52,62581,6,8,B|288:80|388:52,1,200,2|8
384,192,64036,2,8,B|284:164|184:192,1,200,0|8
72,280,65491,5,4
184,360,66218,2,0,B|384:360,1,200,8|0
384,220,67672,1,8
368,80,68400,6,0,B|352:160|256:192|160:160|144:80,1,300,8|2
76,68,69854,2,0,B|16:152|16:268|76:352,1,300,8|2
144,352,71309,5,4
256,268,72036,1,2
256,128,72763,2,0,B|56:128,1,200,2|2
56,200,73854,1,10
56,272,74218,6,0,B|156:272,1,100,0|8
156,344,74945,2,0,B|260:344,1,100,0|8
328,344,75672,2,0,B|432:344|432:344|432:248,1,200
364,228,76763,1,8
296,236,77127,6,0,B|240:372|96:316|152:176,1,300,4|2
120,116,78581,1,8
256,88,79309,1,2
320,60,79672,1,4
392,60,80036,6,0,B|392:132|368:156,1,100,2|8
368,224,80763,2,0,B|392:248|392:320,1,100,2|8
320,316,81491,2,4,B|216:316,1,100,2|8
148,316,82218,2,0,B|108:272|148:228,1,100,2|2
212,196,82945,1,4
256,192,83127,12,4,88581
