osu file format v6

[General]
AudioFilename: coin_laundry.mp3
AudioLeadIn: 0
PreviewTime: 145961
Countdown: 0
SampleSet: Soft
StackLeniency: 0.7
Mode: 0
LetterboxInBreaks: 1

[Editor]
DistanceSpacing: 0.800000011920929
BeatDivisor: 2
GridSize: 8

[Metadata]
Title:Coin Laundry
Artist:Lisa Mitchell
Creator:haisha_
Version:Undies
Source:
Tags:Australian Idol

[Difficulty]
HPDrainRate:4
CircleSize:4
OverallDifficulty:4
SliderMultiplier:1
SliderTickRate:1

[Events]
//Background and Video events
Video,-3525,"coin_laundry_mv.avi"
0,0,"large-LisaMitchell.jpg"
//Break Periods
2,59683,63075
2,65472,68688
2,106344,116402
2,129500,137101
//Storyboard Layer 0 (Background)
//Storyboard Layer 1 (Fail)
//Storyboard Layer 2 (Pass)
//Storyboard Layer 3 (Foreground)
//Storyboard Sound Samples
//Background Colour Transformations
3,100,192,192,192

[TimingPoints]
894,350.836159513507,4,2,0,37,1,0
37306,-100,4,2,0,37,0,1
56312,-100,4,2,0,37,0,1
59470,-100,4,2,0,37,0,1
59821,-100,4,2,0,37,0,0
71400,-100,4,2,0,37,0,0
72102,-100,4,2,0,37,0,0
83681,-100,4,2,0,37,0,1
106137,-100,4,2,0,37,0,0
118768,-100,4,2,0,37,0,0
129295,-100,4,2,0,37,0,0
143330,-100,4,2,0,21,0,0
143335,-100,4,2,0,15,0,1
143681,-100,4,2,0,26,0,1
143856,-100,4,2,0,36,0,1
145961,-100,4,2,0,49,0,1
184207,-100,4,2,0,51,0,0

[Colours]
Combo1 : 249,249,255
Combo2 : 233,132,31

[HitObjects]
48,208,3700,2,0,L|160:176,1,100
224,200,4402,2,0,L|320:248,1,100
384,208,5104,2,0,L|496:160,1,100
432,96,5805,6,0,L|304:144,1,100
272,176,6507,2,0,L|160:112,1,100
128,176,7209,2,0,L|16:208,1,100
32,280,7910,2,2,B|80:312|160:272,2,100
80,64,9314,5,0
160,64,9664,2,0,B|272:64,2,100
80,64,10717,2,0,B|48:128|96:176,1,100
160,160,11419,1,0
240,160,11769,2,0,B|304:192|368:144,2,100
240,88,12822,6,0,B|304:56|368:104,2,100
240,88,13874,1,8
240,88,14225,1,8
240,88,14576,1,8
160,88,14927,5,4
160,88,15278,2,2,B|0:104|64:184|48:264,1,200
128,216,16330,1,0
208,216,16681,2,2,B|368:220|315:133|340:55,1,200
256,104,17734,6,8,B|144:104,2,100
328,104,18786,1,0
400,104,19137,2,8,B|400:216,2,100
328,104,20189,1,0
328,104,20540,6,2,B|169:100|222:186|185:264,1,200
280,216,21593,1,0
360,216,21944,2,2,B|367:376|279:324|202:351,1,200
248,264,22996,5,0
248,264,23347,1,0
248,264,23698,1,0
168,264,24049,2,8,B|56:264,1,100
64,184,24750,1,0
64,104,25101,5,8
144,104,25452,1,8
224,104,25803,1,8
304,104,26154,2,0,B|360:80|408:112,2,100
312,240,27557,6,0,B|264:208|216:240,1,100
264,304,28259,2,0,B|216:336|168:304|168:304|152:304,1,100,8|0
216,240,28960,2,0,B|168:208|120:240,1,100
168,304,29662,2,0,B|104:336|56:288,2,100,8|0|0
168,304,30715,5,8
168,224,31065,1,8
168,224,31416,1,8
88,224,31767,1,0
88,224,32118,2,0,B|88:288,2,50
88,144,32820,5,8
168,144,33170,1,0
248,144,33521,1,0
328,144,33872,1,8
328,320,34574,6,0,B|328:216,1,100
328,144,35275,2,2,B|280:120|216:152,2,100,10|2|2
328,144,36328,1,8
328,144,36679,1,12
256,192,37030,12,0,39135
128,80,39485,5,8
208,80,39836,1,0
288,80,40187,2,8,B|336:144|272:192,1,100
208,176,40889,1,0
208,176,41240,1,0
208,256,41590,5,0
208,256,41941,1,0
288,256,42292,2,2,B|352:288|416:240,2,100
256,192,43169,12,0,44748
256,192,45099,5,12
256,192,45450,1,0
336,192,45801,2,0,B|448:192,2,100
256,192,46853,1,8
176,192,47204,2,0,B|48:192,2,100
256,192,48256,12,0,50361
160,96,50712,5,8
240,96,51063,2,0,B|272:160|224:192,2,100
160,96,52116,1,8
160,96,52466,1,0
80,96,52817,1,0
80,96,53168,2,8,B|48:160|96:208,2,100
256,192,54221,12,0,55975
112,176,56326,6,0,B|112:112,3,50
112,128,57027,2,2,B|160:96|208:128,1,100
208,208,57729,5,0
208,208,58080,1,0
288,208,58431,2,8,B|352:240|416:192,1,100
384,210,59132,5,8
384,210,59483,1,4
256,192,64395,5,2
256,192,64570,1,2
256,192,65097,1,2
256,192,65272,1,2
160,192,70008,6,0,B|224:160,1,50
352,192,70710,2,0,B|288:160,1,50
256,48,71412,5,2
256,48,71762,5,2
256,48,72113,5,2
336,48,72464,6,8,B|384:16|432:48,2,100
176,48,73867,2,8,B|128:16|80:48,2,100
176,192,75271,5,0
256,192,75622,1,0
336,192,75972,1,8
416,192,76323,2,0,B|448:128|400:80,2,100
416,192,77376,1,8
144,192,78077,6,0,B|192:160|240:192,2,100,0|0|8
320,192,79481,1,0
320,192,79832,1,0
320,192,80182,1,8
320,320,80884,5,0
320,320,81235,1,0
240,320,81586,1,8
240,320,81937,1,0
160,320,82287,2,4,B|112:272|176:224,2,100,4|4|12
256,192,83340,12,0,85445
128,192,85796,5,0
128,192,86147,1,0
208,192,86498,2,0,B|272:160|336:208,1,100
384,192,87199,5,8
384,192,87550,1,0
304,192,87901,2,0,B|240:160|176:208,1,100
128,192,88603,1,8
128,192,88953,1,2
256,192,89304,12,0,91058
256,192,91409,5,8
256,192,91760,1,0
336,192,92111,2,0,B|480:192,2,100
256,192,93163,5,0
176,192,93514,2,2,B|48:192,2,100
256,192,94567,12,0,96672
144,160,97023,6,0,B|144:80,3,50
144,110,97724,2,2,B|208:80|256:112,1,100
240,176,98426,6,0,B|240:249,3,50
240,226,99128,2,2,B|288:256|336:224,1,100
334,224,99829,5,4
334,224,100180,1,4
256,192,100531,12,0,102285
416,240,102636,6,0,B|416:112,1,100
416,64,103338,2,0,B|368:32|320:64,1,100
320,144,104039,1,8
320,144,104390,1,8
320,224,104741,6,0,B|208:224,1,100
220,224,105443,1,4
220,224,105794,1,4
220,224,106144,1,4
256,192,117722,5,0
256,192,118073,1,0
256,192,118424,1,0
336,192,118774,5,0
336,192,119125,1,0
416,192,119476,2,2,B|448:128|400:80,2,100
336,192,120529,2,8,B|224:192,1,100
80,192,122634,5,0
80,192,122984,1,0
80,112,123335,2,4,B|128:80|176:112,1,100
384,192,124388,5,0
384,192,124739,1,0
384,192,125090,1,0
304,192,125440,2,0,B|240:160|192:208,2,100
384,192,126493,1,8
136,48,128247,5,0
216,48,128598,1,0
296,48,128949,1,0
376,48,129300,1,8
80,192,138421,5,0
80,112,138772,1,0
160,112,139123,1,8
240,112,139474,1,0
320,112,139825,6,2,B|352:160|320:208|320:208|304:208,2,100,2|2|14
240,112,140877,1,0
160,112,141228,1,0
80,112,141579,1,0
160,112,141930,5,8
240,112,142280,1,0
320,112,142631,2,2,B|352:160|320:208,1,100
240,208,143333,6,4,B|176:208,4,50
256,192,144210,12,0,145789
112,62,146140,6,0,B|112:128,3,50
112,112,146841,2,2,B|160:144|208:112,1,100
288,112,147543,6,0,B|336:112|352:112,3,50
338,112,148245,2,2,B|368:160|336:208,2,100
256,112,149297,1,4
256,192,149648,12,0,151402
256,192,151753,5,0
256,192,151928,1,0
256,192,152104,1,0
336,192,152455,2,8,B|448:192,2,100
256,192,153507,5,0
176,192,153858,2,8,B|64:192,2,100
256,192,154911,12,4,157016
80,208,157366,6,0,B|80:288|80:320,2,100
80,128,158419,6,8,B|144:96|192:144,1,100
176,208,159121,2,0,B|288:208,2,100
176,128,160173,2,4,B|128:96|80:128,1,100
256,192,160875,12,0,162629
64,192,162980,5,0
144,192,163331,1,0
224,192,163681,1,0
304,192,164032,1,0
384,192,164383,5,8
464,192,164734,2,2,B|496:144|464:96,2,100
384,192,165786,1,4
256,192,166137,12,0,168242
128,192,168593,5,0
128,192,168944,1,0
128,192,169295,1,0
128,192,169646,2,8,B|96:144|144:96,2,100
384,192,171400,5,0
384,192,171751,1,0
384,192,172102,1,0
384,192,172452,2,8,B|416:144|368:96,2,100
112,304,174207,5,0
112,224,174557,1,0
112,144,174908,1,0
192,144,175259,1,0
272,144,175610,1,8
352,144,175961,2,2,B|400:192|352:240,2,100
352,64,177013,1,4
256,192,177364,12,0,179469
64,128,179820,5,0
64,128,180171,1,0
64,128,180522,1,0
64,128,180872,1,0
64,128,181223,6,4,B|144:80|240:80|304:80|400:80|480:144,1,400
450,123,182977,5,0
448,208,183328,1,0
368,208,183679,1,0
368,208,184030,1,2
96,288,185433,6,0,B|96:144,1,100
96,112,186135,2,4,B|144:80|192:112,1,100
192,192,186837,5,8
192,192,187188,1,8
192,272,187538,2,0,B|320:272,1,100
292,272,188240,5,4
292,272,188591,1,4
