osu file format v5

[General]
AudioFilename: Still Alive.mp3
AudioLeadIn: 0
PreviewTime: -1
Countdown: 0
SampleSet: Soft
StackLeniency: 0.7
Mode: 0
LetterboxInBreaks: 0
EditorBookmarks: 128434

[Metadata]
Title:Still Alive
Artist:Lisa Miskovsky
Creator:diistiil
Version:Hard
Source:
Tags:Mirror's edge mirrors

[Difficulty]
HPDrainRate:7
CircleSize:5
OverallDifficulty:6
SliderMultiplier:1.4
SliderTickRate:2

[Events]
//Background and Video events
0,0,"2189_Mirror_s_Edge_23.jpg"
//Break Periods
2,45976,53703
2,90871,103468
2,108722,121201
2,144858,153188
2,180173,195076
//Storyboard Layer 0 (Background)
//Storyboard Layer 1 (Failing)
//Storyboard Layer 2 (Passing)
//Storyboard Layer 3 (Foreground)
//Storyboard Sound Samples
//Background Colour Transformations
3,100,163,162,255

[TimingPoints]
19693.4195804196,419.58041958042,4,2,0,70,1

[Colours]
Combo1 : 255,89,89
Combo2 : 0,83,132
Combo3 : 160,221,254

[HitObjects]
256,192,17385,12,0,19064
184,128,19623,5,0
256,128,19903,1,0
328,128,20182,1,0
400,128,20462,2,0,B|400:224,1,93.3333333333333
328,224,21022,1,0
256,224,21301,1,4
256,152,21581,1,0
256,80,21861,6,0,B|352:80,1,93.3333333333333
424,80,22420,1,0
424,152,22700,1,0
424,224,22980,2,0,B|424:320|424:320|328:320,1,186.666666666667
256,320,23819,1,0
184,320,24099,6,0,B|280:320,1,93.3333333333333
352,320,24658,1,0
424,320,24938,2,0,B|424:208,1,93.3333333333333
424,152,25497,5,0
424,80,25777,1,4
352,80,26057,1,0
376,152,26336,5,0
400,120,26476,1,0
416,152,26616,1,0
448,216,26896,1,0
400,272,27175,1,0
328,280,27455,1,0
400,272,27735,2,0,B|456:264|480:208|408:144|392:112,1,186.666666666667
352,64,28574,1,4
280,32,28854,6,0,B|336:112,1,93.3333333333333
336,184,29413,1,0
336,256,29693,2,0,B|272:336,1,93.3333333333333
272,256,30252,5,4
256,192,30812,12,0,31931
360,192,32210,5,0
320,256,32490,1,4
248,288,32770,2,0,B|184:288|184:208,3,93.3333333333333
184,159,33889,2,0,B|183:103|247:103,1,93.3333333333333
319,103,34448,2,0,B|376:102|376:166,1,93.3333333333333
375,239,35008,2,0,B|377:296|313:296,3,93.3333333333333
246,296,36126,2,0,B|190:298|190:234,1,93.3333333333333
191,160,36686,1,4
264,160,36966,5,0
336,160,37245,1,0
336,232,37525,1,0
336,304,37805,6,0,B|336:368|416:368,2,93.3333333333333
336,232,38644,1,4
336,160,38924,2,0,B|337:99|281:100,1,93.3333333333333
208,96,39483,2,0,B|149:95|150:152,1,93.3333333333333
152,224,40043,2,0,B|154:281|90:281,1,93.3333333333333
16,280,40602,5,0
56,280,40742,1,0
96,280,40882,1,0
168,280,41161,1,0
168,208,41441,1,0
168,168,41581,1,0
168,128,41721,2,0,B|168:64|240:64,3,93.3333333333333
295,64,42840,6,2,B|350:63|350:127,2,93.3333333333333,2|2|2
216,64,43679,5,4
216,136,43959,1,0
216,208,44238,1,0
216,280,44518,5,2
240,304,44658,1,0
272,280,44798,1,2
296,304,44938,1,0
328,280,45078,2,2,B|392:208,1,93.3333333333333
352,112,45707,5,4
280,112,54938,5,0
352,112,55217,1,0
352,184,55497,1,0
352,256,55777,1,4
352,184,56057,5,0
280,184,56336,1,0
208,184,56616,1,0
208,256,56896,1,4
280,256,57175,5,0
320,256,57315,1,0
360,256,57455,1,0
360,184,57735,1,0
360,112,58015,1,0
320,112,58154,1,0
280,112,58294,1,0
272,184,58574,6,0,B|160:184,1,93.3333333333333
104,184,59133,1,0
104,112,59413,1,4
112,40,59693,6,0,B|168:120,1,93.3333333333333
168,192,60252,1,0
168,264,60532,2,0,B|104:344,2,93.3333333333333
208,200,61371,1,4
432,200,62210,5,0
432,160,62350,1,0
432,120,62490,1,0
368,160,62770,1,0
296,160,63050,1,0
224,160,63329,2,0,B|128:160|128:160|128:0,2,186.666666666667
296,160,64728,5,0
368,160,65008,1,0
368,232,65287,2,0,B|256:232,2,93.3333333333333
440,232,66126,1,0
368,232,66406,1,0
368,304,66686,1,0
296,304,66966,1,0
224,304,67245,1,0
224,232,67525,5,0
224,192,67665,1,0
224,152,67805,2,0,B|224:56,2,93.3333333333333
224,224,68644,1,4
224,152,68924,5,0
296,152,69203,1,0
368,152,69483,1,0
368,224,69763,1,0
368,296,70043,1,0
296,296,70322,1,0
224,296,70602,1,0
224,224,70882,1,4
296,224,71161,2,0,B|360:224|360:152,2,93.3333333333333
224,224,72001,1,0
184,224,72140,1,0
144,224,72280,1,0
104,224,72420,2,0,B|0:224,1,93.3333333333333
256,192,72980,12,0,74378
336,144,74868,5,0
336,216,75147,1,0
336,256,75287,1,0
336,296,75427,1,0
264,296,75707,1,0
264,224,75987,5,0
264,72,76546,1,4
264,224,77106,5,0
336,224,77385,1,0
408,224,77665,1,0
408,152,77945,5,0
408,80,78224,2,0,B|408:16|328:16,2,93.3333333333333
408,152,79064,1,0
408,224,79343,5,0
368,224,79483,1,0
328,224,79623,1,0
408,96,80182,1,0
336,96,80462,1,0
264,96,80742,1,0
192,96,81022,6,0,B|120:96|120:168,2,93.3333333333333
264,96,81861,1,0
336,96,82140,2,0,B|408:96|408:168,2,93.3333333333333
264,96,82980,6,0,B|216:96|216:168,1,93.3333333333333
216,240,83539,2,0,B|216:288|144:288,2,93.3333333333333
216,168,84378,1,0
216,96,84658,1,0
216,168,84938,1,0
256,168,85078,1,0
296,168,85217,2,0,B|352:168|352:104,2,93.3333333333333
216,168,86057,2,0,B|157:168|157:224,2,93.3333333333333
288,168,86896,5,0
360,168,87175,1,0
208,168,87735,1,4
208,320,88294,1,0
56,320,88854,1,0
56,248,89133,1,0
56,176,89413,2,0,B|56:72|176:72|176:176|176:176|176:280|288:280|288:176,1,420
176,160,104518,5,0
216,160,104658,1,0
256,160,104798,1,0
328,160,105078,1,0
400,160,105357,1,4
400,232,105637,5,0
360,232,105777,1,0
320,232,105917,1,0
248,232,106197,1,0
176,232,106476,1,4
256,192,106756,12,0,108364
248,208,122560,5,0
320,208,122840,1,0
392,208,123119,1,0
432,208,123259,1,0
432,168,123399,1,0
432,96,123679,5,0
360,96,123959,1,0
360,168,124238,1,0
360,208,124378,1,0
320,208,124518,1,0
248,208,124798,5,0
208,208,124938,1,0
168,208,125078,1,0
168,136,125357,1,0
168,96,125497,1,0
168,56,125637,1,0
240,56,125917,1,4
392,56,126476,5,0
392,96,126616,1,0
392,136,126756,2,0,B|392:192|328:192,1,93.3333333333333
256,192,127315,2,0,B|200:192|200:128,2,93.3333333333333
328,192,128154,1,0
399,191,128434,2,0,B|459:192|459:136,2,93.3333333333333
256,192,129273,12,0,130392
376,144,131231,5,0
376,216,131511,1,0
304,216,131791,1,0
264,216,131931,1,0
224,216,132071,1,0
376,216,132630,6,0,B|448:216|448:144,2,93.3333333333333
304,216,133469,1,0
232,216,133749,1,0
160,216,134029,1,0
88,216,134308,2,0,B|16:216|16:288,2,93.3333333333333
256,192,134938,12,0,136266
248,112,136546,5,0
312,128,136826,1,0
336,200,137106,2,0,B|336:112|248:112,2,140
216,112,138504,1,0
176,120,138644,1,0
144,136,138784,2,0,B|112:160|96:192|96:232,1,93.3333333333333
96,288,139343,2,0,B|104:328|120:344|160:368,4,93.3333333333333
168,280,140742,5,0
168,240,140882,1,0
168,200,141022,1,0
320,200,141581,1,4
472,200,142140,5,0
472,240,142280,1,0
472,280,142420,1,0
400,280,142700,1,4
328,280,142980,6,0,B|288:272|264:240|240:208,1,93.3333333333333
216,160,143539,2,0,B|200:128|200:88|208:56,3,93.3333333333333
205,68,144658,1,4
200,144,154238,5,0
272,144,154518,1,0
344,144,154798,2,0,B|432:144|432:48,2,140
272,144,155917,1,0
200,144,156196,1,0
128,144,156476,6,0,B|40:144|40:240,2,140
200,144,157595,1,0
272,144,157875,2,0,B|360:144|360:48,2,140
232,144,158854,5,0
192,152,158994,1,0
168,176,159133,1,0
120,232,159413,2,0,B|80:264|72:304|72:336,2,116.666666666667
168,176,160392,1,0
192,152,160531,1,0
232,144,160671,1,4
256,192,161231,12,0,162910
288,176,163609,5,0
104,176,164308,1,0
176,176,164588,1,0
472,176,165707,5,0
248,176,166546,1,0
248,104,166826,1,0
456,320,167945,1,0
456,248,168224,1,0
456,176,168504,1,0
304,176,169064,1,0
96,328,170183,1,0
248,328,170742,2,0,B|248:224,1,93.3333333333333
80,320,172420,5,0
232,320,172980,1,0
384,320,173539,1,4
384,248,173819,1,0
384,176,174099,1,0
384,104,174378,1,0
312,104,174658,1,0
160,104,175218,1,0
160,256,175777,1,4
160,184,176057,1,0
160,112,176337,1,0
160,40,176616,1,0
272,40,177036,1,0
344,40,177315,1,0
344,112,177595,1,0
344,184,177875,2,0,B|344:280,2,93.3333333333333
256,192,178714,12,0,179973
256,192,196126,12,0,198504
336,120,199064,5,0
336,160,199203,1,0
336,200,199343,1,0
336,272,199623,2,0,B|224:272,1,93.3333333333333
240,200,200182,5,0
240,128,200462,2,0,B|240:72|304:72,2,93.3333333333333
240,200,201301,1,0
240,272,201581,2,0,B|240:328|176:328,2,93.3333333333333
240,200,202420,5,4
304,168,202700,1,0
328,96,202980,2,0,B|352:152|296:176,2,93.3333333333333
304,168,203819,1,0
328,136,203959,1,0
328,96,204099,1,0
400,96,204378,1,0
400,248,204938,1,0
400,320,205217,1,0
328,320,205497,1,0
256,320,205777,2,0,B|192:320|160:280|160:216,1,140
160,200,206476,1,0
160,128,206756,5,0
160,88,206896,1,0
160,48,207036,1,0
256,192,207175,12,0,208015
200,120,208294,5,0
272,120,208574,1,0
344,120,208854,1,0
344,192,209133,1,0
344,264,209413,1,0
416,264,209693,1,4
344,264,209973,1,0
264,264,210252,5,0
232,240,210392,1,0
216,208,210532,1,0
208,136,210812,1,0
208,64,211092,1,0
224,32,211232,1,0
256,8,211372,1,0
288,8,211511,2,0,B|320:40|336:88,1,93.3333333333333
336,160,212071,5,4
280,208,212350,6,0,B|200:264,1,93.3333333333333
144,208,212909,1,0
88,152,213189,6,2,B|8:88,1,93.3333333333333
104,96,213749,6,2,B|184:152,1,93.3333333333333
256,152,214308,5,0
296,152,214448,1,0
336,152,214588,2,0,B|416:88,1,93.3333333333333
464,48,215147,5,0
432,72,215287,1,0
376,120,215567,2,2,B|296:184,3,93.3333333333333
240,224,216686,1,4
312,224,216966,1,0
384,200,217245,1,0
432,144,217525,1,0
432,72,217805,1,0
280,72,218364,1,4
280,224,218924,5,0
312,288,219203,1,0
368,336,219483,2,0,B|432:336|456:296|488:256|488:208,3,186.666666666667
488,136,221441,6,0,B|488:80|456:48,3,93.3333333333333
488,200,222840,1,0
336,200,223399,1,0
264,200,223679,1,0
192,200,223959,1,0
40,200,224518,1,0
40,128,224798,6,2,B|40:64|104:40,4,93.3333333333333
40,200,226196,1,0
104,232,226476,1,0
176,232,226756,2,0,B|232:232|280:200,1,93.3333333333333
328,168,227315,1,0
352,136,227455,1,0
360,96,227595,1,4
360,168,227875,5,0
360,240,228154,2,0,B|360:336,4,93.3333333333333
280,240,229553,5,0
208,240,229833,1,0
208,168,230113,2,0,B|208:56,1,93.3333333333333
280,72,230672,6,0,B|304:120,1,46.6666666666667
320,144,230952,2,0,B|344:192,1,46.6666666666667
360,216,231231,2,0,B|384:264,6,46.6666666666667
320,152,232350,1,0
288,128,232490,1,0
248,120,232630,1,0
176,120,232910,1,0
136,128,233050,1,0
104,152,233190,1,0
56,208,233469,1,0
32,240,233609,1,0
16,272,233749,1,0
256,192,233889,12,0,235847
384,192,236406,5,0
312,192,236686,1,0
240,192,236966,1,0
168,192,237245,1,0
256,192,237525,12,0,238084
256,192,238364,12,0,238644
256,192,238924,12,0,239204
256,192,239483,12,0,239763
256,192,240043,12,0,240323
256,192,240602,12,4,240882
432,56,242001,5,0
360,56,242280,1,0
288,56,242560,1,0
216,56,242840,1,0
144,56,243119,1,0
72,56,243399,1,4
72,208,243959,5,0
112,272,244238,1,0
176,312,244518,1,0
248,312,244798,1,0
280,296,244938,1,0
304,264,245078,2,0,B|344:216|352:168,3,93.3333333333333
368,112,246196,5,0
216,112,246756,1,0
216,264,247315,1,0
368,264,247875,1,0
368,96,248504,5,0
296,96,248784,1,0
224,96,249064,1,0
152,96,249343,1,0
152,168,249623,6,0,B|152:256|240:256,1,140
311,256,250322,2,0,B|397:257|397:169,1,140
392,96,251022,2,2,B|392:40|328:40,1,93.3333333333333
256,40,251581,1,0
184,40,251861,2,2,B|128:40|128:104,2,93.3333333333333
256,40,252700,1,0
296,40,252840,1,0
336,40,252980,1,4
256,192,253259,12,0,256057
